osu file format v11

[General]
AudioFilename: max speed.mp3
AudioLeadIn: 1004
PreviewTime: -1
Countdown: 0
SampleSet: Normal
StackLeniency: 0.5
Mode: 0
LetterboxInBreaks: 1

[Editor]
Bookmarks: 297,23469,53262,79745,83055,96297,109538,124434,150917,175745,182365
DistanceSpacing: 1
BeatDivisor: 4
GridSize: 4

[Metadata]
Title:Max Speed
TitleUnicode:极速
Artist:Cheng Yee Kin
ArtistUnicode:郑伊健
Creator:lkx_shore
Version:Shore
Source:
Tags:
BeatmapID:216186
BeatmapSetID:76853

[Difficulty]
HPDrainRate:7
CircleSize:4
OverallDifficulty:6
ApproachRate:8
SliderMultiplier:1.8
SliderTickRate:1

[Events]
//Background and Video events
//Break Periods
2,40220,50856
2,81400,82305
2,111393,122029
2,151117,151822
//Storyboard Layer 0 (Background)
//Storyboard Layer 1 (Fail)
//Storyboard Layer 2 (Pass)
//Storyboard Layer 3 (Foreground)
//Storyboard Sound Samples
//Background Colour Transformations
3,100,163,162,255

[TimingPoints]
23469,413.793103448276,4,1,0,60,1,0
53262,-100,4,1,0,60,0,1
66400,-100,4,1,0,60,0,0
66503,-100,4,1,0,60,0,1
79745,-100,4,1,0,60,0,0
96089,-100,4,1,0,5,0,0
96296,-100,4,1,0,60,0,0
124434,-100,4,1,0,60,0,1
137572,-100,4,1,0,60,0,0
137675,-100,4,1,0,60,0,1
150917,-100,4,1,0,60,0,0
182365,-100,4,1,0,60,0,1
195607,-100,4,1,0,60,0,0

[HitObjects]
148,96,25124,2,0,P|84:148|108:236,1,180
276,180,25951,1,0,0:0:0
276,180,26365,2,0,P|324:92,1,90
368,24,26779,6,0,P|416:104|392:160,1,135,4|0,0:0|0:0,0:0:0
400,184,27193,2,0,P|400:228|428:264,1,90,8|0,0:0|0:0,0:0:0
488,200,27606,1,0,0:0:0
312,280,27813,1,0,0:0:0
312,280,27917,1,0,0:0:0
312,280,28020,2,0,P|200:280,1,90,8|0,0:0|0:0,0:0:0
132,280,28434,6,0,P|104:216|128:152,1,135
192,128,28848,2,0,P|200:180|176:216,1,90,8|0,0:0|0:0,0:0:0
48,256,29262,1,0,0:0:0
48,256,29469,1,0,0:0:0
196,336,29675,1,8,0:0:0
196,336,29882,1,0,0:0:0
300,284,30089,6,0,P|436:284,1,135
456,284,30503,1,8,0:0:0
412,204,30710,1,0,0:0:0
336,364,30917,1,0,0:0:0
228,284,31124,1,0,0:0:0
112,212,31331,1,8,0:0:0
108,348,31537,1,0,0:0:0
236,140,31744,6,0,P|304:120|352:156,1,135
335,236,32158,2,0,P|328:216|351:155,1,90,8|0,0:0|0:0,0:0:0
476,100,32572,1,0,0:0:0
428,204,32779,1,0,0:0:0
428,204,32882,1,0,0:0:0
428,204,32986,2,0,P|352:156,1,90,8|0,0:0|0:0,0:0:0
200,60,33400,6,0,P|140:96|136:160,1,135
160,268,33813,2,0,P|160:164,1,90,8|0,0:0|0:0,0:0:0
56,126,34227,2,0,P|56:216,1,90
56,240,34537,1,0,0:0:0
56,264,34641,1,8,0:0:0
308,116,34848,1,0,0:0:0
256,180,35055,6,0,P|312:216|376:200,1,135
392,188,35469,1,8,0:0:0
440,112,35675,1,0,0:0:0
352,108,35882,2,0,P|316:148|308:184,1,90
348,316,36296,2,0,P|472:316,1,90,8|0,0:0|0:0,0:0:0
328,228,36710,6,0,P|272:264|260:332,1,135
259,327,37124,2,0,P|164:280,1,90,8|0,0:0|0:0,0:0:0
96,248,37537,1,0,0:0:0
104,336,37744,1,0,0:0:0
200,132,37951,1,8,0:0:0
304,100,38158,6,0,P|400:74,1,90
412,71,38469,1,0,0:0:0
435,64,38572,1,8,0:0:0
393,187,38779,1,0,0:0:0
416,181,38882,1,0,0:0:0
440,175,38986,1,8,0:0:0
452,280,39193,5,0,0:0:0
432,288,39296,1,0,0:0:0
412,296,39400,1,8,0:0:0
392,304,39503,1,0,0:0:0
372,312,39606,2,0,P|316:296|304:264,1,90,0|8,0:0|0:0,0:0:0
435,64,40020,1,4,0:0:0
124,80,51606,5,0,0:0:0
124,104,51710,1,0,0:0:0
124,128,51813,1,8,0:0:0
400,168,52227,5,0,0:0:0
400,216,52331,1,0,0:0:0
400,264,52434,1,8,0:0:0
128,288,52848,5,0,0:0:0
128,288,53055,1,0,0:0:0
128,288,53262,2,2,P|176:268|192:228,1,90,6|0,0:0|0:0,0:0:0
124,128,53572,1,0,0:0:0
124,128,53675,2,2,P|124:228,1,90,10|0,0:0|0:0,0:0:0
256,292,54089,2,2,P|344:276|388:348,1,180,2|8,0:0|0:0,0:0:0
312,344,54710,1,2,0:0:0
436,260,54917,6,2,P|460:224|456:176,1,90,0|2,0:0|0:0,0:0:0
416,156,55227,1,0,0:0:0
372,156,55331,2,2,P|348:192|352:240,1,90,8|2,0:0|0:0,0:0:0
372,328,55744,1,2,0:0:0
416,156,55951,1,2,0:0:0
372,328,56158,1,10,0:0:0
248,308,56365,6,2,P|60:308,1,180,2|2,0:0|0:0,0:0:0
92,132,56986,2,0,P|112:236,1,90,10|2,0:0|0:0,0:0:0
248,308,57400,2,2,P|228:200,1,90,0|2,0:0|0:0,0:0:0
92,52,57813,2,2,P|36:72|20:120,1,90,8|2,0:0|0:0,0:0:0
168,228,58227,6,2,P|288:160,1,135,6|0,0:0|0:0,0:0:0
304,152,58641,1,10,0:0:0
384,108,58848,1,2,0:0:0
280,280,59055,1,2,0:0:0
180,108,59262,1,0,0:0:0
116,168,59469,2,2,P|112:224|140:264,1,90,10|0,0:0|0:0,0:0:0
384,296,59882,6,2,P|448:276|464:212,1,135,6|0,0:0|0:0,0:0:0
392,132,60296,2,2,P|392:232,1,90,8|2,0:0|0:0,0:0:0
228,292,60710,1,2,0:0:0
199,258,60813,1,0,0:0:0
187,215,60917,1,0,0:0:0
196,171,61020,1,0,0:0:0
224,136,61123,1,8,0:0:0
344,308,61331,1,0,0:0:0
344,308,61537,6,2,P|472:252,1,135,6|0,0:0|0:0,0:0:0
472,336,61951,2,2,P|396:280,1,90,10|0,0:0|0:0,0:0:0
272,188,62365,1,2,0:0:0
239,157,62468,1,0,0:0:0
196,143,62571,1,0,0:0:0
152,149,62675,1,0,0:0:0
114,173,62778,1,8,0:0:0
88,308,62986,5,0,0:0:0
88,308,63089,1,0,0:0:0
88,308,63193,2,2,P|132:300|176:224,1,135,6|0,0:0|0:0,0:0:0
40,152,63606,2,2,P|100:232,1,90,8|2,0:0|0:0,0:0:0
192,360,64020,1,2,0:0:0
340,308,64227,2,0,P|380:288,1,45
408,272,64434,1,10,0:0:0
408,272,64641,1,2,0:0:0
420,172,64848,6,0,P|424:124,2,45,0|0|8,0:0|0:0|0:0,0:0:0
324,220,65262,5,0,0:0:0
324,196,65366,1,0,0:0:0
324,172,65469,1,8,0:0:0
228,248,65675,6,0,P|188:220,1,45
180,124,65882,2,0,P|159:79,1,45,8|0,0:0|0:0,0:0:0
89,22,66089,1,8,0:0:0
89,22,66296,1,0,0:0:0
20,144,66503,6,2,P|84:152|128:104,1,135,6|0,0:0|0:0,0:0:0
89,22,66917,2,2,P|128:103,1,90,8|0,0:0|0:0,0:0:0
188,248,67331,1,2,0:0:0
221,277,67434,1,0,0:0:0
264,287,67537,1,0,0:0:0
308,278,67641,1,0,0:0:0
342,249,67744,1,8,0:0:0
248,192,67951,1,2,0:0:0
460,152,68158,6,2,P|472:104|452:36,1,90,2|2,0:0|0:0,0:0:0
216,64,68572,1,8,0:0:0
216,64,68779,2,2,P|216:244,1,180,2|2,0:0|0:0,0:0:0
156,328,69400,2,0,P|124:288|120:248,1,90,8|2,0:0|0:0,0:0:0
136,84,69813,5,0,0:0:0
136,84,70020,1,2,0:0:0
172,168,70227,1,10,0:0:0
172,168,70434,1,2,0:0:0
232,100,70641,1,0,0:0:0
232,100,70848,1,2,0:0:0
268,184,71055,1,10,0:0:0
268,184,71262,1,2,0:0:0
332,112,71469,6,2,P|468:112,1,135,6|0,0:0|0:0,0:0:0
404,68,71882,2,2,P|392:116|404:156,1,90,8|2,0:0|0:0,0:0:0
448,224,72296,1,2,0:0:0
316,196,72503,1,2,0:0:0
320,224,72710,5,8,0:0:0
452,252,72917,1,2,0:0:0
324,256,73124,6,2,P|268:240|240:168,1,135,4|0,0:0|0:0,0:0:0
248,152,73537,1,10,0:0:0
336,168,73744,1,2,0:0:0
324,256,73951,2,2,P|144:256,1,180,2|8,0:0|0:0,0:0:0
176,336,74572,1,0,0:0:0
176,336,74779,6,2,P|224:200,1,135,6|0,0:0|0:0,0:0:0
228,188,75193,1,8,0:0:0
264,104,75400,1,2,0:0:0
316,184,75606,2,2,P|272:196|224:186,1,90,2|0,0:0|0:0,0:0:0
88,72,76020,1,8,0:0:0
204,80,76227,5,0,0:0:0
204,80,76331,1,0,0:0:0
204,80,76434,2,0,P|132:200,2,135,6|2|2,0:0|0:0|0:0,0:0:0
308,80,77262,2,0,P|380:200,2,135,2|2|2,0:0|0:0|0:0,0:0:0
256,136,78089,5,0,0:0:0
256,160,78193,1,0,0:0:0
256,184,78296,1,8,0:0:0
256,136,78503,5,0,0:0:0
256,160,78607,1,0,0:0:0
256,184,78710,1,8,0:0:0
256,136,78917,5,0,0:0:0
256,160,79020,1,0,0:0:0
256,184,79124,1,8,0:0:0
256,208,79227,1,0,0:0:0
256,232,79331,1,0,0:0:0
256,256,79434,1,0,0:0:0
256,280,79537,1,8,0:0:0
256,304,79641,1,0,0:0:0
256,328,79744,1,4,0:0:0
104,224,83055,6,0,P|280:188,1,180,0|8,0:0|0:0,0:0:0
224,116,83675,2,0,P|192:200|240:268,1,180
328,256,84296,1,8,0:0:0
328,256,84710,5,0,0:0:0
392,192,84917,1,0,0:0:0
480,212,85124,1,8,0:0:0
416,280,85331,2,0,P|332:260|304:176,1,180
332,92,85951,1,8,0:0:0
192,204,86158,5,0,0:0:0
192,204,86262,1,0,0:0:0
192,204,86365,2,0,P|336:88,1,180,0|8,0:0|0:0,0:0:0
260,36,86986,1,0,0:0:0
260,36,87400,2,0,P|260:152,1,90,0|8,0:0|0:0,0:0:0
260,216,87813,5,0,0:0:0
260,216,87917,1,0,0:0:0
260,216,88020,2,0,P|308:224|332:256,1,90
256,304,88434,1,8,0:0:0
256,304,88641,2,0,P|352:148,1,180
400,76,89262,1,8,0:0:0
92,248,89675,6,0,P|144:316|224:288,1,180,0|8,0:0|0:0,0:0:0
240,200,90296,2,0,P|188:132|108:160,1,180
240,200,90917,2,0,P|296:92,1,90,8|0,0:0|0:0,0:0:0
324,40,91331,5,0,0:0:0
376,112,91537,1,0,0:0:0
424,184,91744,1,8,0:0:0
464,104,91951,2,0,P|308:208,1,180
248,268,92572,2,0,P|192:224|188:180,1,90,8|0,0:0|0:0,0:0:0
336,300,92986,6,0,P|288:352|184:336,1,180,0|8,0:0|0:0,0:0:0
336,120,93606,2,0,P|336:300,1,180
96,208,94227,1,8,0:0:0
144,272,94434,1,0,0:0:0
144,272,94537,1,0,0:0:0
144,272,94641,6,0,P|236:260,1,90
256,192,95055,12,0,96089,0:0:0
280,124,96296,6,0,P|368:116|408:192,1,180
200,240,97124,1,0,0:0:0
200,240,97537,2,0,P|110:240,1,90
80,40,97951,6,0,P|152:164,1,135,4|0,0:0|0:0,0:0:0
219,119,98365,2,0,P|184:120|147:156,1,90,8|0,0:0|0:0,0:0:0
280,56,98779,2,0,P|324:56|360:88,1,90
364,108,99089,1,0,0:0:0
372,128,99193,2,0,P|405:156|449:156,1,90,8|0,0:0|0:0,0:0:0
436,72,99606,6,0,P|384:232,1,135
388,224,100020,1,8,0:0:0
496,320,100227,1,0,0:0:0
252,200,100434,2,0,P|200:204|172:232,1,90
156,272,100744,1,0,0:0:0
156,272,100848,2,0,P|172:364,1,90,8|0,0:0|0:0,0:0:0
356,232,101262,6,0,P|332:96,1,135
328,76,101675,1,8,0:0:0
424,116,101882,1,0,0:0:0
232,108,102089,2,0,P|188:88|168:48,1,90
240,36,102400,1,0,0:0:0
240,36,102503,2,0,P|168:116,1,90,8|0,0:0|0:0,0:0:0
44,228,102917,6,0,P|48:292|104:332,1,135
191,331,103331,2,0,P|101:331,1,90,8|0,0:0|0:0,0:0:0
340,284,103744,2,0,P|250:283,1,90
404,332,104158,1,8,0:0:0
404,332,104365,6,0,P|436:256|404:168,1,180
376,204,104882,1,0,0:0:0
376,204,104986,2,0,P|488:204,1,90,8|0,0:0|0:0,0:0:0
308,152,105400,2,0,P|196:152,1,90
76,248,105813,1,8,0:0:0
168,320,106020,5,0,0:0:0
168,320,106124,1,0,0:0:0
168,320,106227,2,0,P|320:320,1,135
303,320,106641,2,0,P|360:300|380:260,1,90,8|0,0:0|0:0,0:0:0
209,64,107055,2,0,P|152:84|132:124,1,90
212,148,107469,1,8,0:0:0
212,148,107675,6,0,P|28:148,1,180
60,324,108296,2,0,P|88:236,1,90,8|0,0:0|0:0,0:0:0
108,228,108606,1,0,0:0:0
128,220,108710,2,0,P|156:132,1,90
216,68,109124,1,8,0:0:0
364,156,109331,5,0,0:0:0
364,156,109434,1,0,0:0:0
364,156,109537,2,0,P|412:228|364:300,1,180,0|8,0:0|0:0,0:0:0
332,228,110158,1,0,0:0:0
264,184,110365,2,0,P|220:148,1,45,0|8,0:0|0:0,0:0:0
229,308,110675,2,0,P|264:280,1,45,8|0,0:0|0:0,0:0:0
140,228,110986,1,8,0:0:0
140,228,111089,1,0,0:0:0
140,228,111193,1,4,0:0:0
432,192,122779,6,0,P|384:152,1,45
364,136,122986,1,8,0:0:0
364,136,123400,5,0,0:0:0
328,164,123503,1,0,0:0:0
296,192,123606,1,8,0:0:0
296,192,124020,6,0,P|248:200|208:184,1,90
160,116,124434,2,0,P|160:188|112:220,1,135,4|0,0:0|0:0,0:0:0
88,220,124848,1,8,0:0:0
192,304,125055,1,0,0:0:0
192,304,125262,2,0,P|376:304,1,180,0|8,0:0|0:0,0:0:0
464,88,125882,1,0,0:0:0
372,304,126089,6,0,P|332:284|312:244,1,90
324,200,126400,1,0,0:0:0
368,192,126503,2,0,P|408:212|428:252,1,90,8|0,0:0|0:0,0:0:0
452,328,126917,1,0,0:0:0
324,200,127124,1,0,0:0:0
160,280,127331,1,8,0:0:0
192,360,127537,5,0,0:0:0
192,360,127641,1,0,0:0:0
192,360,127744,1,0,0:0:0
248,292,127951,1,0,0:0:0
112,124,128158,1,8,0:0:0
112,124,128365,1,0,0:0:0
176,188,128572,1,0,0:0:0
260,156,128779,1,0,0:0:0
196,92,128986,1,8,0:0:0
248,248,129193,1,0,0:0:0
340,108,129400,6,0,P|404:88|404:88|464:120,1,135
439,196,129813,2,0,P|432:152|432:152|463:119,1,90,8|0,0:0|0:0,0:0:0
512,60,130227,1,0,0:0:0
372,172,130434,1,0,0:0:0
200,120,130641,1,8,0:0:0
76,248,130848,1,0,0:0:0
76,248,131055,6,0,P|112:204|88:124,1,135
80,116,131469,1,8,0:0:0
32,180,131675,1,0,0:0:0
212,184,131882,1,0,0:0:0
255,191,131985,1,0,0:0:0
294,170,132088,1,0,0:0:0
310,129,132192,1,0,0:0:0
298,86,132295,1,8,0:0:0
164,108,132503,1,0,0:0:0
164,108,132710,6,0,P|124:164|132:228,1,135
144,244,133124,1,8,0:0:0
348,204,133331,1,0,0:0:0
220,188,133537,1,0,0:0:0
184,160,133640,1,0,0:0:0
165,120,133743,1,0,0:0:0
166,75,133847,1,0,0:0:0
187,36,133950,1,8,0:0:0
424,152,134158,5,0,0:0:0
424,152,134262,1,0,0:0:0
424,152,134365,2,0,P|456:288,1,135
460,304,134779,1,8,0:0:0
272,252,134986,2,0,P|380:252,1,90
312,336,135400,1,0,0:0:0
216,328,135606,1,8,0:0:0
176,240,135813,1,0,0:0:0
228,168,136020,5,0,0:0:0
228,168,136124,1,0,0:0:0
228,168,136227,1,8,0:0:0
324,176,136434,5,0,0:0:0
324,176,136537,1,0,0:0:0
324,176,136641,1,8,0:0:0
368,264,136848,5,0,0:0:0
368,264,136951,1,0,0:0:0
368,264,137055,1,8,0:0:0
368,264,137158,1,0,0:0:0
368,264,137262,2,0,P|412:240|424:200,1,90,0|8,0:0|0:0,0:0:0
172,48,137675,6,0,P|112:80|100:144,1,135,4|0,0:0|0:0,0:0:0
108,164,138089,1,8,0:0:0
248,92,138296,1,0,0:0:0
248,92,138503,2,0,P|248:272,1,180,0|8,0:0|0:0,0:0:0
176,232,139124,1,0,0:0:0
320,192,139331,6,0,P|440:192,1,90
176,148,139744,1,8,0:0:0
320,272,139951,2,0,P|272:344|188:324,1,180
156,256,140572,1,8,0:0:0
268,108,140779,1,0,0:0:0
392,232,140986,5,0,0:0:0
392,232,141193,1,0,0:0:0
468,176,141400,1,8,0:0:0
468,176,141606,1,0,0:0:0
380,144,141813,1,0,0:0:0
380,144,142020,1,0,0:0:0
476,272,142227,1,8,0:0:0
476,272,142434,1,0,0:0:0
308,196,142641,6,0,P|168:196,1,135
152,196,143055,2,0,P|128:240|136:284,1,90,8|0,0:0|0:0,0:0:0
196,344,143469,1,0,0:0:0
372,306,143675,1,0,0:0:0
390,127,143882,1,8,0:0:0
226,54,144089,1,0,0:0:0
105,188,144296,6,0,P|172:216|220:184,1,135
240,144,144710,2,0,P|276:252,1,90,8|0,0:0|0:0,0:0:0
372,249,145124,1,0,0:0:0
358,206,145227,1,0,0:0:0
344,164,145330,1,0,0:0:0
329,121,145434,1,0,0:0:0
315,78,145537,1,8,0:0:0
444,96,145744,1,0,0:0:0
228,152,145951,6,0,P|84:152,1,135
72,152,146365,1,8,0:0:0
124,352,146572,2,0,P|156:268,1,90
172,224,146882,1,0,0:0:0
188,181,146985,1,0,0:0:0
204,139,147088,1,0,0:0:0
220,97,147192,1,8,0:0:0
448,52,147400,5,0,0:0:0
448,52,147503,1,0,0:0:0
448,52,147606,1,2,0:0:0
408,252,147917,1,2,0:0:0
220,176,148227,1,2,0:0:0
316,80,148434,1,2,0:0:0
64,332,148744,1,2,0:0:0
104,132,149055,1,2,0:0:0
132,264,149262,6,0,P|188:264,1,45
224,264,149469,1,8,0:0:0
424,192,149675,6,0,P|368:192,1,45
332,192,149882,1,8,0:0:0
96,88,150089,6,0,P|104:132,1,45
176,188,150296,2,0,P|204:222,1,45,8|0,0:0|0:0,0:0:0
224,312,150503,2,0,P|288:312,1,45
316,312,150710,1,8,0:0:0
360,312,150813,1,0,0:0:0
404,312,150917,5,4,0:0:0
44,44,152572,5,4,0:0:0
