osu file format v9

[General]
AudioFilename: Wo De Wei Lai Shi.mp3
AudioLeadIn: 0
PreviewTime: 33599
Countdown: 0
SampleSet: Soft
StackLeniency: 0.7
Mode: 0
LetterboxInBreaks: 0

[Editor]
DistanceSpacing: 1
BeatDivisor: 4
GridSize: 4

[Metadata]
Title:Wo De Wei Lai Shi (TV Size)
Artist:Chen Mei Wen
Creator:zsr123
Version:Normal
Source:Ipartment 2
Tags:shiki OzzyOzrock ozzy

[Difficulty]
HPDrainRate:2
CircleSize:3
OverallDifficulty:3
ApproachRate:4
SliderMultiplier:0.999999999999998
SliderTickRate:1

[Events]
//Background and Video events
Video,1660,"Wo De Wei Lai Shi.flv"
0,0,"BG.jpg"
//Break Periods
2,46480,56732
//Storyboard Layer 0 (Background)
//Storyboard Layer 1 (Fail)
//Storyboard Layer 2 (Pass)
//Storyboard Layer 3 (Foreground)
//Storyboard Sound Samples
//Background Colour Transformations
3,100,163,162,255

[TimingPoints]
1903,461.538461538462,4,2,1,80,1,0
3749,379.746835443038,4,2,1,80,1,0
34128,-100,4,2,1,80,0,1
46280,-100,4,2,1,40,0,0
57673,-100,4,2,1,80,0,0
64413,-100,4,2,1,60,0,0
64793,-100,4,2,1,80,0,0
82736,-100,4,2,1,80,0,1
94793,-100,4,2,1,5,0,1
97926,-100,4,2,1,5,0,0

[Colours]
Combo1 : 255,45,115
Combo2 : 43,220,255
Combo3 : 255,101,22
Combo4 : 255,210,0
Combo5 : 182,0,242

[HitObjects]
256,192,1903,12,8,4128
144,256,4888,5,8
336,256,5647,1,8
448,100,6407,1,8
336,256,7166,5,8
128,256,7926,1,8
128,64,8685,1,8
288,192,9445,2,0,B|336:208|400:192,1,99.9999999999998,8|4
384,96,10204,5,8
176,96,10964,1,8
48,240,11723,1,8
176,96,12483,1,8
304,240,13242,5,8
448,96,14002,1,8
448,296,14761,1,8
348,276,15141,2,0,B|296:276|264:224,2,99.9999999999998,0|8|0
272,344,16280,5,8
72,328,17040,1,8
96,128,17799,1,8
176,320,18559,1,8
176,128,19318,5,8
272,128,19698,2,8,B|320:128,2,49.9999999999999,8|12|8
272,180,20267,2,0,B|280:268|364:304,1,150,8|8
432,112,21597,6,0,B|416:168|360:200,2,99.9999999999998,8|4|8
256,192,23116,1,8
400,56,23875,1,8
336,132,24255,1,0
264,64,24635,1,8
412,200,25394,5,8
240,100,26154,1,8
344,272,26913,1,8
288,188,27293,1,0
232,272,27673,1,8
432,272,28432,5,8
456,72,29192,2,0,B|400:72,1,49.9999999999999,8|4
344,152,29761,2,0,B|296:152,2,49.9999999999999,0|8|4
344,256,30521,2,0,B|344:304,2,49.9999999999999,0|8|12
344,104,31470,5,8
264,44,31850,1,0
264,144,32230,1,8
264,192,32419,1,4
264,292,32799,2,0,B|264:356,1,49.9999999999999,2|8
264,192,34128,5,4
264,92,34508,2,0,B|192:92,1,49.9999999999999,8|0
104,192,35267,2,0,B|32:192,1,49.9999999999999,8|4
36,340,36027,1,8
104,268,36407,1,0
172,340,36786,1,8
240,268,37166,6,0,B|352:268,1,99.9999999999998,4|8
392,268,37736,1,4
464,136,38305,2,0,B|392:136,1,49.9999999999999,8|4
280,64,39065,1,8
204,128,39445,1,0
136,200,39824,2,0,B|160:252|216:280,1,99.9999999999998,8|4
304,272,40584,6,0,B|360:272,1,49.9999999999999,8|4
468,176,41343,2,0,B|404:176,1,49.9999999999999,8|4
308,72,42103,1,8
216,112,42483,1,0
148,188,42862,1,8
160,288,43242,5,4
256,256,43622,2,0,B|304:256,1,49.9999999999999,8|4
448,208,44381,1,8
256,192,44761,12,12,46280
256,192,58052,6,0,B|368:192,1,99.9999999999998,8|4
368,96,58812,1,8
176,96,59571,1,8
176,304,60331,1,8
368,304,61090,2,8,B|384:208|368:96,1,200
176,96,62609,5,8
80,272,63369,1,8
176,272,63749,1,0
272,272,64128,1,8
368,272,64508,5,4
320,192,64888,1,8
128,192,65647,1,8
320,192,66407,1,8
464,320,67166,1,8
464,112,67926,5,8
416,200,68305,1,8
368,288,68685,1,8
192,192,69445,1,8
368,112,70204,6,8,B|252:112,2,99.9999999999998,8|4|8
248,272,71723,1,8
64,192,72482,1,8
144,128,72862,1,0
224,64,73242,1,8
384,192,74001,5,8
256,336,74761,1,8
96,216,75520,1,8
168,144,75900,1,0
248,208,76280,1,8
328,272,76660,1,4
432,264,77040,5,8
232,264,77799,2,0,B|184:264,1,49.9999999999999,8|4
232,176,78369,2,0,B|232:128,2,49.9999999999999,0|8|4
332,176,79128,2,0,B|384:176,2,49.9999999999999,0|8|12
368,320,80078,5,8
448,260,80457,1,0
368,200,80837,1,0
272,224,81217,2,0,B|272:152,2,49.9999999999999,0|2|8
80,256,82356,6,8,B|64:208|80:144,1,99.9999999999998,8|4
176,144,83116,2,0,B|224:144,1,49.9999999999999,8|4
384,144,83875,2,0,B|432:144,1,49.9999999999999,8|4
368,288,84635,1,8
304,208,85014,1,0
240,288,85394,1,8
176,208,85774,5,4
240,128,86154,2,0,B|304:128,1,49.9999999999999,8|4
448,128,86913,2,0,B|400:128,1,49.9999999999999,8|4
320,256,87673,1,8
224,256,88052,1,0
128,256,88432,6,0,B|176:160,1,99.9999999999998,8|4
256,112,89192,2,0,B|352:112,1,49.9999999999999,8|4
464,112,89951,2,0,B|400:112,1,49.9999999999999,8|4
384,256,90711,1,8
288,272,91090,1,0
320,176,91470,1,8
224,144,91850,5,4
200,240,92230,2,4,B|128:240,1,49.9999999999999,8|4
112,332,92799,2,8,B|176:332,1,49.9999999999999
264,332,93369,2,0,B|264:284,1,49.9999999999999,4|8
320,200,93938,1,8
420,200,94318,1,8
372,112,94698,1,12
256,192,94888,12,0,97926
