osu file format v9

[General]
AudioFilename: Wo De Wei Lai Shi.mp3
AudioLeadIn: 0
PreviewTime: 33599
Countdown: 0
SampleSet: Soft
StackLeniency: 0.7
Mode: 0
LetterboxInBreaks: 0

[Editor]
DistanceSpacing: 0.8
BeatDivisor: 8
GridSize: 4

[Metadata]
Title:Wo De Wei Lai Shi (TV Size)
Artist:Chen Mei Wen
Creator:zsr123
Version:Insane
Source:Ipartment 2
Tags:shiki OzzyOzrock ozzy

[Difficulty]
HPDrainRate:6
CircleSize:4
OverallDifficulty:7
ApproachRate:8
SliderMultiplier:2.8
SliderTickRate:1

[Events]
//Background and Video events
Video,1660,"Wo De Wei Lai Shi.flv"
0,0,"BG.jpg"
//Break Periods
//Storyboard Layer 0 (Background)
//Storyboard Layer 1 (Fail)
//Storyboard Layer 2 (Pass)
//Storyboard Layer 3 (Foreground)
//Storyboard Sound Samples
//Background Colour Transformations
3,100,163,162,255

[TimingPoints]
1903,461.538461538462,4,2,1,15,1,0
2233,-100,4,2,1,21,0,0
2467,-100,4,2,1,26,0,0
2701,-100,4,2,1,32,0,0
3158,-100,4,2,1,50,0,0
3749,379.746835443038,4,2,1,80,1,0
21502,-100,4,2,1,60,0,0
22166,-100,4,2,1,80,0,0
27957,-100,4,2,1,60,0,0
28147,-100,4,2,1,80,0,0
33084,-100,4,2,1,15,0,0
33274,-100,4,2,1,24,0,0
33464,-100,4,2,1,30,0,0
33654,-100,4,2,1,38,0,0
33843,-100,4,2,1,47,0,0
34033,-100,4,2,1,80,0,0
34128,-100,4,2,1,80,0,1
39886,-100,4,2,1,50,0,1
40171,-100,4,2,1,80,0,1
42435,-100,4,2,1,60,0,1
42957,-100,4,2,1,80,0,1
43337,-100,4,2,1,50,0,1
43527,-100,4,2,1,80,0,1
44666,-100,4,2,1,20,0,1
44856,-100,4,2,1,35,0,1
45046,-100,4,2,1,50,0,1
45236,-100,4,2,1,80,0,1
45663,-100,4,2,1,85,0,1
45853,-100,4,2,1,90,0,1
46043,-100,4,2,1,95,0,1
46138,-100,4,2,1,100,0,1
46280,-100,4,2,1,100,0,0
46565,-100,4,2,1,80,0,0
48891,-100,4,2,1,60,0,0
49508,-100,4,2,1,80,0,0
54777,-100,4,2,1,50,0,0
54872,-100,4,2,1,60,0,0
55062,-100,4,2,1,65,0,0
55157,-100,4,2,1,70,0,0
55252,-100,4,2,1,80,0,0
64223,-100,4,2,1,30,0,0
64413,-100,4,2,1,40,0,0
64793,-100,4,2,1,80,0,0
68590,-100,4,2,1,50,0,0
68780,-100,4,2,1,60,0,0
68970,-100,4,2,1,80,0,0
70109,-100,4,2,1,60,0,0
70774,-100,4,2,1,80,0,0
72008,-100,4,2,1,70,0,0
73574,-100,4,2,1,80,0,0
75853,-100,4,2,1,70,0,0
76043,-100,4,2,1,50,0,0
76233,-100,4,2,1,60,0,0
76423,-100,4,2,1,75,0,0
76613,-100,4,2,1,80,0,0
80362,-100,4,2,1,40,0,0
80552,-100,4,2,1,50,0,0
80742,-100,4,2,1,70,0,0
80932,-100,4,2,1,80,0,0
82261,-100,4,2,1,60,0,0
82736,-100,4,2,1,60,0,1
82926,-100,4,2,1,80,0,1
86059,-100,4,2,1,45,0,1
86248,-100,4,2,1,65,0,1
86628,-100,4,2,1,80,0,1
88480,-100,4,2,1,65,0,1
89002,-100,4,2,1,80,0,1
91375,-100,4,2,1,65,0,1
92040,-100,4,2,1,80,0,1
93464,-100,4,2,1,45,0,1
93843,-100,4,2,1,65,0,1
94793,-100,4,2,1,5,0,1
97926,-100,4,2,1,5,0,0

[Colours]
Combo1 : 255,45,115
Combo2 : 43,220,255
Combo3 : 255,101,22
Combo4 : 255,210,0
Combo5 : 182,0,242

[HitObjects]
320,80,1903,2,0,B|400:88|440:160,2,140,8|8|8
240,160,2595,2,0,B|160:152|120:80,1,140,8|8
216,24,3056,1,8
216,24,3287,1,8
216,24,3518,1,8
320,112,3749,6,0,B|224:256,1,140,4|0
168,312,4128,1,8
96,224,4318,2,0,B|80:48|272:16,1,280
360,24,4888,1,8
440,104,5078,2,0,B|472:256|328:344,1,280
332,341,5647,1,8
112,344,6027,2,2,B|184:328|256:344,3,140,2|2|10|2
176,264,6786,6,0,B|32:192,1,140
64,88,7166,1,8
152,24,7356,2,0,B|328:40|376:184,1,280
304,264,7926,1,8
224,344,8116,2,0,B|96:216|240:96,1,280
231,103,8685,1,8
456,104,9065,2,2,B|496:176|440:304,3,140,2|2|10|2
376,176,9824,5,4
296,256,10014,1,0
200,312,10204,2,0,B|136:344|64:304,1,140,8|0
216,136,10774,1,0
296,56,10964,2,0,B|368:8|464:72,1,140,8|0
208,48,11533,1,0
96,48,11723,2,0,B|56:120|96:208,1,140,8|0
280,296,12293,1,0
384,336,12483,2,0,B|480:336|480:232,1,140,8|0
208,56,13242,6,0,B|136:40|72:72,1,140,8|0
72,184,13622,1,0
80,296,13812,1,0
176,352,14002,2,0,B|256:368|352:336,1,140,8|0
424,152,14571,1,0
360,64,14761,2,0,B|288:48|192:72,1,140,8|0
152,152,15141,1,2
232,232,15331,1,0
152,312,15521,1,8
264,312,15711,1,0
376,312,15900,5,0
488,120,16280,2,0,B|496:184|488:272,1,140,8|0
264,312,16850,1,0
152,312,17040,2,0,B|64:312|16:224,1,140,8|0
224,120,17609,1,0
312,48,17799,2,0,B|384:32|464:56,1,140,8|0
472,272,18369,1,0
384,336,18559,2,0,B|312:352|208:336,1,140,8|0
136,336,18938,5,2
56,256,19128,1,0
136,176,19318,1,10
216,96,19508,1,0
296,16,19698,2,0,B|376:40|408:104,1,140,8|4
408,208,20078,1,0
408,320,20267,6,0,B|264:352|120:320,1,280
40,248,20837,1,8
112,160,21027,1,0
40,72,21217,1,0
152,48,21407,1,0
264,48,21597,1,8
264,104,21692,1,8
264,160,21786,1,8
264,216,21881,1,8
264,272,21976,1,4
424,112,22356,6,0,B|440:176|424:256,1,140,8|0
336,328,22736,2,0,B|312:256|336:184,1,140
336,80,23116,2,0,B|272:56|192:80,1,140,8|0
128,168,23495,2,0,B|192:192|272:168,1,140
208,264,23875,2,0,B|136:288|56:264,1,140,8|0
8,360,24255,2,0,B|72:336|160:360,1,140,8|0
256,344,24635,2,0,B|328:368|400:344,1,140,8|0
488,280,25014,6,0,B|480:176|368:104|272:112,1,280,0|8
192,160,25584,1,0
104,232,25774,1,0
176,320,25964,1,0
264,248,26154,1,8
360,184,26343,2,0,B|336:120|264:80,1,140,0|2
152,72,26723,2,0,B|72:104|32:176,1,140,0|8
32,272,27103,2,0,B|56:344|128:384,1,140,0|2
176,376,27388,1,0
232,376,27483,2,0,B|304:344|352:280,1,140,0|8
424,212,27862,1,0
452,104,28052,5,4
364,36,28242,1,0
336,144,28432,2,0,B|176:144,1,140,8|0
80,144,28812,1,0
80,256,29002,1,0
192,256,29192,5,8
128,352,29381,2,0,B|424:352,1,280,4|0
408,240,29951,1,8
408,128,30141,2,0,B|112:128,1,280,4|0
128,240,30711,1,8
224,296,30900,2,0,B|384:384|488:224,1,280,4|0
360,228,31470,1,8
408,128,31660,6,0,B|352:0,1,140
240,0,32040,2,0,B|176:128,1,140,0|8
152,232,32419,2,0,B|288:288|464:224,1,280,4|8
392,344,32989,1,8
240,360,33179,5,8
120,264,33369,1,8
144,112,33559,1,8
264,24,33749,1,8
408,72,33938,1,8
464,216,34128,6,0,B|320:216,1,140,4|0
208,216,34508,1,8
96,216,34698,2,0,B|160:344|336:336,1,280,4|0
440,336,35267,1,8
464,224,35457,2,0,B|472:152|464:80,1,140,4|0
368,24,35837,1,0
272,80,36027,2,0,B|264:144|272:224,1,140,8|2
160,216,36407,2,2,B|88:224|16:216,2,140,2|2|10
160,328,36976,5,0
160,328,37166,2,0,B|232:336|304:328,1,140,4|0
416,328,37546,1,8
416,328,37736,2,0,B|424:256|416:184,1,140,4|0
416,72,38116,1,0
416,72,38305,2,0,B|344:64|256:72,1,140,8|4
104,176,38875,5,0
168,272,39065,1,8
96,360,39255,1,0
208,360,39445,2,0,B|272:368|352:360,2,140,0|0|8
232,312,39919,1,8
264,264,40014,1,8
296,216,40109,1,8
320,168,40204,2,4,B|312:96|320:8,1,140,4|0
208,24,40584,5,8
96,24,40774,2,0,B|40:160|96:320,1,280,4|0
200,296,41343,1,8
312,296,41533,2,0,B|368:160|312:0,1,280,4|0
432,16,42103,1,8
432,128,42293,1,0
432,240,42483,5,8
384,272,42578,1,8
336,296,42673,1,8
280,304,42767,1,8
224,304,42862,1,8
120,272,43052,2,0,B|48:256|16:184,1,140,8|4
96,112,43432,1,8
192,40,43622,6,0,B|312:56|352:152,1,140,8|4
216,296,44192,2,0,B|312:328|408:288,2,140,8|8|4
104,288,44761,1,8
80,176,44951,1,8
136,80,45141,1,8
248,56,45331,1,8
360,32,45521,5,8
408,56,45616,1,8
456,88,45711,1,8
488,128,45805,1,8
504,184,45900,1,8
488,240,45995,1,8
456,280,46090,1,8
416,320,46185,1,8
368,352,46280,1,4
144,328,46660,5,0
80,112,47040,1,8
256,248,47419,1,0
248,136,47609,1,8
200,32,47799,1,2
128,120,47989,1,8
88,224,48179,1,0
280,112,48559,1,8
128,280,48938,5,8
176,312,49033,1,8
224,336,49128,1,8
280,344,49223,1,8
336,344,49318,1,8
456,160,49698,5,8
248,80,50078,1,0
40,152,50457,1,10
40,264,50647,1,4
264,264,51027,2,0,B|336:288|408:264,1,140,0|8
368,40,51597,2,0,B|304:56|224:40,2,140,0|0|8
376,152,52166,1,8
376,208,52261,1,8
376,264,52356,1,4
160,192,52736,6,0,B|256:304|408:320,1,280,0|8
448,104,53495,1,0
344,72,53685,1,8
232,56,53875,2,0,B|152:56|96:112,1,140,0|8
32,192,54255,1,0
256,192,54635,1,8
168,128,54824,1,8
136,176,54919,1,8
120,232,55014,1,8
136,288,55109,1,8
176,328,55204,1,8
224,352,55299,1,8
280,352,55394,5,4
408,168,55774,1,0
208,72,56154,2,8,B|128:80|104:160,1,140
128,264,56533,1,2
232,304,56723,1,2
336,344,56913,1,0
392,248,57103,1,8
440,144,57293,1,0
344,88,57483,1,8
240,48,57673,1,8
344,88,57862,1,0
288,184,58052,1,8
192,248,58242,1,8
192,248,58337,1,8
192,248,58432,1,4
416,280,58812,5,8
416,56,59192,2,0,B|280:8|128:56,1,280,0|8
64,264,59951,1,0
280,328,60331,1,8
480,224,60711,2,0,B|480:72|312:24,1,280,0|8
104,104,61470,5,0
224,296,61850,1,8
336,104,62230,1,0
416,184,62419,1,0
456,288,62609,1,8
344,288,62799,2,0,B|176:280|152:112,1,280,0|0
40,136,63369,1,8
152,120,63559,1,0
256,72,63749,1,0
336,152,63938,1,0
256,224,64128,5,8
368,224,64318,2,4,B|400:160|376:88,1,140
160,152,64888,1,8
376,88,65267,2,0,B|400:152|368:232,2,140,0|0|8
160,152,66027,1,0
216,368,66407,1,8
312,168,66786,1,0
464,336,67166,1,8
464,224,67356,1,0
464,112,67546,2,0,B|336:32|176:32,1,280,0|8
72,216,68305,5,8
152,296,68495,1,8
264,296,68685,2,4,B|328:264|360:192,1,140
400,88,69065,1,2
288,88,69255,1,0
200,160,69445,1,8
112,88,69635,1,2
112,200,69824,2,0,B|96:272|112:352,1,140,2|0
224,336,70204,5,8
280,320,70299,1,8
336,296,70394,1,8
384,264,70489,1,8
424,224,70584,1,4
464,8,70964,6,0,B|480:72|464:152,1,140,8|0
400,240,71344,2,0,B|376:168|400:96,1,140
288,72,71724,2,0,B|224:48|144:72,1,140,8|0
56,136,72103,2,0,B|120:160|200:136,1,140
272,216,72483,2,0,B|200:240|120:216,1,140,8|0
216,136,72863,2,0,B|280:112|368:136,1,140,8|0
344,248,73243,2,0,B|416:272|488:248,1,140,8|0
416,160,73622,5,0
224,48,74002,1,8
72,216,74381,1,0
224,48,74761,1,8
208,272,75141,2,0,B|272:320|336:272,1,140
440,216,75521,2,0,B|480:144|440:64,1,140,8|0
328,48,75900,5,8
272,40,75995,1,8
216,40,76090,1,8
160,48,76185,1,8
112,72,76280,1,8
72,112,76375,1,8
48,160,76470,1,8
32,216,76565,1,8
32,272,76660,1,8
256,280,77040,6,0,B|320:304|400:280,1,140,8|0
392,168,77419,1,0
392,168,77609,1,0
280,168,77799,2,0,B|208:160|136:168,1,140,8|4
328,40,78369,1,8
328,40,78464,1,8
328,40,78559,1,8
216,40,78749,1,4
80,216,79128,2,8,B|112:272|184:312,2,140,8|0|4
272,96,79888,1,0
376,144,80078,1,8
184,256,80457,5,8
248,168,80647,1,8
136,168,80837,1,8
88,64,81027,1,12
312,56,81407,1,8
312,56,81597,1,8
68,304,82356,5,8
68,252,82451,1,8
68,196,82546,1,8
68,140,82641,1,8
68,84,82736,1,4
292,72,83116,2,0,B|376:72|416:140,1,140,8|4
196,200,83685,2,0,B|236:268|324:268,2,140,0|8|4
368,344,84445,5,0
464,280,84635,1,8
384,200,84824,1,2
312,112,85014,2,2,B|360:72|440:40,2,140,2|2|10
96,168,85774,5,4
272,312,86154,2,4,B|344:320|416:312,1,140,12|4
400,88,86723,2,0,B|328:80|256:88,2,140,8|8|4
176,96,87483,1,0
96,168,87673,1,8
56,272,87862,1,2
168,272,88052,2,2,B|320:272,2,140,2|2|10
200,224,88527,5,8
232,176,88622,1,8
264,128,88717,1,8
296,80,88812,1,4
416,268,89192,1,8
416,268,89381,2,8,B|512:116|408:-4,1,280,12|0
308,24,89951,5,8
192,24,90141,2,0,B|72:96|56:272,1,280,4|0
160,312,90711,1,8
272,336,90900,1,0
384,320,91090,1,0
456,240,91280,1,0
424,136,91470,5,8
376,104,91565,1,8
320,80,91660,1,8
264,72,91755,1,8
208,64,91850,1,4
72,240,92230,2,0,B|120:296|208:288,1,140,8|0
392,184,92799,1,0
464,96,92989,1,8
352,88,93179,1,0
240,80,93369,5,4
128,88,93559,1,8
96,312,93938,1,8
320,272,94318,2,0,B|392:296|464:272,1,140,8|0
392,184,94698,1,4
256,192,94888,12,0,97926
