osu file format v5

[General]
AudioFilename: Astroboy_-_Now_Or_Never.mp3
AudioLeadIn: 0
PreviewTime: 68798
Countdown: 1
SampleSet: Normal

[Metadata]
Title:Now Or Never
Artist:Chemistry meets m-flo
Creator:Behonkiss
Version:Normal

[Difficulty]
HPDrainRate:4
CircleSize:5
OverallDifficulty:3
SliderMultiplier:1.4
SliderTickRate:3

[Events]
//Background and Video events
1,24,"nowornever.avi"
//Break Periods
2,36545,51394
2,84521,91872
2,124767,139629
2,156516,171616
2,192981,200029
//Storyboard Layer 0 (Background)
//Storyboard Layer 1 (Failing)
//Storyboard Layer 2 (Passing)
//Storyboard Layer 3 (Foreground)
//Storyboard Sound Samples
//Background Colour Transformations
3,100,163,162,255

[TimingPoints]
20809,500.041670139178,4,1,0,100

[HitObjects]
416,96,20799,1,0
288,96,21309,1,0
192,128,21809,2,0,B|32:128,1,140
96,224,22809,1,0
192,256,23309,1,0
288,288,23809,2,2,B|448:288,1,140
384,192,24809,5,0
352,96,25309,1,0
256,128,25809,2,0,B|0:256,1,280
96,320,27309,1,0
192,288,27809,2,2,B|352:288,1,140
288,192,28809,6,0,B|448:192,1,140
384,288,29809,1,0
480,256,30309,1,0
480,128,30809,2,0,B|480:32,4,70
352,128,32309,1,2
256,96,32810,6,0,B|160:96,2,70
224,192,33810,1,0
128,192,34185,2,0,B|64:256|160:352,1,175
320,288,35560,1,0
384,192,36060,2,4,B|480:192,1,70
320,192,52561,5,0
256,192,52811,2,0,B|160:192,2,70
256,288,53811,1,0
160,320,54311,1,0
64,256,54811,2,0,B|160:256,2,70
96,160,55686,1,2
160,128,56061,1,0
224,128,56311,1,0
320,192,56812,6,0,B|416:192,2,70
256,288,57812,1,0
352,320,58312,1,0
416,224,58812,1,0
416,160,59062,2,0,B|320:160,2,70
416,96,59812,2,4,B|256:96,1,140
192,160,60812,6,0,B|288:160,2,70
256,256,61812,1,0
352,320,62312,1,0
448,288,62812,2,0,B|448:192,2,70
352,224,63812,1,0
288,192,64187,1,2
160,192,64812,6,0,B|64:192,2,70
224,288,65812,1,0
96,288,66312,1,0
0,224,66812,1,0
0,128,67312,1,0
96,64,67812,2,4,B|192:64,2,70
224,160,69063,5,0
384,96,69813,2,0,B|480:96,2,70
352,160,70688,1,0
288,224,71063,1,0
128,288,71813,2,0,B|32:288,2,70
160,192,72813,6,2,B|160:32,1,140
256,128,73813,2,2,B|256:288,1,140
352,256,74813,1,0
416,192,75188,1,0
480,128,75563,1,0
448,64,75813,2,0,B|352:64,3,70
320,160,77063,5,0
160,192,77813,2,0,B|64:192,2,70
160,96,78688,1,0
224,128,79063,1,0
256,288,79813,2,0,B|352:288,2,70
288,192,80814,6,2,B|288:32,1,140
384,128,81814,2,2,B|384:288,1,140
288,288,82814,1,0
64,256,83814,1,0
64,128,84314,1,4
320,224,93065,5,0
256,160,93440,1,0
160,160,93815,2,0,B|160:256,2,70
256,96,94815,5,0
288,192,95315,2,0,B|189:248|288:320,1,140
352,288,96190,1,4
416,256,96565,6,2,B|416:160,1,70
384,128,97190,1,0
256,192,97815,1,0
192,96,98690,2,0,B|32:96,1,140
192,32,99815,2,0,B|352:32,1,140
384,96,100690,1,4
448,32,101065,5,0
480,96,101315,1,0
480,160,101565,1,0
416,192,101815,2,2,B|320:176|307:215|288:256,1,140
192,192,102815,5,0
224,288,103315,1,0
320,320,103815,2,0,B|416:320,2,70
352,224,104816,5,2
256,160,105316,1,2
160,224,105816,2,0,B|32:160,1,140
64,96,106691,2,0,B|256:32,1,175
352,64,107816,2,0,B|512:64,1,140
448,128,108691,5,4
320,192,109316,1,0
256,192,109566,1,0
192,160,109816,2,0,B|320:64,1,140
384,128,110691,2,0,B|448:320,1,175
320,320,111816,1,0
256,288,112191,1,2
320,160,112816,5,0
224,192,113316,2,0,B|128:192,2,70
192,128,114191,1,0
64,96,114816,1,0
160,32,115316,2,0,B|256:32,2,70
256,96,116316,1,4
416,160,117067,5,0
384,224,117317,2,0,B|224:256,1,140
160,224,118192,1,0
64,128,118817,2,0,B|64:32,2,70
160,96,119817,1,0
256,96,120192,1,0
352,64,120692,5,0
224,32,121317,2,0,B|64:32,1,140
0,32,122192,1,0
32,96,122567,2,0,B|128:96,3,70
160,192,123817,2,0,B|288:192,1,105
320,256,124567,1,4
288,192,141069,5,0
448,192,141819,2,0,B|352:192,2,70
480,256,142694,1,0
416,288,143069,1,0
256,320,143819,2,0,B|160:320,2,70
320,224,144819,6,2,B|320:64,1,140
224,160,145819,2,2,B|224:320,1,140
128,256,146819,1,0
96,192,147194,1,0
64,64,147819,2,0,B|160:64,3,70
192,160,149069,5,0
352,192,149819,2,0,B|448:192,2,70
352,96,150694,1,0
288,128,151069,1,0
256,288,151819,2,0,B|160:288,2,70
224,192,152820,6,2,B|224:32,1,140
128,128,153820,2,2,B|128:288,1,140
224,288,154820,1,0
448,256,155820,1,0
448,128,156320,1,4
352,224,172821,5,4
224,224,173321,1,0
160,128,173821,2,0,B|64:128,2,70
256,160,174821,1,0
352,128,175321,1,0
256,64,175821,2,0,B|128:64,1,105
32,160,176822,5,0
96,256,177322,1,0
160,256,177572,2,0,B|224:352,2,105
256,192,178822,2,2,B|352:192,2,70
320,288,179822,1,0
256,320,180197,1,4
128,320,180822,5,0
128,256,181072,2,0,B|32:256,4,70
224,192,182572,2,0,B|128:192,1,70
64,96,183322,1,0
160,64,183822,1,0
256,64,184197,1,2
288,128,184572,6,0,B|288:224,1,70
320,288,185322,1,0
384,288,185572,2,0,B|480:288,1,70
448,192,186322,1,0
256,192,186572,12,4,192823
224,160,200824,6,2,B|96:160,1,105
160,224,201574,2,2,B|288:224,1,105
352,256,202324,1,0
416,160,202824,1,0
384,96,203199,1,0
288,96,203574,1,0
224,32,203949,1,0
128,32,204324,1,0
128,128,204824,6,0,B|0:128,1,105
96,192,205574,2,0,B|0:256,1,105
192,288,206824,2,0,B|320:288,1,105
352,160,207824,2,0,B|224:160,1,105
128,64,208824,5,0
224,64,209199,1,0
320,64,209574,1,0
416,64,209949,1,0
416,256,210824,2,2,B|320:160,3,105
160,128,212825,6,2,B|32:128,3,105
96,192,214325,1,0
96,192,214575,1,0
160,192,214825,2,0,B|160:320,1,105
288,224,215825,2,4,B|384:160,1,105
480,256,216825,6,0,B|384:352,1,105
320,320,217575,1,0
224,288,217950,1,0
32,224,218825,1,0
64,128,219200,1,0
128,64,219575,1,0
192,128,219950,1,0
192,320,220825,6,2,B|320:320,1,105
352,256,221575,2,2,B|448:320,1,105
416,128,222825,2,0,B|288:128,1,105
192,192,223825,2,0,B|320:192,1,105
352,64,224826,5,0
256,64,225201,1,0
160,64,225576,1,0
96,96,225951,1,0
64,288,226826,2,2,B|160:192,3,105
224,192,228326,1,0
256,288,228826,6,2,B|384:288,3,105
448,256,230326,1,0
480,160,230826,2,0,B|480:32,1,105
352,64,231826,2,4,B|224:64,1,105
