osu file format v14

[General]
AudioFilename: Playing With Fire.mp3
AudioLeadIn: 0
PreviewTime: 21692
Countdown: 1
SampleSet: Normal
StackLeniency: 0.7
Mode: 0
LetterboxInBreaks: 1
WidescreenStoryboard: 1

[Editor]
Bookmarks: 5308,21461,29308,44077,50538,66231,69923,72231
DistanceSpacing: 0.8
BeatDivisor: 4
GridSize: 8
TimelineZoom: 1

[Metadata]
Title:Playing With Fire
TitleUnicode:Playing With Fire
Artist:Chelsea Grin
ArtistUnicode:Chelsea Grin
Creator:MrSnope
Version:Burn-burn-burn!
Source:
Tags:
BeatmapID:646218
BeatmapSetID:286203

[Difficulty]
HPDrainRate:7
CircleSize:4
OverallDifficulty:7
ApproachRate:8
SliderMultiplier:1.50000000596046
SliderTickRate:1

[Events]
//Background and Video events
0,0,"CG.jpg",0,0
//Break Periods
2,36914,43349
2,62760,65503
2,125530,139349
2,169837,172118
//Storyboard Layer 0 (Background)
//Storyboard Layer 1 (Fail)
//Storyboard Layer 2 (Pass)
//Storyboard Layer 3 (Foreground)
//Storyboard Sound Samples

[TimingPoints]
5330.12651289597,461.538461538462,4,1,0,90,1,0

[Colours]
Combo1 : 199,22,75
Combo2 : 41,57,99
Combo3 : 208,32,85
Combo4 : 133,207,220

[HitObjects]
152,192,1637,5,0,0:0:0:0:
256,304,2330,1,0,0:0:0:0:
360,192,3022,1,0,0:0:0:0:
152,192,3714,1,0,0:0:0:0:
168,192,5308,5,0,0:0:0:0:
184,192,5445,1,0,0:0:0:0:
200,192,5560,1,0,0:0:0:0:
216,192,5676,1,0,0:0:0:0:
232,192,5791,1,0,0:0:0:0:
248,192,5907,1,0,0:0:0:0:
264,192,6022,1,0,0:0:0:0:
336,192,6253,2,0,B|360:240|360:248|360:256|368:272|360:288|320:352,1,150.000000596046
264,328,7176,5,0,0:0:0:0:
248,328,7291,1,0,0:0:0:0:
232,328,7407,1,0,0:0:0:0:
216,328,7522,1,0,0:0:0:0:
200,328,7637,1,12,0:0:0:0:
184,328,7753,1,0,0:0:0:0:
168,328,7868,1,0,0:0:0:0:
104,328,8099,2,0,P|80:264|112:184,1,150.000000596046
168,192,9022,5,0,0:0:0:0:
184,192,9137,1,0,0:0:0:0:
200,192,9253,1,0,0:0:0:0:
216,192,9368,1,0,0:0:0:0:
232,192,9483,1,0,0:0:0:0:
248,192,9599,1,0,0:0:0:0:
264,192,9714,1,0,0:0:0:0:
328,192,9945,2,0,B|368:160|368:88|320:56,1,150.000000596046
200,64,10868,5,0,0:0:0:0:
320,64,11330,1,0,0:0:0:0:
384,64,11560,1,0,0:0:0:0:
440,64,11791,2,0,B|488:104|488:152|440:216,1,150.000000596046
384,200,12599,1,0,0:0:0:0:
368,200,12714,1,4,0:0:0:0:
256,200,13176,5,0,0:0:0:0:
72,192,13637,2,0,L|32:192,8,37.5000001490115,0|0|0|0|0|0|0|0|0,0:0|0:0|0:0|0:0|0:0|0:0|0:0|0:0|0:0,0:0:0:0:
144,192,14791,6,0,L|144:272,3,75.000000298023,0|0|0|0,0:0|0:0|0:0|0:0,0:0:0:0:
144,272,15714,5,0,0:0:0:0:
200,272,15945,5,0,0:0:0:0:
216,272,16060,1,0,0:0:0:0:
232,272,16176,1,0,0:0:0:0:
256,272,16291,1,0,0:0:0:0:
280,272,16407,2,4,B|328:272|336:256|336:216|344:200|408:200,1,150.000000596046
456,200,17099,5,0,0:0:0:0:
456,144,17330,1,0,0:0:0:0:
456,88,17560,2,0,L|456:40,4,37.5000001490115
392,88,18253,5,0,0:0:0:0:
328,88,18483,1,0,0:0:0:0:
320,88,18599,1,0,0:0:0:0:
312,88,18714,1,0,0:0:0:0:
240,88,18945,1,0,0:0:0:0:
176,72,19176,2,0,L|144:16,2,37.5000001490115,0|0|0,0:0|0:0|0:0,0:0:0:0:
176,104,19637,2,0,L|152:144,2,37.5000001490115,0|0|0,0:0|0:0|0:0,0:0:0:0:
256,192,20099,12,0,21022,2:2:0:0:
256,80,21483,5,4,0:0:0:0:
224,208,21945,2,0,L|144:208,1,75.000000298023
360,208,22407,2,0,L|260:207,1,75.000000298023
184,272,22868,2,0,L|335:272,1,150.000000596046
184,272,23791,1,0,0:0:0:0:
336,272,24253,1,0,0:0:0:0:
152,208,24714,1,0,0:0:0:0:
360,208,25176,1,0,0:0:0:0:
216,160,25637,5,0,0:0:0:0:
296,160,25868,1,0,0:0:0:0:
176,104,26099,1,0,0:0:0:0:
336,104,26330,1,0,0:0:0:0:
256,40,26560,1,0,0:0:0:0:
208,256,27022,6,0,B|248:216|272:216|320:280,1,112.500000447034
312,256,27483,1,0,0:0:0:0:
384,256,27714,1,0,0:0:0:0:
448,256,27945,2,0,L|448:176,1,75.000000298023
448,152,28407,2,0,B|448:96|448:96|384:56,1,112.500000447034
376,64,28868,1,0,0:0:0:0:
352,144,29330,5,0,0:0:0:0:
344,152,29445,1,0,0:0:0:0:
336,160,29560,1,0,0:0:0:0:
288,208,29791,1,0,0:0:0:0:
240,248,30022,1,0,0:0:0:0:
208,208,30253,5,0,0:0:0:0:
200,200,30368,1,0,0:0:0:0:
192,192,30483,1,0,0:0:0:0:
144,152,30714,1,0,0:0:0:0:
104,112,30945,1,0,0:0:0:0:
64,72,31176,5,0,0:0:0:0:
72,72,31291,1,0,0:0:0:0:
144,152,31637,1,0,0:0:0:0:
152,152,31753,1,0,0:0:0:0:
216,72,32099,1,0,0:0:0:0:
224,72,32214,1,0,0:0:0:0:
312,64,32560,6,0,L|384:24,1,75.000000298023
384,80,33022,2,0,L|448:80,2,37.5000001490115,0|0|0,0:0|0:0|0:0,0:0:0:0:
328,136,33483,5,0,0:0:0:0:
328,280,33945,1,0,0:0:0:0:
184,280,34407,1,0,0:0:0:0:
184,136,34868,1,0,0:0:0:0:
224,176,35099,5,0,0:0:0:0:
288,176,35330,1,0,0:0:0:0:
288,240,35560,1,0,0:0:0:0:
224,240,35791,1,0,0:0:0:0:
224,176,36022,5,0,0:0:0:0:
288,176,36253,1,0,0:0:0:0:
288,240,36483,1,0,0:0:0:0:
224,240,36714,1,4,0:0:0:0:
112,120,44099,6,0,B|144:104|144:104|176:48,1,75.000000298023
352,64,44560,2,0,B|360:104|360:104|416:136,1,75.000000298023
400,264,45022,2,0,B|368:280|368:280|352:328,1,75.000000298023
160,320,45483,2,0,B|152:280|152:280|104:256,1,75.000000298023,0|0,0:0|0:0,0:0:0:0:
197,160,46407,6,0,L|157:88,1,75.000000298023
236,228,46868,2,0,L|276:156,1,75.000000298023
312,224,47330,2,0,L|368:296,1,75.000000298023
392,160,47791,6,0,B|432:192|432:192|432:248,1,75.000000298023
296,344,48253,2,0,B|256:344|256:344|200:312,1,75.000000298023
80,224,48714,2,0,B|80:192|80:192|128:144,1,75.000000298023,0|0,0:0|0:0,0:0:0:0:
216,40,49176,2,0,B|256:40|256:40|304:72,1,75.000000298023
256,40,50560,5,0,0:0:0:0:
256,344,51022,1,0,0:0:0:0:
80,192,51483,5,0,0:0:0:0:
424,192,51945,1,0,0:0:0:0:
232,40,52407,5,0,0:0:0:0:
248,40,52522,1,0,0:0:0:0:
264,40,52637,1,0,0:0:0:0:
280,40,52753,1,0,0:0:0:0:
424,192,53099,5,0,0:0:0:0:
256,344,53560,1,0,0:0:0:0:
176,256,53907,1,0,0:0:0:0:
56,192,54253,5,0,0:0:0:0:
72,192,54368,1,0,0:0:0:0:
88,192,54483,1,0,0:0:0:0:
104,192,54599,1,0,0:0:0:0:
176,112,54945,1,0,0:0:0:0:
256,40,55407,1,0,0:0:0:0:
336,112,55753,1,0,0:0:0:0:
400,192,56099,5,0,0:0:0:0:
416,192,56214,1,0,0:0:0:0:
432,192,56330,1,0,0:0:0:0:
448,192,56445,1,0,0:0:0:0:
336,256,56791,1,0,0:0:0:0:
256,344,57253,1,0,0:0:0:0:
80,192,57599,1,0,0:0:0:0:
160,112,57830,5,0,0:0:0:0:
168,104,57945,1,0,0:0:0:0:
256,40,58407,1,0,0:0:0:0:
424,192,58868,1,0,0:0:0:0:
256,192,59330,1,0,0:0:0:0:
256,192,59791,12,0,62560,2:2:0:0:
256,80,66253,5,0,0:0:0:0:
208,136,66483,1,0,0:0:0:0:
304,136,66714,1,0,0:0:0:0:
256,182,66945,5,0,0:0:0:0:
208,224,67176,1,0,0:0:0:0:
304,224,67407,1,0,0:0:0:0:
256,272,67637,5,0,0:0:0:0:
208,224,67868,1,0,0:0:0:0:
304,224,68099,1,0,0:0:0:0:
256,182,68330,5,0,0:0:0:0:
208,136,68560,1,0,0:0:0:0:
304,136,68791,1,0,0:0:0:0:
256,80,69022,5,0,0:0:0:0:
208,136,69253,1,0,0:0:0:0:
304,136,69483,1,0,0:0:0:0:
184,288,69945,5,0,0:0:0:0:
192,288,70060,1,0,0:0:0:0:
200,288,70176,1,0,0:0:0:0:
208,288,70291,1,0,0:0:0:0:
216,288,70407,1,0,0:0:0:0:
224,288,70522,1,0,0:0:0:0:
232,288,70637,1,0,0:0:0:0:
240,288,70753,1,0,0:0:0:0:
248,288,70868,1,0,0:0:0:0:
256,288,70983,1,0,0:0:0:0:
264,288,71099,1,0,0:0:0:0:
272,288,71214,1,0,0:0:0:0:
280,288,71330,1,0,0:0:0:0:
288,288,71445,1,0,0:0:0:0:
296,288,71560,1,0,0:0:0:0:
304,288,71676,1,0,0:0:0:0:
312,288,71791,1,0,0:0:0:0:
144,104,72253,6,0,L|232:104,1,75.000000298023
368,104,72714,2,0,L|136:104,1,225.000000894069
232,168,73637,2,0,L|152:168,1,75.000000298023
360,168,74099,2,0,L|264:168,1,75.000000298023
160,232,74560,2,0,L|256:232,1,75.000000298023
288,232,75022,2,0,L|376:232,1,75.000000298023
232,168,75483,2,0,L|152:168,1,75.000000298023
360,168,75945,2,0,L|264:168,1,75.000000298023
216,104,76407,2,0,L|296:104,1,75.000000298023
291,40,76868,2,0,L|203:40,1,75.000000298023
392,40,77330,5,0,0:0:0:0:
435,109,77560,1,0,0:0:0:0:
351,115,77791,1,0,0:0:0:0:
395,185,78022,1,0,0:0:0:0:
311,185,78253,1,0,0:0:0:0:
351,255,78483,1,0,0:0:0:0:
269,254,78714,1,0,0:0:0:0:
308,326,78945,1,0,0:0:0:0:
225,323,79176,1,0,0:0:0:0:
176,280,79407,5,0,0:0:0:0:
168,272,79522,1,0,0:0:0:0:
160,264,79637,1,0,0:0:0:0:
152,256,79753,1,0,0:0:0:0:
144,248,79868,1,0,0:0:0:0:
136,240,79983,1,0,0:0:0:0:
128,232,80099,2,0,L|112:216,15,18.7500000745057,0|0|0|0|0|0|0|0|0|0|0|0|0|0|0|0,0:0|0:0|0:0|0:0|0:0|0:0|0:0|0:0|0:0|0:0|0:0|0:0|0:0|0:0|0:0|0:0,0:0:0:0:
104,208,81022,5,0,0:0:0:0:
104,64,81483,1,0,0:0:0:0:
256,64,81945,1,0,0:0:0:0:
272,64,82060,1,0,0:0:0:0:
288,64,82176,1,0,0:0:0:0:
304,64,82291,1,0,0:0:0:0:
424,64,82637,1,0,0:0:0:0:
424,176,82983,1,0,0:0:0:0:
424,192,83099,1,0,0:0:0:0:
424,280,83330,1,0,0:0:0:0:
256,280,83791,5,0,0:0:0:0:
240,280,83907,1,0,0:0:0:0:
224,280,84022,1,0,0:0:0:0:
208,280,84137,1,0,0:0:0:0:
72,280,84483,1,0,0:0:0:0:
72,80,84945,6,0,L|136:80,1,37.5000001490115,0|0,0:0|0:0,0:0:0:0:
240,80,85291,1,0,0:0:0:0:
376,80,85637,1,0,0:0:0:0:
392,80,85753,1,0,0:0:0:0:
408,80,85868,1,0,0:0:0:0:
424,80,85983,1,0,0:0:0:0:
424,192,86330,5,0,0:0:0:0:
288,288,86791,2,0,L|248:288|240:288,1,37.5000001490115
192,288,87137,2,0,L|144:288,1,37.5000001490115
72,287,87483,5,0,0:0:0:0:
72,196,87714,1,0,0:0:0:0:
72,291,87945,1,0,0:0:0:0:
72,192,88176,1,0,0:0:0:0:
76,91,88407,6,0,L|148:34,1,75.000000298023
173,94,88868,2,0,L|93:158,1,75.000000298023
155,190,89330,2,0,L|218:137,1,75.000000298023
212,141,90253,6,0,L|146:198,1,75.000000298023
115,140,90714,2,0,L|180:87,1,75.000000298023
131,46,91176,2,0,L|70:95,1,75.000000298023
72,94,92099,6,0,L|144:37,1,75.000000298023
168,97,92560,2,0,L|86:165,1,75.000000298023
153,191,93022,2,0,L|231:127,1,75.000000298023
250,193,93483,2,0,L|168:261,1,75.000000298023
235,287,93945,2,0,L|313:223,1,75.000000298023
336,285,94407,2,0,L|278:333,1,75.000000298023
372,251,94868,5,0,0:0:0:0:
385,240,94983,1,0,0:0:0:0:
398,229,95099,1,0,0:0:0:0:
412,219,95214,1,0,0:0:0:0:
423,209,95330,1,0,0:0:0:0:
433,200,95445,1,0,0:0:0:0:
442,195,95560,1,0,0:0:0:0:
453,185,95676,1,0,0:0:0:0:
463,176,95791,1,4,0:0:0:0:
424,96,96022,5,0,0:0:0:0:
344,96,96253,1,0,0:0:0:0:
264,96,96483,1,0,0:0:0:0:
184,96,96714,2,0,L|96:96,1,75.000000298023
112,160,97176,2,0,L|200:160,1,75.000000298023
112,160,97637,6,0,L|112:259,1,75.000000298023
188,160,98099,2,0,L|188:248,1,75.000000298023
113,235,98560,2,0,L|193:235,1,75.000000298023
256,232,99022,5,0,0:0:0:0:
320,232,99253,1,0,0:0:0:0:
384,232,99483,1,0,0:0:0:0:
456,232,99714,2,0,L|456:152,2,75.000000298023,0|0|0,0:0|0:0|0:0,0:0:0:0:
464,304,100407,1,0,0:0:0:0:
456,232,100637,1,0,0:0:0:0:
448,160,100868,1,0,0:0:0:0:
232,48,101330,6,0,P|280:72|280:112,1,75.000000298023
224,116,101791,2,0,P|240:148|296:148,1,75.000000298023
286,91,102253,2,0,P|274:67|218:51,1,75.000000298023
231,48,102714,1,0,0:0:0:0:
224,224,103176,5,0,0:0:0:0:
216,232,103291,1,0,0:0:0:0:
208,240,103407,1,0,0:0:0:0:
160,288,103637,2,0,L|97:346,1,75.000000298023
80,256,104099,5,0,0:0:0:0:
88,248,104214,1,0,0:0:0:0:
96,240,104330,1,0,0:0:0:0:
144,192,104560,2,0,L|208:128,1,75.000000298023
248,88,105022,5,0,0:0:0:0:
144,192,105483,1,0,0:0:0:0:
248,88,105945,1,0,0:0:0:0:
344,150,106407,6,0,B|336:198|336:198|360:238,1,75.000000298023
401,106,106868,2,0,B|417:154|417:154|385:202,1,75.000000298023
339,76,107330,2,0,B|296:90|296:90|267:140,1,75.000000298023
284,187,107791,2,0,B|235:171|235:171|197:128,1,75.000000298023
222,79,108253,2,0,B|177:97|177:97|178:97|143:140|143:140,1,75.000000298023
120,200,108714,6,0,L|216:200,1,75.000000298023
124,263,109176,2,0,L|212:263,1,75.000000298023
256,264,109637,1,0,0:0:0:0:
256,248,109753,1,0,0:0:0:0:
256,232,109868,1,0,0:0:0:0:
256,216,109983,1,0,0:0:0:0:
256,104,110330,1,0,0:0:0:0:
256,40,110560,6,0,L|160:40,1,75.000000298023
256,104,111022,2,0,L|176:104,1,75.000000298023
256,104,111483,2,0,L|256:192,1,75.000000298023
320,104,111945,2,0,L|320:192,1,75.000000298023
320,248,112407,5,0,0:0:0:0:
320,176,112637,1,0,0:0:0:0:
320,104,112868,1,0,0:0:0:0:
256,104,113099,1,0,0:0:0:0:
256,104,113330,6,0,L|256:184,1,75.000000298023
320,104,113791,1,0,0:0:0:0:
320,176,114022,2,0,L|320:200,5,18.7500000745057,0|0|0|0|0|0,0:0|0:0|0:0|0:0|0:0|0:0,0:0:0:0:
320,304,114714,6,0,L|232:304,1,75.000000298023
112,304,115176,2,0,L|200:304,1,75.000000298023
320,240,115637,2,0,L|224:240,1,75.000000298023
112,232,116099,6,0,B|80:208|80:208|80:168|80:168,1,75.000000298023
88,104,116560,2,0,B|128:120|128:120|152:168|152:168,1,75.000000298023
208,152,117022,5,0,0:0:0:0:
224,152,117137,1,0,0:0:0:0:
240,152,117253,1,0,0:0:0:0:
256,152,117368,1,0,0:0:0:0:
272,152,117483,1,0,0:0:0:0:
288,152,117599,1,0,0:0:0:0:
304,152,117714,6,0,L|328:152,3,18.7500000745057,0|0|0|0,0:0|0:0|0:0|0:0,0:0:0:0:
424,152,118407,5,0,0:0:0:0:
424,168,118522,1,0,0:0:0:0:
424,184,118637,1,0,0:0:0:0:
424,264,118868,1,0,0:0:0:0:
336,328,119330,5,0,0:0:0:0:
320,328,119445,1,0,0:0:0:0:
304,328,119560,1,0,0:0:0:0:
224,328,119791,1,0,0:0:0:0:
104,192,120253,1,0,0:0:0:0:
232,80,120714,1,0,0:0:0:0:
368,184,121176,6,0,B|328:184|328:184|280:208|280:208,1,75.000000298023
343,252,121637,2,0,B|383:252|383:252|431:228|431:228,1,75.000000298023
368,184,122099,2,0,B|328:184|328:184|280:208|280:208,1,75.000000298023
343,252,122560,2,0,B|383:252|383:252|431:228|431:228,1,75.000000298023
464,198,123022,1,0,0:0:0:0:
424,144,123253,6,0,L|368:80|368:80,1,75.000000298023
344,152,123714,2,0,L|288:80|288:80,1,75.000000298023
248,40,124176,1,0,0:0:0:0:
199,100,124407,1,0,0:0:0:0:
150,157,124637,1,0,0:0:0:0:
142,165,124753,1,0,0:0:0:0:
132,176,124868,1,0,0:0:0:0:
80,239,125099,1,0,0:0:0:0:
80,239,125330,1,4,0:0:0:0:
144,88,140099,5,0,0:0:0:0:
384,296,140560,1,0,0:0:0:0:
144,296,141022,1,0,0:0:0:0:
384,88,141483,1,0,0:0:0:0:
256,192,141945,12,0,145637,0:0:0:0:
256,64,146560,6,0,L|192:64,2,37.5000001490115
328,120,147022,2,0,L|368:120,2,37.5000001490115
384,184,147714,6,0,L|408:184,2,18.7500000745057
320,240,148060,2,0,L|296:240,2,18.7500000745057
256,304,148407,5,0,0:0:0:0:
192,240,148637,1,0,0:0:0:0:
176,224,148753,1,0,0:0:0:0:
120,168,148983,2,0,L|88:133,4,37.5000001490115
208,144,149791,2,0,L|249:105,2,37.5000001490115
328,128,150945,6,0,L|368:128,3,37.5000001490115
424,256,151868,6,0,L|424:296,2,37.5000001490115
424,176,152330,2,0,L|424:136,3,37.5000001490115
424,56,153022,1,0,0:0:0:0:
312,104,153945,6,0,L|283:76,2,37.5000001490115
362,152,154407,2,0,L|396:187,2,37.5000001490115
256,112,155099,5,0,0:0:0:0:
264,120,155214,1,0,0:0:0:0:
312,168,155445,1,0,0:0:0:0:
320,176,155560,1,0,0:0:0:0:
367,234,155791,1,0,0:0:0:0:
311,282,156022,1,0,0:0:0:0:
255,322,156253,1,0,0:0:0:0:
207,266,156483,1,0,0:0:0:0:
167,210,156714,6,0,L|79:210,1,75.000000298023
167,210,157176,2,0,L|167:130,1,75.000000298023
93,136,157637,2,0,L|181:136,1,75.000000298023
93,136,158099,2,0,L|93:211,1,75.000000298023
93,136,158560,6,0,L|93:50,1,75.000000298023
93,136,159022,2,0,L|189:136,1,75.000000298023
168,61,159483,2,0,L|82:61,1,75.000000298023
168,61,159945,2,0,L|168:154,1,75.000000298023
168,61,160407,6,0,B|322:61|322:61|322:209|322:209|167:209|167:209|167:359|167:359,1,600.000002384184
167,352,164099,6,0,L|79:352,1,75.000000298023
167,352,164560,2,0,L|167:272,1,75.000000298023
93,278,165022,2,0,L|181:278,1,75.000000298023
93,278,165483,2,0,L|93:353,1,75.000000298023
93,278,165945,6,0,L|93:192,1,75.000000298023
93,278,166407,2,0,L|189:278,1,75.000000298023
168,203,166868,2,0,L|82:203,1,75.000000298023
168,203,167330,2,0,L|168:296,1,75.000000298023
168,203,167791,6,0,B|167:49|167:49|312:50|312:50|312:208|312:208|467:208,1,600.000002384184
255,191,172868,5,0,2:2:0:0:
256,192,173330,12,0,176099,3:3:0:0:
264,192,176791,5,0,0:0:0:0:
376,80,177253,1,0,0:0:0:0:
320,136,177599,1,0,0:0:0:0:
264,192,177945,2,0,L|232:224,3,37.5000001490115
320,136,178637,1,0,0:0:0:0:
424,32,179099,1,0,0:0:0:0:
320,136,179445,1,0,0:0:0:0:
264,192,179791,5,0,0:0:0:0:
184,272,180253,1,0,0:0:0:0:
320,136,180714,1,0,0:0:0:0:
424,32,181176,1,0,0:0:0:0:
256,192,181637,12,0,184407,0:0:0:0:
256,192,185330,6,0,L|296:192,3,37.5000001490115
376,192,186022,1,0,0:0:0:0:
376,296,186483,1,0,0:0:0:0:
256,296,186830,1,0,0:0:0:0:
176,296,187176,1,0,0:0:0:0:
160,296,187291,1,0,0:0:0:0:
144,296,187407,1,0,0:0:0:0:
128,296,187522,1,0,0:0:0:0:
112,296,187637,1,0,0:0:0:0:
96,296,187753,1,0,0:0:0:0:
80,296,187868,1,0,0:0:0:0:
64,296,187983,1,0,0:0:0:0:
48,296,188099,1,4,0:0:0:0:
48,240,188330,5,0,0:0:0:0:
48,184,188560,1,0,0:0:0:0:
104,128,188791,1,0,0:0:0:0:
128,200,189022,1,0,0:0:0:0:
184,144,189253,1,0,0:0:0:0:
208,224,189483,1,0,0:0:0:0:
264,168,189714,1,0,0:0:0:0:
280,240,189945,6,0,L|352:264,1,75.000000298023
416,284,190407,2,0,B|456:292|456:292|496:260,1,75.000000298023
440,224,190868,2,0,B|344:192|344:192|336:120,1,150.000000596046
320,56,191791,5,0,0:0:0:0:
240,64,192022,1,0,0:0:0:0:
288,128,192253,1,0,0:0:0:0:
208,136,192483,1,0,0:0:0:0:
168,72,192714,2,0,B|128:64|128:64|88:88,1,75.000000298023
40,112,193176,1,0,0:0:0:0:
64,184,193637,6,0,B|80:224|80:224|128:240,1,75.000000298023
128,168,194099,2,0,B|160:184|160:184|176:232,1,75.000000298023
109,233,194560,2,0,B|125:273|125:273|173:289,2,75.000000298023
344,72,195483,6,0,L|360:112,2,37.5000001490115
405,200,195945,1,0,0:0:0:0:
286,235,196176,1,0,0:0:0:0:
176,272,196407,6,0,L|192:320,2,37.5000001490115
136,152,196868,1,0,0:0:0:0:
241,108,197099,1,0,0:0:0:0:
344,72,197330,5,0,0:0:0:0:
168,320,197791,1,0,0:0:0:0:
136,152,198253,1,0,0:0:0:0:
256,192,198714,6,0,L|328:256,1,75.000000298023
306,134,199176,2,0,L|371:191,1,75.000000298023
312,240,199637,6,0,L|368:176,1,75.000000298023
256,191,200099,2,0,L|328:111,1,75.000000298023
344,88,200560,5,0,0:0:0:0:
397,141,200791,1,0,0:0:0:0:
344,88,201022,2,0,L|416:160,3,75.000000298023
446,183,201945,2,0,L|462:197,11,18.7500000745057
448,256,202868,6,0,L|448:344,1,75.000000298023
384,288,203330,2,0,L|384:208,1,75.000000298023
384,352,203791,2,0,L|304:352,1,75.000000298023
320,288,204253,2,0,L|320:208,1,75.000000298023
384,216,204714,5,0,0:0:0:0:
336,152,204945,1,0,0:0:0:0:
304,224,205176,1,0,0:0:0:0:
256,152,205407,1,0,0:0:0:0:
223,223,205637,1,0,0:0:0:0:
264,288,205868,1,0,0:0:0:0:
352,288,206099,1,0,0:0:0:0:
392,216,206330,6,0,L|416:216,3,18.7500000745057
445,163,206791,6,0,B|402:155|402:155|372:112,1,75.000000298023
437,91,207253,2,0,B|450:53|450:53|415:10,1,75.000000298023
378,64,207714,2,0,B|336:76|336:76|314:124,1,75.000000298023
384,129,208176,2,0,B|397:152|397:152|450:165,1,75.000000298023
437,91,208637,2,0,B|450:53|450:53|415:10,1,75.000000298023
378,64,209099,2,0,B|336:76|336:76|314:124,1,75.000000298023
296,160,209560,1,0,0:0:0:0:
288,176,209676,1,0,0:0:0:0:
280,192,209791,1,0,0:0:0:0:
272,208,209907,1,0,0:0:0:0:
264,224,210022,1,0,0:0:0:0:
232,296,210253,6,0,L|192:296,2,37.5000001490115
296,296,210714,1,0,0:0:0:0:
120,296,210945,1,0,0:0:0:0:
120,224,211176,6,0,L|160:224,2,37.5000001490115
216,224,211637,1,0,0:0:0:0:
40,224,211868,1,0,0:0:0:0:
40,152,212099,5,0,0:0:0:0:
56,152,212214,1,0,0:0:0:0:
144,152,212560,1,0,0:0:0:0:
160,152,212676,1,0,0:0:0:0:
56,152,213022,1,0,0:0:0:0:
40,152,213137,1,0,0:0:0:0:
256,80,213483,5,0,0:0:0:0:
360,192,213945,1,0,0:0:0:0:
256,296,214407,1,0,0:0:0:0:
160,192,214868,1,0,0:0:0:0:
360,192,215330,1,0,0:0:0:0:
256,80,215791,1,0,0:0:0:0:
256,296,216253,1,0,0:0:0:0:
160,192,216714,1,0,0:0:0:0:
