osu file format v12

[General]
AudioFilename: Cheerful + Colorful - Wild Ideas In Development .mp3
AudioLeadIn: 0
PreviewTime: 34670
Countdown: 1
SampleSet: None
StackLeniency: 0.7
Mode: 0
LetterboxInBreaks: 1
WidescreenStoryboard: 1

[Editor]
DistanceSpacing: 1
BeatDivisor: 4
GridSize: 8
TimelineZoom: 1.4

[Metadata]
Title:Wild Ideas In Development
TitleUnicode:Wild Ideas In Development
Artist:Cheerful + Colorful
ArtistUnicode:Cheerful + Colorful
Creator:akibhuruhara
Version:Normal
Source:Eroge! H mo Game mo Kaihatsu Zanmai
Tags:
BeatmapID:431091
BeatmapSetID:173220

[Difficulty]
HPDrainRate:6
CircleSize:3
OverallDifficulty:5
ApproachRate:4
SliderMultiplier:0.999999999999999
SliderTickRate:1

[Events]
//Background and Video events
0,0,"vnr-capture-800x600-182323.png",0,0
//Break Periods
//Storyboard Layer 0 (Background)
//Storyboard Layer 1 (Fail)
//Storyboard Layer 2 (Pass)
//Storyboard Layer 3 (Foreground)
//Storyboard Sound Samples
//Background Colour Transformations
3,100,163,162,255

[TimingPoints]
40,342.857142857143,4,1,1,60,1,0
11525,-200,4,1,1,60,0,0
12211,-100,4,1,1,30,0,0
12725,-100,4,1,1,60,0,0
34662,-90.9090909090909,4,1,1,60,0,1
39468,-200,4,1,1,60,0,1
40154,-90.9090909090909,4,1,1,60,0,1
45640,-86.9565217391304,4,1,1,60,0,1
51125,-90.9090909090909,4,1,1,60,0,1
56611,-95.2380952380952,4,1,1,60,0,1
60554,-95.2380952380952,4,1,1,60,0,0
62097,-100,4,1,1,60,0,0
72554,-200,4,1,1,30,0,0
72725,-200,4,1,1,60,0,0
73068,-100,4,1,1,60,0,0

[Colours]
Combo1 : 60,157,255
Combo2 : 255,159,255
Combo3 : 205,205,205
Combo4 : 255,45,150

[HitObjects]
144,96,382,6,0,P|200:104|248:96,1,99.9999999999999
376,48,1068,2,0,L|360:104,1,50
344,144,1411,2,0,P|336:168|336:200,1,50
384,264,1754,6,0,P|432:232|448:192,1,99.9999999999999,4|2,0:0|0:0,0:0:0:0:
352,48,2440,2,0,P|312:80|296:128,1,99.9999999999999,0|2,0:0|0:0,0:0:0:0:
264,288,3125,2,0,P|216:296|168:320,1,99.9999999999999,0|2,0:0|0:0,0:0:0:0:
136,336,3640,2,0,P|80:344|32:328,1,99.9999999999999,0|2,0:0|0:0,0:0:0:0:
8,312,4154,2,0,L|8:256,1,50,0|2,0:0|0:0,0:0:0:0:
40,224,4497,6,0,P|40:168|64:128,1,99.9999999999999,0|2,0:0|0:0,0:0:0:0:
216,64,5182,2,0,P|216:120|192:160,1,99.9999999999999,0|2,0:0|0:0,0:0:0:0:
144,296,5868,2,0,P|192:272|240:272,1,99.9999999999999,0|2,0:0|0:0,0:0:0:0:
384,216,6554,6,0,L|384:272,2,50,0|2|2,0:0|0:0|0:0,0:0:0:0:
384,176,7068,2,0,L|384:120,1,50,2|4,0:0|0:0,0:0:0:0:
320,48,7582,5,2,0:0:0:0:
248,120,7925,1,0,0:0:0:0:
216,24,8268,1,2,0:0:0:0:
128,72,8611,2,0,P|104:120|112:168,1,99.9999999999999,0|2,0:0|0:0,0:0:0:0:
136,200,9125,2,0,L|136:304,1,99.9999999999999,0|2,0:0|0:0,0:0:0:0:
224,344,9640,2,0,L|224:288,1,50,0|2,0:0|0:0,0:0:0:0:
288,216,9982,6,0,P|336:200|384:208,1,99.9999999999999,0|2,0:0|0:0,0:0:0:0:
488,320,10668,2,0,P|440:336|392:328,1,99.9999999999999,0|2,0:0|0:0,0:0:0:0:
376,168,11354,1,0,0:0:0:0:
376,168,11525,2,0,L|368:112,1,50
208,96,12211,5,0,0:0:0:0:
208,96,12382,1,2,0:0:0:0:
256,288,12725,6,0,P|216:312|160:312,1,99.9999999999999,0|2,0:0|0:0,0:0:0:0:
88,248,13411,1,0,0:0:0:0:
160,176,13754,1,2,0:0:0:0:
240,240,14097,6,0,L|352:240,1,99.9999999999999,0|2,0:0|0:0,0:0:0:0:
376,272,14611,2,0,P|416:232|416:168,1,99.9999999999999
424,144,15125,2,0,L|424:88,1,50,2|0,0:0|0:0,0:0:0:0:
328,64,15468,5,0,0:0:0:0:
368,152,15811,1,2,0:0:0:0:
312,232,16154,1,0,0:0:0:0:
216,216,16497,1,2,0:0:0:0:
136,160,16840,6,0,P|120:208|128:256,1,99.9999999999999,0|2,0:0|0:0,0:0:0:0:
160,296,17354,2,0,L|56:272,1,99.9999999999999
16,184,17868,1,2,0:0:0:0:
176,64,18211,6,0,P|224:72|280:56,1,99.9999999999999,0|2,0:0|0:0,0:0:0:0:
368,104,18897,1,0,0:0:0:0:
448,48,19240,1,2,0:0:0:0:
456,144,19582,6,0,P|440:192|448:248,1,99.9999999999999,0|2,0:0|0:0,0:0:0:0:
472,280,20097,2,0,P|416:272|368:288,1,99.9999999999999
336,320,20611,2,0,L|280:320,1,50,2|0,0:0|0:0,0:0:0:0:
208,264,20954,5,0,0:0:0:0:
112,280,21297,1,2,0:0:0:0:
40,208,21640,1,0,0:0:0:0:
72,112,21982,1,2,0:0:0:0:
144,184,22325,6,0,P|200:176|240:144,1,99.9999999999999,0|2,0:0|0:0,0:0:0:0:
264,112,22840,2,0,L|272:216,1,99.9999999999999
271,211,23354,1,2,0:0:0:0:
88,296,23697,6,0,L|72:192,1,99.9999999999999,0|2,0:0|0:0,0:0:0:0:
120,112,24382,1,0,0:0:0:0:
208,152,24725,1,2,0:0:0:0:
264,72,25068,1,0,0:0:0:0:
360,184,25411,6,0,P|336:232|344:288,1,99.9999999999999,2|0,0:0|0:0,0:0:0:0:
472,208,26097,2,0,P|464:128|448:88,1,99.9999999999999,2|0,0:0|0:0,0:0:0:0:
328,32,26782,5,2,0:0:0:0:
264,112,27125,1,0,0:0:0:0:
304,200,27468,2,0,L|296:256,2,50,2|0|0,0:0|0:0|0:0,0:0:0:0:
184,112,28154,6,0,L|192:56,2,50,2|0|0,0:0|0:0|0:0,0:0:0:0:
72,208,28840,1,2,0:0:0:0:
72,208,29011,1,0,0:0:0:0:
72,208,29182,2,0,P|96:256|144:280,1,99.9999999999999,0|2,0:0|0:0,0:0:0:0:
184,288,29697,6,0,L|200:336,1,50
296,344,30040,2,0,P|328:352|352:352,2,50,0|2|0,0:0|0:0|0:0,0:0:0:0:
296,240,30554,2,0,P|320:192|320:144,1,99.9999999999999,0|2,0:0|0:0,0:0:0:0:
304,96,31068,2,0,L|304:40,1,50
400,72,31411,2,0,P|432:80|456:80,2,50,0|2|0,0:0|0:0|0:0,0:0:0:0:
392,176,31925,6,0,P|352:208|304:208,1,99.9999999999999,0|2,0:0|0:0,0:0:0:0:
232,272,32440,2,0,P|200:232|200:184,1,99.9999999999999
280,128,32954,2,0,L|296:184,1,50,2|0,0:0|0:0,0:0:0:0:
352,256,33297,5,4,0:0:0:0:
352,256,33640,1,4,0:0:0:0:
152,256,33982,2,0,L|96:248,3,50
112,160,34668,6,0,P|168:152|208:112,1,110.000003356934,4|2,0:0|0:0,0:0:0:0:
208,64,35182,2,0,L|216:176,1,110.000003356934
215,173,35697,1,2,0:0:0:0:
416,216,36040,6,0,P|360:224|320:264,1,110.000003356934,0|2,0:0|0:0,0:0:0:0:
320,312,36554,2,0,L|296:200,1,110.000003356934
296,204,37068,1,2,0:0:0:0:
152,184,37411,5,2,0:0:0:0:
152,184,37582,2,0,P|112:224|112:280,1,110.000003356934
216,272,38268,1,0,0:0:0:0:
216,272,38440,2,0,L|256:224,1,55.0000016784668,2|0,0:0|0:0,0:0:0:0:
360,240,38782,2,0,P|376:216|376:184,1,55.0000016784668
304,120,39125,2,0,P|288:144|288:176,1,55.0000016784668,2|0,0:0|0:0,0:0:0:0:
280,256,39468,2,0,L|280:312,1,50,2|2,0:0|0:0,0:0:0:0:
80,120,40154,6,0,P|64:176|80:232,1,110.000003356934,0|2,0:0|0:0,0:0:0:0:
160,176,40668,2,0,L|216:72,1,110.000003356934
212,79,41182,1,2,0:0:0:0:
312,128,41525,1,2,0:0:0:0:
312,128,41697,2,0,P|296:184|312:232,1,110.000003356934
360,112,42382,1,0,0:0:0:0:
360,112,42554,1,2,0:0:0:0:
424,184,42897,5,2,0:0:0:0:
424,184,43068,2,0,P|440:240|424:296,2,110.000003356934,2|0|0,0:0|0:0|0:0,0:0:0:0:
376,160,43925,2,0,L|320:152,1,55.0000016784668,2|0,0:0|0:0,0:0:0:0:
224,96,44268,5,4,0:0:0:0:
224,96,44611,1,4,0:0:0:0:
224,208,44954,2,0,L|224:272,3,55.0000016784668
320,328,45640,6,0,P|376:312|432:328,1,115.000002193451,4|2,0:0|0:0,0:0:0:0:
456,344,46154,2,0,L|464:216,1,115.000002193451
464,200,46668,1,2,0:0:0:0:
400,104,47011,5,2,0:0:0:0:
400,104,47182,2,0,P|344:88|288:96,1,115.000002193451
424,152,47868,1,0,0:0:0:0:
424,152,48040,1,2,0:0:0:0:
368,256,48382,6,0,P|400:312|376:360,1,115.000002193451,0|2,0:0|0:0,0:0:0:0:
328,360,48897,2,0,L|208:352,1,115.000002193451
192,304,49411,2,0,L|128:296,1,57.5000010967254,2|0,0:0|0:0,0:0:0:0:
72,200,49754,1,0,0:0:0:0:
72,200,50097,1,0,0:0:0:0:
176,144,50440,1,2,0:0:0:0:
176,144,50782,1,2,0:0:0:0:
248,224,51125,5,4,0:0:0:0:
248,224,51297,2,0,P|232:168|240:112,1,110.000003356934
136,152,51982,2,0,L|80:136,1,55.0000016784668,0|2,0:0|0:0,0:0:0:0:
112,240,52497,1,0,0:0:0:0:
112,240,52668,2,0,P|120:296|104:352,1,110.000003356934
216,312,53354,2,0,L|272:296,1,55.0000016784668,0|2,0:0|0:0,0:0:0:0:
344,216,53868,5,2,0:0:0:0:
344,216,54040,2,0,P|328:160|336:104,1,110.000003356934
232,136,54725,1,0,0:0:0:0:
232,136,54897,2,0,L|200:192,1,55.0000016784668,2|0,0:0|0:0,0:0:0:0:
224,288,55240,1,0,0:0:0:0:
224,288,55582,1,0,0:0:0:0:
120,256,55925,1,0,0:0:0:0:
120,256,56097,1,0,0:0:0:0:
120,256,56268,1,0,0:0:0:0:
120,256,56440,1,0,0:0:0:0:
120,256,56611,6,0,P|104:200|112:152,1,104.999996795654,4|2,0:0|0:0,0:0:0:0:
176,72,57297,1,0,0:0:0:0:
232,160,57640,1,2,0:0:0:0:
128,168,57982,2,0,P|80:192|56:240,1,104.999996795654,0|2,0:0|0:0,0:0:0:0:
144,296,58668,6,0,L|200:312,1,52.4999983978271
288,256,59011,2,0,L|344:240,1,52.4999983978271,2|0,0:0|0:0,0:0:0:0:
336,88,59525,2,0,L|392:88,2,52.4999983978271,0|2|0,0:0|0:0|0:0,0:0:0:0:
208,176,60211,2,0,L|152:176,2,52.4999983978271,2|0|0,0:0|0:0|0:0,0:0:0:0:
256,256,61068,5,2,0:0:0:0:
256,256,61411,2,0,L|256:312,3,52.4999983978271
160,336,62097,2,0,P|112:344|64:320,1,99.9999999999999,4|2,0:0|0:0,0:0:0:0:
0,248,62782,1,0,0:0:0:0:
88,200,63125,1,2,0:0:0:0:
32,120,63468,2,0,P|48:64|80:40,1,99.9999999999999,0|2,0:0|0:0,0:0:0:0:
128,40,63982,2,0,L|232:48,1,99.9999999999999,0|2,0:0|0:0,0:0:0:0:
272,72,64497,2,0,L|328:72,1,50,0|2,0:0|0:0,0:0:0:0:
392,144,64840,6,0,P|408:192|392:240,1,99.9999999999999,0|2,0:0|0:0,0:0:0:0:
256,176,65525,2,0,P|240:128|256:80,1,99.9999999999999,0|2,0:0|0:0,0:0:0:0:
152,96,66211,2,0,L|128:200,1,99.9999999999999,0|2,0:0|0:0,0:0:0:0:
152,288,66897,2,0,L|104:312,2,50,0|2|2,0:0|0:0|0:0,0:0:0:0:
248,312,67411,2,0,L|296:328,1,50,2|4,0:0|0:0,0:0:0:0:
448,200,67925,5,2,0:0:0:0:
440,104,68268,1,0,0:0:0:0:
352,56,68611,1,2,0:0:0:0:
256,88,68954,2,0,P|200:80|168:48,1,99.9999999999999,0|2,0:0|0:0,0:0:0:0:
136,16,69468,2,0,L|96:112,1,99.9999999999999,0|2,0:0|0:0,0:0:0:0:
160,192,69982,2,0,L|184:144,1,50,0|2,0:0|0:0,0:0:0:0:
280,144,70325,6,0,P|328:152|376:136,1,99.9999999999999,0|2,0:0|0:0,0:0:0:0:
424,48,71011,2,0,P|376:40|320:56,1,99.9999999999999,0|2,0:0|0:0,0:0:0:0:
224,56,71697,1,0,0:0:0:0:
128,88,71868,2,0,P|96:128|96:176,1,99.9999999999999
64,272,72554,2,0,L|88:272,1,25,0|2,0:0|0:0,0:0:0:0:
288,288,73068,6,0,P|336:272|392:280,1,99.9999999999999,0|2,0:0|0:0,0:0:0:0:
440,192,73582,2,0,P|424:144|432:88,1,99.9999999999999
344,40,74097,2,0,P|296:56|248:48,1,99.9999999999999,2|0,0:0|0:0,0:0:0:0:
176,120,74611,2,0,L|128:136,1,50,0|2,0:0|0:0,0:0:0:0:
80,224,74954,1,0,0:0:0:0:
80,224,75125,1,0,0:0:0:0:
136,312,75297,2,0,L|112:360,2,50
184,224,75811,5,4,0:0:0:0:
184,224,75982,1,4,0:0:0:0:
408,192,76840,1,4,0:0:0:0:
408,192,77011,1,4,0:0:0:0:
