osu file format v12

[General]
AudioFilename: Cheerful + Colorful - Wild Ideas In Development .mp3
AudioLeadIn: 0
PreviewTime: 34670
Countdown: 1
SampleSet: None
StackLeniency: 0.7
Mode: 0
LetterboxInBreaks: 1
WidescreenStoryboard: 1

[Editor]
DistanceSpacing: 2
BeatDivisor: 4
GridSize: 8
TimelineZoom: 1.5

[Metadata]
Title:Wild Ideas In Development
TitleUnicode:Wild Ideas In Development
Artist:Cheerful + Colorful
ArtistUnicode:Cheerful + Colorful
Creator:akibhuruhara
Version:Hard
Source:Eroge! H mo Game mo Kaihatsu Zanmai
Tags:
BeatmapID:431089
BeatmapSetID:173220

[Difficulty]
HPDrainRate:7
CircleSize:4
OverallDifficulty:5
ApproachRate:8
SliderMultiplier:0.999999999999999
SliderTickRate:1

[Events]
//Background and Video events
0,0,"vnr-capture-800x600-182323.png",0,0
//Break Periods
//Storyboard Layer 0 (Background)
//Storyboard Layer 1 (Fail)
//Storyboard Layer 2 (Pass)
//Storyboard Layer 3 (Foreground)
//Storyboard Sound Samples
//Background Colour Transformations
3,100,163,162,255

[TimingPoints]
40,342.857142857143,4,1,1,60,1,0
1754,-66.6666666666667,4,1,1,60,0,0
3640,-100,4,1,1,60,0,0
7582,-66.6666666666667,4,1,1,60,0,0
9125,-100,4,1,1,60,0,0
12211,-100,4,1,1,30,0,0
12725,-100,4,1,1,60,0,0
34668,-66.6666666666667,4,1,1,60,0,1
40154,-83.3333333333333,4,1,1,60,0,1
45640,-86.9565217391304,4,1,1,60,0,1
51125,-90.9090909090909,4,1,1,60,0,1
56611,-95.2380952380952,4,1,1,60,0,1
58840,-90.9090909090909,4,1,1,60,0,1
59525,-83.3333333333333,4,1,1,60,0,1
60211,-76.9230769230769,4,1,1,60,0,1
60556,-95.2380952380952,4,1,1,60,0,0
62097,-100,4,1,1,60,0,0
72554,-200,4,1,1,30,0,0
72725,-200,4,1,1,60,0,0
73068,-100,4,1,1,60,0,0

[Colours]
Combo1 : 60,157,255
Combo2 : 255,159,255
Combo3 : 205,205,205
Combo4 : 255,45,150

[HitObjects]
368,296,382,6,0,L|320:312,1,50,8|0,0:0|0:0,0:0:0:0:
288,216,725,2,0,L|240:184,1,50,8|0,0:0|0:0,0:0:0:0:
168,248,1068,2,0,L|144:296,2,50,0|0|0,0:0|0:0|0:0,0:0:0:0:
168,144,1582,1,0,0:0:0:0:
440,96,1754,6,0,L|360:96,1,75.000002861023,4|0,0:0|0:0,0:0:0:0:
232,160,2097,2,0,L|312:160,1,75.000002861023,2|0,0:0|0:0,0:0:0:0:
384,240,2440,2,0,P|344:232|304:240,1,75.000002861023
208,288,2782,2,0,L|136:328,1,75.000002861023,2|0,0:0|0:0,0:0:0:0:
32,296,3125,2,0,L|24:216,1,75.000002861023,0|0,0:0|0:0,0:0:0:0:
128,104,3468,5,2,0:0:0:0:
112,200,3640,2,0,L|120:256,1,50,0|0,0:0|0:0,0:0:0:0:
168,328,3982,1,2,0:0:0:0:
256,280,4154,1,0,0:0:0:0:
352,320,4325,1,2,0:0:0:0:
392,232,4497,6,0,L|424:136,1,99.9999999999999,0|8,0:0|0:0,0:0:0:0:
352,72,5011,1,0,0:0:0:0:
288,144,5182,2,0,L|232:152,2,50,0|0|8,0:0|0:0|0:0,0:0:0:0:
168,304,5868,2,0,P|120:288|72:304,1,99.9999999999999,0|8,0:0|0:0,0:0:0:0:
24,360,6382,1,0,0:0:0:0:
88,200,6554,2,0,L|40:184,2,50,0|2|2,0:0|0:0|0:0,0:0:0:0:
184,168,7068,1,2,0:0:0:0:
224,264,7240,1,4,0:0:0:0:
136,56,7582,6,0,P|200:64|240:96,1,112.500004291534,8|0,0:0|0:0,0:0:0:0:
256,128,7925,2,0,P|296:160|360:168,1,112.500004291534
392,152,8268,2,0,L|496:208,1,112.500004291534,8|0,0:0|0:0,0:0:0:0:
504,240,8611,2,0,P|504:320|456:368,1,150.000005722046,0|8,0:0|0:0,0:0:0:0:
360,256,9125,6,0,L|400:352,1,99.9999999999999,0|2,0:0|0:0,0:0:0:0:
296,328,9640,1,0,0:0:0:0:
224,256,9811,1,2,0:0:0:0:
136,304,9982,2,0,P|96:272|32:272,1,99.9999999999999,0|8,0:0|0:0,0:0:0:0:
48,192,10497,1,0,0:0:0:0:
112,144,10668,2,0,L|216:144,1,99.9999999999999,0|8,0:0|0:0,0:0:0:0:
256,48,11354,5,0,0:0:0:0:
256,224,11525,2,0,L|256:120,1,99.9999999999999,0|0,0:0|0:0,0:0:0:0:
256,296,12211,2,0,L|256:352,1,50,0|2,0:0|0:0,0:0:0:0:
120,288,12725,5,0,0:0:0:0:
56,216,12897,1,0,0:0:0:0:
56,216,12982,1,0,0:0:0:0:
56,216,13068,2,0,L|40:168,1,50,8|0,0:0|0:0,0:0:0:0:
96,80,13411,2,0,L|112:128,2,50,0|0|8,0:0|0:0|0:0,0:0:0:0:
192,88,13925,5,0,0:0:0:0:
280,48,14097,2,0,P|336:40|384:48,1,99.9999999999999,0|8,0:0|0:0,0:0:0:0:
448,120,14611,2,0,P|456:176|448:224,1,99.9999999999999
424,312,15125,1,8,0:0:0:0:
352,240,15297,1,0,0:0:0:0:
208,328,15468,6,0,L|208:272,1,50
144,200,15811,2,0,L|112:240,1,50,8|0,0:0|0:0,0:0:0:0:
272,200,16154,2,0,L|304:240,1,50
208,264,16497,2,0,L|208:320,1,50,8|0,0:0|0:0,0:0:0:0:
320,312,16840,6,0,P|336:264|320:216,1,99.9999999999999,0|8,0:0|0:0,0:0:0:0:
216,96,17354,2,0,P|200:144|216:192,1,99.9999999999999
272,272,17868,1,8,0:0:0:0:
104,168,18211,5,0,0:0:0:0:
144,80,18382,2,0,L|200:96,1,50,0|8,0:0|0:0,0:0:0:0:
304,184,18725,2,0,L|256:168,2,50
392,224,19240,1,8,0:0:0:0:
400,320,19411,1,0,0:0:0:0:
312,360,19582,6,0,P|288:312|296:264,1,99.9999999999999,0|8,0:0|0:0,0:0:0:0:
416,152,20097,2,0,P|440:200|432:248,1,99.9999999999999
392,336,20611,1,8,0:0:0:0:
304,288,20782,1,0,0:0:0:0:
120,232,20954,6,0,L|152:184,1,50
264,136,21297,2,0,L|232:184,1,50,8|0,0:0|0:0,0:0:0:0:
240,296,21640,2,0,L|272:248,1,50
384,200,21983,2,0,L|352:248,1,50,8|0,0:0|0:0,0:0:0:0:
232,200,22325,6,0,L|160:128,1,99.9999999999999,0|8,0:0|0:0,0:0:0:0:
136,240,22840,2,0,L|208:312,1,99.9999999999999
264,360,23354,1,8,0:0:0:0:
440,232,23697,6,0,L|448:176,1,50,4|0,0:0|0:0,0:0:0:0:
352,224,24040,2,0,L|344:280,1,50,8|0,0:0|0:0,0:0:0:0:
248,296,24382,2,0,L|240:328,2,25,2|2|0,0:0|0:0|0:0,0:0:0:0:
296,208,24725,1,2,0:0:0:0:
360,288,24897,1,0,0:0:0:0:
416,208,25068,1,0,0:0:0:0:
256,80,25411,6,0,L|256:24,1,50,8|0,0:0|0:0,0:0:0:0:
160,64,25754,1,2,0:0:0:0:
160,64,25840,1,2,0:0:0:0:
160,64,25925,1,0,0:0:0:0:
80,120,26097,1,2,0:0:0:0:
88,216,26268,1,0,0:0:0:0:
176,168,26440,1,4,0:0:0:0:
256,304,26782,6,0,L|256:360,1,50,8|0,0:0|0:0,0:0:0:0:
352,320,27125,1,2,0:0:0:0:
352,320,27211,1,2,0:0:0:0:
352,320,27297,1,0,0:0:0:0:
432,264,27468,1,2,0:0:0:0:
432,160,27640,1,0,0:0:0:0:
344,216,27811,1,0,0:0:0:0:
256,240,28154,5,8,0:0:0:0:
96,304,28325,1,0,0:0:0:0:
184,176,28497,2,0,L|192:144,2,25,2|2|0,0:0|0:0|0:0,0:0:0:0:
200,328,28840,1,2,0:0:0:0:
88,208,29011,2,0,L|56:160,1,50,0|4,0:0|0:0,0:0:0:0:
256,144,29525,5,8,0:0:0:0:
408,80,29697,1,0,0:0:0:0:
328,216,29868,2,0,L|320:240,2,25,2|2|0,0:0|0:0|0:0,0:0:0:0:
312,56,30211,1,2,0:0:0:0:
424,176,30382,2,0,L|456:224,1,50
440,320,30725,5,0,0:0:0:0:
352,272,30897,1,8,0:0:0:0:
288,352,31068,2,0,L|232:352,1,50,0|2,0:0|0:0,0:0:0:0:
208,336,31325,1,2,0:0:0:0:
184,304,31411,1,0,0:0:0:0:
184,264,31497,1,0,0:0:0:0:
200,232,31582,2,0,L|96:232,1,99.9999999999999,8|4,0:0|0:0,0:0:0:0:
104,72,32268,5,0,0:0:0:0:
184,128,32440,1,8,0:0:0:0:
280,96,32611,1,0,0:0:0:0:
280,96,32697,1,0,0:0:0:0:
280,96,32782,1,0,0:0:0:0:
264,192,32954,1,8,0:0:0:0:
464,184,33297,6,0,L|456:128,1,50
360,136,33640,2,0,L|352:80,1,50
264,32,33982,1,4,0:0:0:0:
176,80,34154,1,4,0:0:0:0:
176,176,34325,1,4,0:0:0:0:
264,224,34497,1,4,0:0:0:0:
368,192,34668,6,0,P|408:184|448:184,1,75.000002861023
442,183,34925,1,0,0:0:0:0:
442,183,35011,1,8,0:0:0:0:
392,288,35182,2,0,P|352:280|312:280,1,75.000002861023
208,288,35525,2,0,P|160:288|136:272,1,75.000002861023,0|8,0:0|0:0,0:0:0:0:
32,240,35868,1,0,0:0:0:0:
184,192,36040,6,0,P|144:184|104:184,1,75.000002861023
109,183,36297,1,0,0:0:0:0:
109,183,36382,1,8,0:0:0:0:
120,288,36554,2,0,P|160:280|200:280,1,75.000002861023
304,296,36897,2,0,P|360:296|384:280,1,75.000002861023,0|8,0:0|0:0,0:0:0:0:
480,240,37240,1,0,0:0:0:0:
408,152,37411,6,0,L|376:80,2,75.000002861023,0|0|8,0:0|0:0|0:0,0:0:0:0:
384,264,37925,2,0,L|400:304,2,37.5000014305115
288,208,38268,1,0,0:0:0:0:
224,296,38440,2,0,P|264:288|304:296,1,75.000002861023,8|0,0:0|0:0,0:0:0:0:
408,320,38782,6,0,P|432:288|440:248,1,75.000002861023
384,160,39125,2,0,P|360:200|352:232,1,75.000002861023,8|0,0:0|0:0,0:0:0:0:
280,144,39468,1,0,0:0:0:0:
240,40,39640,1,0,0:0:0:0:
176,136,39811,1,8,0:0:0:0:
136,32,39982,1,0,0:0:0:0:
48,168,40154,6,0,L|40:232,1,59.9999981689453
32,256,40411,2,0,L|40:296,1,29.9999990844727,0|8,0:0|0:0,0:0:0:0:
128,296,40668,2,0,L|136:232,1,59.9999981689453
184,160,41011,2,0,P|208:192|216:232,1,59.9999981689453,0|8,0:0|0:0,0:0:0:0:
296,248,41354,1,0,0:0:0:0:
344,168,41525,6,0,L|408:184,1,59.9999981689453
440,208,41782,2,0,L|480:200,1,29.9999990844727,0|8,0:0|0:0,0:0:0:0:
472,112,42040,2,0,L|432:56,1,59.9999981689453
352,88,42382,2,0,P|320:96|288:96,1,59.9999981689453,0|8,0:0|0:0,0:0:0:0:
152,208,42897,6,0,L|120:152,1,59.9999981689453
122,155,43154,1,0,0:0:0:0:
122,155,43240,1,8,0:0:0:0:
168,64,43411,1,0,0:0:0:0:
192,64,43497,1,0,0:0:0:0:
216,64,43582,2,0,B|280:64,1,59.9999981689453
368,96,43925,1,8,0:0:0:0:
328,176,44097,1,0,0:0:0:0:
344,264,44268,6,0,L|408:264,1,59.9999981689453
304,336,44611,2,0,L|240:336,1,59.9999981689453
184,232,44954,1,4,0:0:0:0:
64,256,45125,1,4,0:0:0:0:
168,320,45297,1,4,0:0:0:0:
48,344,45468,1,4,0:0:0:0:
168,320,45640,6,0,L|232:320,1,57.5000010967254
225,320,45897,1,0,0:0:0:0:
225,320,45982,1,8,0:0:0:0:
320,248,46154,2,0,P|352:240|384:240,1,57.5000010967254
392,152,46497,2,0,P|424:160|448:160,2,57.5000010967254,0|8|0,0:0|0:0|0:0,0:0:0:0:
312,112,47011,6,0,L|312:48,1,57.5000010967254
312,54,47268,1,0,0:0:0:0:
312,54,47354,1,8,0:0:0:0:
224,56,47525,2,0,P|192:64|168:64,1,57.5000010967254
96,152,47868,2,0,L|88:208,1,57.5000010967254,0|8,0:0|0:0,0:0:0:0:
240,288,48382,6,0,L|304:288,1,57.5000010967254,0|0,0:0|0:0,0:0:0:0:
368,240,48725,1,8,0:0:0:0:
416,312,48897,2,0,L|432:336,2,28.7500005483627
368,240,49240,2,0,P|360:208|360:176,1,57.5000010967254,0|8,0:0|0:0,0:0:0:0:
248,56,49754,6,0,P|232:80|224:112,1,57.5000010967254
224,192,50097,2,0,L|224:256,1,57.5000010967254,8|0,0:0|0:0,0:0:0:0:
296,304,50440,1,0,0:0:0:0:
312,296,50525,1,0,0:0:0:0:
328,288,50611,1,0,0:0:0:0:
344,280,50697,1,0,0:0:0:0:
360,272,50782,1,8,0:0:0:0:
432,120,51125,6,0,L|376:128,1,55.0000016784668
328,192,51468,2,0,L|272:176,1,55.0000016784668,8|0,0:0|0:0,0:0:0:0:
232,104,51811,2,0,L|232:72,3,27.5000008392334,2|2|0|0,0:0|0:0|0:0|0:0,0:0:0:0:
232,32,52154,1,8,0:0:0:0:
120,152,52497,6,0,P|88:160|48:160,1,55.0000016784668
96,240,52840,2,0,P|128:232|168:232,1,55.0000016784668,8|0,0:0|0:0,0:0:0:0:
232,240,53182,2,0,L|216:272,1,27.5000008392334
264,344,53354,2,0,L|280:312,1,27.5000008392334
312,248,53525,1,8,0:0:0:0:
448,152,53868,6,0,P|456:184|456:224,1,55.0000016784668
376,192,54211,2,0,P|336:192|312:184,1,55.0000016784668,8|0,0:0|0:0,0:0:0:0:
280,112,54554,1,2,0:0:0:0:
260,108,54640,1,2,0:0:0:0:
240,104,54725,1,0,0:0:0:0:
220,100,54811,1,0,0:0:0:0:
200,96,54897,2,0,P|160:136|168:184,1,110.000003356934,8|0,0:0|0:0,0:0:0:0:
232,272,55411,5,0,0:0:0:0:
328,216,55582,2,0,L|392:208,1,55.0000016784668
448,120,55925,1,4,0:0:0:0:
496,208,56097,1,4,0:0:0:0:
448,296,56268,1,4,0:0:0:0:
352,272,56440,1,4,0:0:0:0:
352,176,56611,6,0,L|296:160,1,52.4999983978271
301,161,56868,1,0,0:0:0:0:
301,161,56954,1,8,0:0:0:0:
240,88,57125,2,0,L|280:48,1,52.4999983978271
176,40,57468,2,0,L|136:80,2,52.4999983978271,0|8|0,0:0|0:0|0:0,0:0:0:0:
72,32,57982,6,0,P|56:64|56:96,1,52.4999983978271
128,152,58325,2,0,L|128:208,1,52.4999983978271,8|0,0:0|0:0,0:0:0:0:
176,296,58668,1,0,0:0:0:0:
256,224,58840,5,0,0:0:0:0:
328,296,59011,1,2,0:0:0:0:
400,224,59182,1,4,0:0:0:0:
352,128,59525,2,0,L|288:128,2,59.9999981689453,0|4|4,0:0|0:0|0:0,0:0:0:0:
128,48,60211,2,0,L|192:48,2,64.9999970245362,2|0|4,0:0|0:0|0:0,0:0:0:0:
256,336,61068,1,2,0:0:0:0:
256,128,61411,5,0,0:0:0:0:
176,192,61582,1,0,0:0:0:0:
256,256,61754,1,0,0:0:0:0:
336,192,61925,1,0,0:0:0:0:
352,288,62097,6,0,P|384:288|408:296,1,50,4|0,0:0|0:0,0:0:0:0:
464,216,62440,2,0,P|456:192|456:168,1,50,10|0,0:0|0:0,0:0:0:0:
392,88,62782,2,0,P|392:120|384:144,1,50
320,208,63125,2,0,P|288:216|264:216,1,50,10|0,0:0|0:0,0:0:0:0:
208,144,63468,2,0,P|256:144|312:128,1,99.9999999999999,0|10,0:0|0:0,0:0:0:0:
432,48,63982,6,0,L|328:48,1,99.9999999999999,0|2,0:0|0:0,0:0:0:0:
305,130,64497,1,0,0:0:0:0:
232,88,64668,1,2,0:0:0:0:
152,120,64840,2,0,P|128:168|136:216,1,99.9999999999999,0|10,0:0|0:0,0:0:0:0:
192,272,65354,2,0,L|224:280,1,25
256,272,65525,2,0,L|312:272,2,50,0|0|10,0:0|0:0|0:0,0:0:0:0:
224,192,66040,1,0,0:0:0:0:
304,128,66211,2,0,P|328:176|320:224,1,99.9999999999999,0|10,0:0|0:0,0:0:0:0:
112,272,66897,6,0,L|104:216,2,50,0|2|2,0:0|0:0|0:0,0:0:0:0:
168,160,67411,2,0,L|176:104,1,50,2|4,0:0|0:0,0:0:0:0:
328,32,67925,6,0,P|328:80|344:104,1,74.9999999999999,10|0,0:0|0:0,0:0:0:0:
360,136,68268,2,0,P|376:168|376:208,1,74.9999999999999,0|0,0:0|0:0,0:0:0:0:
360,248,68611,2,0,P|344:272|344:320,1,74.9999999999999,10|0,0:0|0:0,0:0:0:0:
360,352,68954,2,0,L|264:312,1,99.9999999999999,0|10,0:0|0:0,0:0:0:0:
200,368,69468,2,0,P|176:320|184:272,1,99.9999999999999,0|2,0:0|0:0,0:0:0:0:
232,208,69982,5,0,0:0:0:0:
312,176,70154,1,2,0:0:0:0:
392,200,70325,2,0,L|424:296,1,99.9999999999999,0|10,0:0|0:0,0:0:0:0:
248,304,71011,2,0,L|216:208,1,99.9999999999999,0|10,0:0|0:0,0:0:0:0:
160,48,71697,5,4,0:0:0:0:
160,48,71868,1,4,0:0:0:0:
224,208,72211,1,0,0:0:0:0:
456,72,72554,2,0,L|456:48,1,25,0|2,0:0|0:0,0:0:0:0:
360,184,73068,6,0,P|304:176|256:184,1,99.9999999999999,0|8,0:0|0:0,0:0:0:0:
176,232,73582,2,0,L|176:128,1,99.9999999999999
232,48,74097,2,0,P|176:32|128:40,1,99.9999999999999,8|0,0:0|0:0,0:0:0:0:
48,88,74611,2,0,L|48:144,1,50,0|8,0:0|0:0,0:0:0:0:
72,232,74954,2,0,L|80:256,5,25,0|0|0|0|0|0,0:0|0:0|0:0|0:0|0:0|0:0,0:0:0:0:
168,256,75468,2,0,L|160:280,1,25,2|2,0:0|0:0,0:0:0:0:
240,224,75640,1,2,0:0:0:0:
256,152,75811,2,0,L|256:96,1,50,4|4,0:0|0:0,0:0:0:0:
256,320,76840,5,4,0:0:0:0:
256,320,77011,1,4,0:0:0:0:
