osu file format v13

[General]
AudioFilename: goodbye2.mp3
AudioLeadIn: 0
PreviewTime: 70218
Countdown: 0
SampleSet: Soft
StackLeniency: 0.7
Mode: 0
LetterboxInBreaks: 1
EpilepsyWarning: 1
WidescreenStoryboard: 1

[Editor]
DistanceSpacing: 1.2
BeatDivisor: 4
GridSize: 4
TimelineZoom: 1.5

[Metadata]
Title:Goodbye Heaven (Midi)
TitleUnicode:サヨナラ・ヘヴン (Midi)
Artist:Cheeptune
ArtistUnicode:Cheeptune
Creator:pandorawindy
Version:Insane
Source:
Tags:Naoyuki Sato 佐藤直之 猫叉master Nekomata Master
BeatmapID:567506
BeatmapSetID:246378

[Difficulty]
HPDrainRate:7
CircleSize:4.5
OverallDifficulty:7
ApproachRate:8
SliderMultiplier:1.8
SliderTickRate:1

[Events]
//Background and Video events
0,0,"cnsb.jpg",0,0
//Break Periods
//Storyboard Layer 0 (Background)
//Storyboard Layer 1 (Fail)
//Storyboard Layer 2 (Pass)
//Storyboard Layer 3 (Foreground)
//Storyboard Sound Samples

[TimingPoints]
-596,540.540540540541,4,2,0,100,1,0
1025,-200,4,2,0,100,0,0
1566,-100,4,2,0,100,0,0
70755,-83.3333333333333,4,2,0,100,0,1
87512,-83.3333333333333,4,2,0,100,0,0
88052,-83.3333333333333,4,2,0,100,0,1
103187,-100,4,2,0,100,0,0

[Colours]
Combo1 : 255,77,77
Combo2 : 0,213,0
Combo3 : 0,96,213

[HitObjects]
256,192,1025,6,0,L|256:248,1,45
75,186,1566,6,0,P|103:126|164:101,1,135
165,192,2106,2,0,P|166:215|178:236,1,45
256,192,2376,1,0,0:0:0:0:
351,38,2647,6,0,P|388:92|379:158,1,135
300,113,3187,2,0,P|280:102|256:102,1,45
256,192,3457,1,0,0:0:0:0:
341,351,3728,6,0,P|275:356|223:316,1,135
301,269,4268,2,0,P|321:257|333:237,1,45
256,192,4538,1,0,0:0:0:0:
84,248,4809,6,0,L|172:233,1,90
101,68,5349,2,0,P|101:114|122:155,1,90
321,70,5890,6,0,L|188:93,1,135
250,158,6431,2,0,L|259:206,1,45
189,260,6701,1,0,0:0:0:0:
350,338,6971,2,0,L|331:248,1,90
391,128,7512,2,0,L|409:216,1,90
268,66,8052,6,0,L|357:48,1,90
479,109,8593,2,0,L|391:128,1,90
462,291,9133,2,0,P|462:244|441:204,1,90
256,192,9674,5,0,0:0:0:0:
256,192,9944,1,0,0:0:0:0:
201,306,10214,5,0,0:0:0:0:
183,275,10349,1,0,0:0:0:0:
165,244,10485,1,0,0:0:0:0:
148,212,10620,1,0,0:0:0:0:
129,181,10755,1,0,0:0:0:0:
328,87,11025,1,0,0:0:0:0:
184,87,11296,5,0,0:0:0:0:
220,87,11431,1,0,0:0:0:0:
256,87,11567,1,0,0:0:0:0:
292,87,11702,1,0,0:0:0:0:
328,87,11837,1,0,0:0:0:0:
310,306,12106,1,0,0:0:0:0:
382,181,12376,5,0,0:0:0:0:
364,212,12511,1,0,0:0:0:0:
346,244,12647,1,0,0:0:0:0:
327,274,12782,1,0,0:0:0:0:
310,306,12917,1,0,0:0:0:0:
129,181,13187,1,0,0:0:0:0:
183,275,13458,5,0,0:0:0:0:
75,87,13728,1,0,0:0:0:0:
75,87,13998,2,0,L|167:75,1,90
256,18,14539,6,0,P|267:80|333:81,1,135
329,83,15079,1,0,0:0:0:0:
431,49,15349,1,0,0:0:0:0:
431,49,15620,2,0,L|443:141,1,90
448,173,16025,1,0,0:0:0:0:
454,208,16160,2,0,L|466:300,1,90
310,248,16701,5,0,0:0:0:0:
277,351,16971,2,0,L|321:344,1,45
202,272,17241,1,0,0:0:0:0:
277,351,17512,1,0,0:0:0:0:
232,168,17782,5,0,0:0:0:0:
128,135,18052,2,0,L|134:179,1,45
207,60,18322,1,0,0:0:0:0:
128,135,18593,1,0,0:0:0:0:
310,90,18863,5,0,0:0:0:0:
414,123,19133,2,0,L|407:78,1,45
335,198,19404,1,0,0:0:0:0:
414,123,19674,1,0,0:0:0:0:
484,288,19944,6,0,L|396:307,1,90
215,280,20485,2,0,P|256:264|299:281,1,90
115,307,21025,6,0,L|28:288,1,90
27,288,21431,1,0,0:0:0:0:
27,288,21566,1,0,0:0:0:0:
93,203,21836,1,0,0:0:0:0:
51,51,22106,2,0,B|17:63|17:63|27:117,1,90,0|0,0:0|0:0,2:0:0:0:
162,120,22647,2,0,B|195:107|195:107|186:54,1,90,0|0,0:0|0:0,2:0:0:0:
295,132,23187,5,0,0:0:0:0:
277,27,23458,1,0,0:0:0:0:
396,167,23728,1,0,0:0:0:0:
378,62,23999,1,0,0:0:0:0:
497,203,24268,1,0,0:0:0:0:
415,273,24539,1,0,0:0:0:0:
415,273,24674,1,0,0:0:0:0:
415,273,24809,2,0,B|359:254|359:254|328:269,1,90
235,316,25349,5,0,0:0:0:0:
145,255,25620,1,0,0:0:0:0:
145,255,25755,1,0,0:0:0:0:
145,255,25889,1,0,0:0:0:0:
235,316,26160,1,0,0:0:0:0:
242,208,26430,5,0,0:0:0:0:
339,160,26701,1,0,0:0:0:0:
339,160,26836,1,0,0:0:0:0:
339,160,26970,1,0,0:0:0:0:
242,208,27241,1,0,0:0:0:0:
252,100,27512,5,0,0:0:0:0:
162,39,27783,1,0,0:0:0:0:
162,39,27918,1,0,0:0:0:0:
162,39,28052,1,0,0:0:0:0:
252,100,28322,1,0,0:0:0:0:
62,88,28592,2,0,L|50:178,1,90,0|0,0:0|0:0,0:0:0:0:
154,146,29133,2,0,L|119:229,1,90
227,226,29674,6,0,L|171:297,1,90
172,297,30079,1,0,0:0:0:0:
172,297,30214,1,0,0:0:0:0:
276,322,30484,1,0,0:0:0:0:
453,299,30754,2,0,P|417:274|373:275,1,90
350,169,31295,2,0,L|338:79,1,90,0|0,0:0|0:0,0:0:0:0:
250,142,31835,5,0,0:0:0:0:
236,34,32106,1,0,0:0:0:0:
165,209,32376,1,0,0:0:0:0:
151,101,32647,1,0,0:0:0:0:
80,276,32917,1,0,0:0:0:0:
264,293,33322,5,0,0:0:0:0:
299,297,33458,1,0,0:0:0:0:
413,225,33728,1,0,0:0:0:0:
378,221,33864,1,0,0:0:0:0:
342,217,33998,6,0,L|354:127,1,90
362,60,34404,2,0,B|337:78|337:78|278:71,1,90
161,58,34809,1,0,0:0:0:0:
161,58,35079,2,0,B|179:82|179:82|172:141,1,90
59,272,35620,2,0,L|71:183,1,90
235,205,36160,6,0,P|196:228|145:226,1,90
152,228,36566,1,0,0:0:0:0:
152,228,36701,1,0,0:0:0:0:
172,141,36971,1,0,0:0:0:0:
76,78,37241,2,0,L|86:167,1,90
162,317,37782,2,0,L|152:228,1,90
284,105,38322,5,0,0:0:0:0:
284,105,38593,2,0,L|331:99,2,45,0|0|0,0:0|0:0|0:0,0:0:0:0:
359,182,39133,1,0,0:0:0:0:
455,132,39404,2,0,L|439:222,1,90
425,286,39809,2,0,B|370:276|370:276|340:294,1,90
340,293,40214,1,0,0:0:0:0:
246,347,40485,6,0,P|206:324|160:324,1,90
96,335,40890,2,0,L|78:246,1,90
78,246,41295,1,0,0:0:0:0:
136,123,41566,2,0,L|154:212,1,90
234,139,42106,1,0,0:0:0:0:
256,244,42376,1,0,0:0:0:0:
291,235,42511,1,0,0:0:0:0:
325,226,42647,6,0,B|382:213|382:213|401:175,1,90
375,119,43052,2,0,B|361:62|361:62|387:28,1,90
467,59,43457,1,0,0:0:0:0:
467,59,43727,2,0,L|490:162,1,90
395,205,44268,1,0,0:0:0:0:
491,253,44538,1,0,0:0:0:0:
395,205,44809,6,0,L|292:228,1,90
307,224,45214,1,0,0:0:0:0:
307,224,45349,1,0,0:0:0:0:
219,159,45620,1,0,0:0:0:0:
108,249,45890,2,0,B|121:282|121:282|174:273,1,90,0|0,0:0|0:0,2:0:0:0:
219,159,46431,2,0,B|207:125|207:125|153:135,1,90,0|0,0:0|0:0,2:0:0:0:
48,159,46971,5,0,0:0:0:0:
81,56,47241,1,0,0:0:0:0:
116,49,47376,1,0,0:0:0:0:
151,42,47511,1,0,0:0:0:0:
257,56,47781,1,0,0:0:0:0:
363,34,48052,2,0,L|381:122,1,90
398,187,48458,2,0,P|359:167|312:174,1,90
347,236,48863,1,0,0:0:0:0:
253,333,49133,6,0,L|235:244,1,90
225,178,49539,2,0,P|196:211|150:223,1,90
159,153,49944,1,0,0:0:0:0:
54,180,50214,1,0,0:0:0:0:
97,336,50620,1,0,0:0:0:0:
97,336,50755,2,0,P|136:311|181:311,1,90
371,340,51295,6,0,L|282:355,1,90
248,296,51701,2,0,B|233:209|233:209|279:232,1,135
399,174,52376,2,0,P|399:130|378:90,2,90,0|0|0,0:0|0:0|0:0,0:0:0:0:
278,50,53187,1,0,0:0:0:0:
278,50,53322,1,0,0:0:0:0:
278,50,53458,6,0,L|189:65,1,90
155,123,53863,2,0,L|293:100,1,135
189,203,54539,2,0,B|168:226|168:226|179:284,2,90,0|0|0,0:0|0:0|0:0,0:0:0:0:
447,236,55349,1,0,0:0:0:0:
410,243,55485,1,0,0:0:0:0:
374,250,55620,6,0,L|286:266,1,90
250,323,56025,2,0,B|201:332|201:332|170:316|170:316|121:325,1,135
56,236,56701,2,0,P|67:151|145:104,1,180
160,211,57512,1,0,0:0:0:0:
264,54,57782,6,0,L|243:142,1,90
348,117,58322,2,0,L|304:195,1,90
412,200,58863,2,0,L|349:265,1,90
452,298,59404,2,0,L|375:344,1,90
56,260,59944,6,0,B|82:233|82:233|136:233,1,90
191,272,60350,2,0,P|255:289|320:271,1,135
256,153,61025,1,0,0:0:0:0:
368,78,61295,1,0,0:0:0:0:
368,78,61566,1,0,0:0:0:0:
456,260,61836,1,0,0:0:0:0:
456,260,61971,1,0,0:0:0:0:
456,260,62106,6,0,B|429:233|429:233|375:233,1,90
321,272,62512,2,0,P|256:289|191:271,1,135
256,153,63187,1,0,0:0:0:0:
144,78,63457,1,0,0:0:0:0:
144,78,63728,1,0,0:0:0:0:
81,197,63998,1,0,0:0:0:0:
81,197,64134,1,0,0:0:0:0:
81,197,64268,6,0,B|117:210|117:210|110:278,1,90
57,301,64674,2,0,L|193:315,1,135
320,355,65350,2,0,P|334:270|416:263,1,180
375,162,66161,1,0,0:0:0:0:
137,222,66431,6,0,L|226:247,1,90
375,162,66971,2,0,L|286:137,1,90
286,311,67512,2,0,L|311:222,1,90
226,73,68052,2,0,L|201:162,1,90
286,311,68593,6,0,L|350:328,2,60,0|0|0,0:0|0:0|0:0,0:0:0:0:
226,73,69313,2,0,L|162:56,2,60,0|0|0,0:0|0:0|0:0,0:0:0:0:
428,98,70079,1,0,0:0:0:0:
428,98,70214,2,0,B|372:84|372:84|352:56,1,90
331,152,70755,6,0,L|298:312,1,161.999995056153
331,365,71295,2,0,L|357:246,1,107.999996704102
181,102,71836,6,0,L|214:262,1,161.999995056153
181,315,72376,2,0,L|155:196,1,107.999996704102
331,52,72917,6,0,L|298:212,1,161.999995056153
331,265,73458,2,0,L|357:146,1,107.999996704102
205,331,73998,5,0,0:0:0:0:
160,141,74268,1,0,0:0:0:0:
160,141,74404,1,0,0:0:0:0:
159,141,74539,2,0,L|182:247,1,107.999996704102
52,146,75079,6,0,P|77:71|147:35,1,161.999995056153
214,81,75620,2,0,B|287:81|287:81|308:45,1,107.999996704102
431,75,76160,1,0,0:0:0:0:
345,172,76431,1,0,0:0:0:0:
471,198,76701,1,0,0:0:0:0:
385,295,76972,1,0,0:0:0:0:
150,253,77241,6,0,L|257:272,1,107.999996704102
175,170,77782,2,0,P|119:171|79:204,1,107.999996704102
103,329,78322,1,0,0:0:0:0:
256,272,78593,1,0,0:0:0:0:
298,280,78728,1,0,0:0:0:0:
340,289,78863,2,0,L|447:308,1,107.999996704102
491,186,79404,6,0,B|394:168|394:168|433:157|444:125,1,161.999995056153
383,102,79944,2,0,L|274:82,1,107.999996704102
115,104,80485,6,0,B|212:122|212:122|173:133|162:165,1,161.999995056153
223,188,81025,2,0,L|332:208,1,107.999996704102
470,288,81566,6,0,B|372:270|372:270|405:294|404:328,1,161.999995056153
338,326,82106,2,0,L|229:305,1,107.999996704102
148,206,82647,1,0,0:0:0:0:
279,192,82917,1,0,0:0:0:0:
279,192,83052,1,0,0:0:0:0:
278,191,83187,2,0,P|263:140|226:102,1,107.999996704102
148,206,83728,6,0,B|88:296|88:296|143:286,1,161.999995056153
198,317,84269,2,0,L|85:338,1,107.999996704102
16,231,84809,1,0,0:0:0:0:
60,108,85080,1,0,0:0:0:0:
186,82,85350,1,0,0:0:0:0:
274,176,85620,1,0,0:0:0:0:
400,149,85890,6,0,L|424:42,1,107.999996704102
274,176,86431,2,0,L|251:281,1,107.999996704102
148,206,86971,1,0,0:0:0:0:
100,328,87242,1,0,0:0:0:0:
100,328,87377,1,0,0:0:0:0:
100,328,87512,1,0,0:0:0:0:
17,228,87782,1,0,0:0:0:0:
231,308,88052,6,0,P|303:289|347:357,1,161.999995056153
281,353,88593,2,0,L|328:237,1,107.999996704102
149,123,89133,6,0,P|191:186|265:167,1,161.999995056153
215,123,89674,2,0,L|168:239,1,107.999996704102
380,159,90214,6,0,P|453:140|496:203,1,161.999995056153
430,203,90755,2,0,L|477:87,1,107.999996704102
356,41,91295,1,0,0:0:0:0:
235,88,91565,1,0,0:0:0:0:
235,88,91701,1,0,0:0:0:0:
235,88,91836,2,0,B|156:69|156:69|178:106,1,107.999996704102
202,279,92376,6,0,P|269:238|278:161,1,161.999995056153
190,189,92917,2,0,L|81:162,1,107.999996704102
73,291,93457,1,0,0:0:0:0:
85,163,93728,1,0,0:0:0:0:
73,291,93998,1,0,0:0:0:0:
85,163,94269,1,0,0:0:0:0:
156,55,94538,6,0,B|226:55|226:55|249:84,1,107.999996704102
318,193,95079,2,0,P|319:141|350:92,1,107.999996704102
447,176,95620,1,0,0:0:0:0:
400,296,95890,1,0,0:0:0:0:
400,296,96025,1,0,0:0:0:0:
400,296,96160,2,0,L|297:328,1,107.999996704102
170,299,96701,5,0,0:0:0:0:
157,256,96836,1,0,0:0:0:0:
144,214,96971,1,0,0:0:0:0:
131,172,97106,1,0,0:0:0:0:
118,130,97241,1,0,0:0:0:0:
257,247,97512,1,0,0:0:0:0:
205,84,97782,5,0,0:0:0:0:
218,120,97917,1,0,0:0:0:0:
231,162,98052,1,0,0:0:0:0:
244,204,98187,1,0,0:0:0:0:
257,247,98322,1,0,0:0:0:0:
292,35,98593,1,0,0:0:0:0:
344,198,98863,5,0,0:0:0:0:
331,155,98998,1,0,0:0:0:0:
318,113,99133,1,0,0:0:0:0:
305,71,99268,1,0,0:0:0:0:
292,35,99403,1,0,0:0:0:0:
118,130,99674,1,0,0:0:0:0:
257,247,99944,1,0,0:0:0:0:
128,258,100214,1,0,0:0:0:0:
257,247,100485,2,0,L|290:349,1,107.999996704102
441,260,101025,6,0,P|369:234|319:291,1,161.999995056153
291,350,101566,2,0,L|257:247,1,107.999996704102
163,336,102106,1,0,0:0:0:0:
132,210,102376,1,0,0:0:0:0:
6,175,102647,1,0,0:0:0:0:
40,301,102917,1,0,0:0:0:0:
96,82,103187,5,0,0:0:0:0:
204,80,103458,2,0,L|193:135,1,45
96,82,103728,1,0,0:0:0:0:
204,80,103998,1,0,0:0:0:0:
416,182,104268,5,0,0:0:0:0:
308,180,104539,2,0,L|319:235,1,45
416,182,104809,1,0,0:0:0:0:
308,180,105079,1,0,0:0:0:0:
96,282,105349,5,0,0:0:0:0:
204,280,105620,2,0,L|193:335,1,45
96,282,105890,1,0,0:0:0:0:
204,280,106160,1,0,0:0:0:0:
91,73,106430,2,0,L|117:158,1,90
297,100,106971,2,0,B|255:84|255:84|213:100,1,90
394,158,107512,6,0,L|421:73,1,90
421,72,107917,1,0,0:0:0:0:
421,72,108052,1,0,0:0:0:0:
256,192,108322,1,0,0:0:0:0:
343,254,108592,2,0,P|311:287|266:297,1,90
167,260,109133,2,0,P|123:270|93:303,1,90
179,367,109673,5,0,0:0:0:0:
93,303,109944,1,0,0:0:0:0:
333,367,110214,1,0,0:0:0:0:
419,303,110485,1,0,0:0:0:0:
321,258,110754,1,0,0:0:0:0:
423,104,111025,1,0,0:0:0:0:
423,104,111160,1,0,0:0:0:0:
422,104,111295,2,0,L|407:193,1,90
256,118,111836,5,0,0:0:0:0:
152,148,112107,1,0,0:0:0:0:
143,113,112242,1,0,0:0:0:0:
133,78,112376,1,0,0:0:0:0:
256,118,112647,1,0,0:0:0:0:
200,210,112917,5,0,0:0:0:0:
96,240,113188,1,0,0:0:0:0:
87,205,113323,1,0,0:0:0:0:
77,170,113457,1,0,0:0:0:0:
200,210,113728,1,0,0:0:0:0:
144,302,113998,5,0,0:0:0:0:
40,332,114269,1,0,0:0:0:0:
31,297,114404,1,0,0:0:0:0:
21,262,114538,1,0,0:0:0:0:
144,302,114809,1,0,0:0:0:0:
365,307,115078,2,0,L|278:331,1,90
399,204,115620,2,0,L|486:180,1,90
314,137,116160,6,0,L|227:161,1,90
227,160,116565,1,0,0:0:0:0:
227,160,116700,1,0,0:0:0:0:
141,94,116970,1,0,0:0:0:0:
45,224,117241,2,0,B|102:224|102:224|124:200,1,90
220,70,117782,2,0,B|163:70|163:70|141:94,1,90
310,266,118322,5,0,0:0:0:0:
201,266,118593,1,0,0:0:0:0:
343,163,118863,1,0,0:0:0:0:
168,163,119133,1,0,0:0:0:0:
255,99,119404,1,0,0:0:0:0:
256,192,119944,5,0,0:0:0:0:
