osu file format v5

[General]
AudioFilename: hellothere.mp3
AudioLeadIn: 0
PreviewTime: -1
Countdown: 1
SampleSet: Soft
StackLeniency: 0.7
Mode: 0
LetterboxInBreaks: 0

[Metadata]
Title:Hello There
Artist:Cheap Trick
Creator:nardi11011
Version:Medium (W.I.P)
Source:Rock Band 2
Tags:

[Difficulty]
HPDrainRate:4
CircleSize:3
OverallDifficulty:3
SliderMultiplier:1
SliderTickRate:1

[Events]
//Background and Video events
1,-2255,"hellothere_osu.avi"
//Break Periods
2,41364,49817
2,64677,69662
//Storyboard Layer 0 (Background)
//Storyboard Layer 1 (Failing)
//Storyboard Layer 2 (Passing)
//Storyboard Layer 3 (Foreground)
//Storyboard Sound Samples
//Background Colour Transformations
3,100,0,0,0

[TimingPoints]
0,681.818181818182,4,2,0,100,1
11325,340.909090909091,4,2,0,100,1
16268,340.909090909091,4,1,0,100,0
16779,338.028169014084,4,1,0,100,1
17625,338.028169014084,4,2,0,100,0
18301,338.028169014084,4,1,0,100,0
19596,338.028169014084,4,2,0,100,0
20835,342.857142857143,4,2,0,100,1
23407,342.857142857143,4,1,0,100,0
23578,340.909090909091,4,1,0,100,1
23749,340.909090909091,4,2,0,100,0
25794,340.909090909091,4,1,0,100,0
26305,338.028169014084,4,1,0,100,1
29010,340.909090909091,4,1,0,100,1
31737,338.028169014084,4,1,0,100,1
33089,336.134453781513,4,1,0,100,1
39812,338.028169014084,4,1,0,100,1
42517,337.078651685393,4,1,0,100,1
45212,335.195530726257,4,1,0,100,1
46553,331.491712707182,4,1,0,100,1
47879,333.333333333333,4,1,0,100,1
49213,329.67032967033,4,1,0,100,1
50531,336.700336700337,4,1,0,100,1
51878,336.228635472121,4,1,0,100,1
53223,339.366515837104,4,1,0,100,1
54580,336.511497476164,4,1,0,100,1
55926,332.778702163062,4,1,0,100,1
57258,336.228635472121,4,1,0,100,1
59947,337.457817772778,4,1,0,100,1
61297,333.424098782446,4,1,0,100,1
62631,334.821428571429,4,1,0,100,1
63970,338.218714768884,4,1,0,100,1
65323,336.134453781513,4,1,0,100,1
66668,338.028169014084,4,1,0,100,1
68020,339.750849377123,4,1,0,100,1
69379,333.333333333333,4,1,0,100,1
70712,331.491712707182,4,2,0,100,1
72038,334.168755221387,4,2,0,100,1
74711,333.055786844296,4,2,0,100,1
76044,335.101926836079,4,2,0,100,1
77384,333.240766453763,4,2,0,100,1
78717,337.078651685393,4,2,0,100,1
81414,330.396475770925,4,2,0,100,1
82735,332.594235033259,4,2,0,100,1
84066,333.333333333333,4,2,0,100,1
86399,361.44578313253,4,2,0,100,1
86579,-100,4,1,0,100,0
86760,183,4,2,0,100,1
86760,361.44578313253,4,1,0,100,1
86851,-100,4,2,0,100,0
86941,7963,4,2,0,100,1

[Colours]
Combo1 : 0,0,255
Combo2 : 0,255,0
Combo3 : 255,0,0
Combo4 : 255,255,0

[HitObjects]
96,72,11665,1,0
168,72,11836,1,0
296,72,12177,1,0
424,72,12518,1,0
360,184,12859,1,0
328,240,13029,1,0
392,240,13200,2,0,B|392:320|304:336|256:272,1,150,0|0
240,176,14052,1,8
304,64,14393,5,0
304,64,14563,1,0
176,64,14904,1,0
80,152,15245,1,0
80,280,15586,2,2,B|80:344,2,50,2|8|2
256,88,16609,5,8
256,152,16779,1,4
256,280,17117,1,8
256,216,17286,1,4
88,104,17793,2,8,B|56:160|96:208,1,100,2|2
256,200,18469,5,4
256,200,18638,1,4
256,200,18807,1,8
224,72,19145,1,4
288,72,19314,1,8
330,268,19821,2,0,B|346:332|266:356,1,100,0|8
185,268,20497,2,0,B|169:332|249:356,1,100,0|8
256,224,21177,5,0
256,224,21349,1,0
192,112,21692,1,0
320,112,22035,1,0
440,160,22377,1,0
440,224,22549,1,0
440,288,22720,1,0
312,328,23063,1,0
248,328,23234,1,0
128,288,23578,5,12
72,168,23918,6,0,B|96:112|136:72|192:48,1,150,8|0
296,56,24771,2,0,B|368:64|416:104,1,100
432,136,25282,2,0,B|456:176|432:208,1,75,0|2
256,192,25964,5,8
224,248,26134,1,0
288,248,26305,1,4
320,304,26474,1,2
256,304,26643,1,8
192,304,26812,1,4
128,112,27995,6,0,B|152:132|179:108,1,50
152,48,28333,2,0,B|176:28|203:52,1,50,0|0
328,56,28840,2,0,B|360:64|368:104|376:128|360:152|345:172|320:186|272:184|248:168,2,225
264,288,30714,5,8
200,288,30884,1,0
136,288,31055,1,2
136,160,31395,1,8
200,160,31566,1,0
264,160,31736,1,2
152,224,32076,1,0
216,224,32245,2,0,B|272:224,4,50,8|8|8|8|4
64,96,33425,5,4
120,64,33593,1,8
176,96,33761,1,2
304,64,34097,1,2
400,152,34433,1,2
272,176,34769,1,8
272,176,34937,1,4
72,168,36114,6,8,B|40:200|104:232,2,50
200,192,36786,2,0,B|216:176|232:192|248:208|264:192|288:176|304:200,1,100,4|4
424,160,37458,1,2
424,224,37626,1,2
368,192,37794,1,2
240,192,38131,1,12
256,56,38803,5,0
224,112,38971,1,0
288,112,39139,1,0
296,240,39475,2,2,B|248:288|200:232,2,100
352,120,40488,1,12
288,120,40657,1,12
224,120,40826,1,12
160,120,40995,1,4
192,264,50867,5,8
192,264,51036,1,0
192,120,51372,1,0
328,120,51709,1,4
328,264,52046,1,2
328,264,52214,1,0
328,264,52382,1,8
256,192,52718,1,0
256,192,52886,1,2
88,40,53562,5,8
152,64,53732,2,0,B|152:104|120:144,1,50,2|8
88,184,54071,2,0,B|88:224|120:264,1,50,2|8
152,304,54410,1,0
280,248,54748,1,4
320,304,54916,1,0
278,360,55084,1,4
400,184,55589,6,0,B|425:140|382:96,3,50,4|0|4|0
336,152,56258,1,8
336,152,56425,1,4
56,336,57594,5,4
56,264,57762,1,4
56,192,57930,1,4
56,120,58098,1,4
56,48,58266,1,4
264,40,60284,5,8
125,48,58434,2,4,B|240:172|108:356,2,300
264,40,60453,1,8
264,112,60621,1,0
264,112,60790,1,4
264,184,60959,1,8
264,184,61128,1,8
328,152,61296,1,4
328,80,61463,1,8
392,112,61630,1,4
392,112,61797,1,0
432,328,62965,6,2,B|432:256,1,50
368,256,63300,2,8,B|368:184,1,50
296,184,63635,2,2,B|296:272,1,50
248,304,63970,2,8,B|176:304,1,50
128,248,64308,1,4
128,248,64477,1,4
368,80,70712,5,0
304,112,70877,2,0,B|152:112,1,150,8|0
139,46,71374,2,0,B|139:202,1,150,8|0
264,240,72037,1,8
336,240,72203,1,8
453,315,72536,1,2
453,175,72870,1,0
453,175,73037,1,4
360,64,73386,5,0
296,40,73551,2,0,B|226:7|148:43,1,150,8|0
104,80,74048,2,0,B|58:145|96:188|192:159,1,150,8|0
280,128,74711,1,4
320,184,74877,1,8
232,288,75210,1,4
368,328,75544,1,2
368,328,75711,1,2
424,200,76044,6,0,B|432:160|424:128,2,50,0|8|0
336,88,76714,1,2
192,88,77049,1,2
104,200,77384,2,0,B|96:160|104:128,2,50,0|8|0
192,88,78054,1,2
336,88,78389,1,2
262,204,78716,1,0
261,205,78885,1,0
260,44,79391,1,8
153,135,79728,1,2
225,135,79896,1,2
297,135,80065,1,2
369,135,80233,1,2
256,312,80739,1,4
256,192,81414,12,8,86399
256,192,86760,5,6
256,192,86941,1,6
