osu file format v5

[General]
AudioFilename: hellothere.mp3
AudioLeadIn: 0
PreviewTime: -1
Countdown: 1
SampleSet: Normal
StackLeniency: 0.7
Mode: 0
LetterboxInBreaks: 0
SkinPreference:Default

[Metadata]
Title:Hello There
Artist:Cheap Trick
Creator:nardi11011
Version:Hard
Source:Rock Band 2
Tags:

[Difficulty]
HPDrainRate:5
CircleSize:4
OverallDifficulty:6
SliderMultiplier:1.4
SliderTickRate:1

[Events]
//Background and Video events
1,-2255,"hellothere_osu.avi"
//Break Periods
2,41364,49817
2,64677,69662
//Storyboard Layer 0 (Background)
//Storyboard Layer 1 (Failing)
//Storyboard Layer 2 (Passing)
//Storyboard Layer 3 (Foreground)
//Storyboard Sound Samples
//Background Colour Transformations
3,100,0,0,0

[TimingPoints]
0,681.818181818182,4,2,0,100,1
11325,340.909090909091,4,2,0,100,1
16268,340.909090909091,4,1,0,100,0
16779,338.028169014084,4,1,0,100,1
17625,338.028169014084,4,2,0,100,0
18301,338.028169014084,4,1,0,100,0
19596,338.028169014084,4,2,0,100,0
20835,342.857142857143,4,2,0,100,1
23407,342.857142857143,4,1,0,100,0
23578,340.909090909091,4,1,0,100,1
23749,340.909090909091,4,2,0,100,0
25794,340.909090909091,4,1,0,100,0
26305,338.028169014084,4,1,0,100,1
29010,340.909090909091,4,1,0,100,1
31737,338.028169014084,4,1,0,100,1
33089,336.134453781513,4,1,0,100,1
39812,338.028169014084,4,1,0,100,1
42517,337.078651685393,4,1,0,100,1
45212,335.195530726257,4,1,0,100,1
46553,331.491712707182,4,1,0,100,1
47879,333.333333333333,4,1,0,100,1
49213,329.67032967033,4,1,0,100,1
50531,336.700336700337,4,1,0,100,1
51878,336.228635472121,4,1,0,100,1
53223,339.366515837104,4,1,0,100,1
54580,336.511497476164,4,1,0,100,1
55926,332.778702163062,4,1,0,100,1
57258,336.228635472121,4,1,0,100,1
59947,337.457817772778,4,1,0,100,1
61297,333.424098782446,4,1,0,100,1
62631,334.821428571429,4,1,0,100,1
63970,338.218714768884,4,1,0,100,1
65323,336.134453781513,4,1,0,100,1
66668,338.028169014084,4,1,0,100,1
68020,339.750849377123,4,1,0,100,1
69379,333.333333333333,4,1,0,100,1
70712,331.491712707182,4,2,0,100,1
72038,334.168755221387,4,2,0,100,1
74711,333.055786844296,4,2,0,100,1
76044,335.101926836079,4,2,0,100,1
77384,333.240766453763,4,2,0,100,1
78717,337.078651685393,4,2,0,100,1
81414,330.396475770925,4,2,0,100,1
82735,332.594235033259,4,2,0,100,1
84066,333.333333333333,4,2,0,100,1
86399,361.44578313253,4,2,0,100,1
86579,-100,4,1,0,100,0
86760,361.44578313253,4,1,0,100,1
86760,183,4,2,0,100,1
86851,-100,4,2,0,100,0
86941,7963,4,2,0,100,1

[Colours]
Combo1 : 255,150,0
Combo2 : 0,255,0
Combo3 : 255,0,0
Combo4 : 255,255,0
Combo5 : 0,0,255

[HitObjects]
88,192,11665,1,0
120,128,11836,1,0
256,96,12177,1,0
384,152,12518,1,0
384,288,12859,1,0
320,312,13029,1,0
256,288,13200,1,0
320,160,13540,1,0
320,160,13711,1,0
256,128,13881,5,8
256,128,14052,1,8
136,56,14393,5,0
136,56,14563,1,0
136,192,14904,1,0
240,288,15245,1,0
376,288,15586,1,0
376,288,15756,1,0
376,288,15927,1,0
392,80,16438,5,8
320,80,16609,1,8
320,152,16779,1,4
392,152,16948,1,8
356,212,17117,1,8
356,212,17286,1,4
160,144,17793,2,0,B|112:88,2,70,2|8|2
72,256,18469,5,4
72,328,18638,1,4
133,295,18807,1,8
192,256,18976,1,4
192,328,19145,1,4
133,295,19314,1,8
192,96,19821,2,0,B|255:64|340:103,3,140,2|2|2|8
256,216,21177,5,0
256,216,21349,2,0,B|160:336,1,140
48,248,22035,2,0,B|144:136,1,140
152,72,22549,1,0
208,112,22720,1,0
336,56,23063,1,0
336,56,23235,1,0
256,176,23578,5,12
376,56,23918,5,0
376,56,24089,1,0
376,192,24430,1,0
272,288,24771,1,0
136,288,25112,1,0
136,288,25282,1,0
136,288,25452,1,0
312,80,25964,5,2
240,80,26134,1,8
168,80,26305,2,0,B|138:121|178:162,1,70,4|0
232,144,26643,1,2
304,144,26812,2,0,B|336:175|299:217,1,70,0|8
120,280,27995,5,0
168,232,28164,1,0
120,184,28333,1,4
168,136,28502,1,0
120,88,28671,1,0
176,48,28840,2,0,B|272:48|344:72|408:112|432:160|427:242|392:312|308:326|231:319|232:280|272:133,1,630,8|4
392,56,30714,5,0
392,56,30884,1,0
376,120,31055,1,8
376,120,31225,1,0
408,184,31396,1,0
408,184,31566,1,0
400,256,31737,2,0,B|368:320|342:328|304:335|248:304|245:230,1,210,8|6
48,72,33425,5,2
120,48,33593,1,8
120,48,33761,1,2
192,72,33929,1,8
192,72,34097,1,2
256,104,34265,2,0,B|304:64|360:152,2,70,8|4|8
208,144,34769,1,0
160,192,34937,1,4
136,72,36114,5,8
136,144,36282,1,0
194,106,36450,1,4
336,104,36786,2,0,B|382:170|332:266,1,140,8|2
344,238,37458,5,8
344,310,37626,1,0
286,272,37794,1,4
147,272,38131,1,8
256,16,38803,5,8
291,76,38971,1,0
221,76,39139,1,8
256,136,39307,1,0
256,136,39475,1,8
200,184,39643,1,0
256,224,39812,1,8
312,184,39981,1,0
288,248,40150,2,0,B|248:272|208:240,6,70,8|2|2|2|2|2|4
192,264,50867,5,8
192,264,51036,1,0
192,120,51372,1,0
328,120,51709,1,4
328,264,52046,1,2
328,264,52214,1,0
328,264,52382,1,8
256,192,52718,1,0
256,192,52886,1,2
88,40,53562,5,8
152,64,53732,2,0,B|152:104|120:144,1,70,2|8
88,184,54071,2,0,B|88:224|120:264,1,70,2|8
152,304,54410,1,0
280,248,54748,1,4
320,304,54916,1,0
278,360,55084,1,4
400,184,55589,6,0,B|425:140|382:96,3,70,4|0|4|0
336,152,56258,1,8
336,152,56425,1,4
56,336,57594,5,4
56,264,57762,1,4
56,192,57930,1,4
56,120,58098,1,4
56,48,58266,1,4
125,48,58434,2,4,B|240:172|108:356,2,315
264,40,60284,5,8
264,40,60453,1,8
264,112,60621,1,0
264,112,60790,1,4
264,184,60959,1,8
264,184,61128,1,8
328,152,61296,1,4
328,80,61463,1,8
392,112,61630,1,4
392,112,61797,1,0
432,328,62965,6,2,B|432:256,1,70
368,256,63300,2,8,B|368:184,1,70
296,184,63635,2,2,B|296:272,1,70
248,304,63970,2,8,B|176:304,1,70
128,248,64308,1,4
128,248,64477,1,4
368,80,70712,5,0
304,112,70877,2,0,B|152:112,1,140,8|0
139,46,71374,2,0,B|139:202,1,140,8|0
264,240,72037,1,8
336,240,72203,1,8
453,315,72536,1,2
453,175,72870,1,0
453,175,73037,1,4
360,64,73386,5,0
296,40,73551,2,0,B|226:7|148:43,1,140,8|0
104,80,74048,2,0,B|58:145|96:188|192:159,1,140,8|0
280,128,74711,1,4
320,184,74877,1,8
232,288,75210,1,4
368,328,75544,1,2
368,328,75711,1,2
424,200,76044,6,0,B|432:160|424:128,2,70,0|8|0
336,88,76714,1,2
192,88,77049,1,2
104,200,77384,2,0,B|96:160|104:128,2,70,0|8|0
192,88,78054,1,2
336,88,78389,1,2
262,204,78716,1,0
261,205,78885,1,0
260,44,79391,1,8
153,135,79728,1,2
225,135,79896,1,2
297,135,80065,1,2
369,135,80233,1,2
256,312,80739,1,4
256,192,81414,12,8,86399
256,192,86760,5,6
256,192,86941,1,6
