osu file format v5

[General]
AudioFilename: hellothere.mp3
AudioLeadIn: 0
PreviewTime: -1
Countdown: 1
SampleSet: Soft
StackLeniency: 0.7
Mode: 0
LetterboxInBreaks: 0

[Metadata]
Title:Hello There
Artist:Cheap Trick
Creator:nardi11011
Version:Expert (Not even started)
Source:Rock Band 2
Tags:

[Difficulty]
HPDrainRate:6
CircleSize:5
OverallDifficulty:7
SliderMultiplier:1.4
SliderTickRate:1

[Events]
//Background and Video events
1,-2255,"hellothere_osu.avi"
//Break Periods
2,41364,49817
//Storyboard Layer 0 (Background)
//Storyboard Layer 1 (Failing)
//Storyboard Layer 2 (Passing)
//Storyboard Layer 3 (Foreground)
//Storyboard Sound Samples
//Background Colour Transformations
3,100,0,0,0

[TimingPoints]
0,681.818181818182,4,2,0,100,1
11325,340.909090909091,4,2,0,100,1
16268,340.909090909091,4,1,0,100,0
16779,338.028169014084,4,1,0,100,1
17625,338.028169014084,4,2,0,100,0
18301,338.028169014084,4,1,0,100,0
19596,338.028169014084,4,2,0,100,0
20835,342.857142857143,4,2,0,100,1
23407,342.857142857143,4,1,0,100,0
23578,340.909090909091,4,1,0,100,1
23749,340.909090909091,4,2,0,100,0
25794,340.909090909091,4,1,0,100,0
26305,338.028169014084,4,1,0,100,1
29010,340.909090909091,4,1,0,100,1
31737,338.028169014084,4,1,0,100,1
33089,336.134453781513,4,1,0,100,1
39812,338.028169014084,4,1,0,100,1
42517,337.078651685393,4,1,0,100,1
45212,335.195530726257,4,1,0,100,1
46553,331.491712707182,4,1,0,100,1
47879,333.333333333333,4,1,0,100,1
49213,329.67032967033,4,1,0,100,1
50531,336.700336700337,4,1,0,100,1
51878,336.228635472121,4,1,0,100,1
53223,339.366515837104,4,1,0,100,1
54580,336.511497476164,4,1,0,100,1
55926,332.778702163062,4,1,0,100,1
57258,336.228635472121,4,1,0,100,1
59947,337.457817772778,4,1,0,100,1
61297,333.424098782446,4,1,0,100,1
62631,334.821428571429,4,1,0,100,1
63970,338.218714768884,4,1,0,100,1
65323,336.134453781513,4,1,0,100,1
66668,338.028169014084,4,1,0,100,1
68020,339.750849377123,4,1,0,100,1
69379,333.333333333333,4,1,0,100,1
70712,331.491712707182,4,1,0,100,1
72038,334.168755221387,4,1,0,100,1
74711,333.055786844296,4,1,0,100,1
76044,335.101926836079,4,1,0,100,1
77384,333.240766453763,4,1,0,100,1
78717,337.078651685393,4,1,0,100,1
81414,330.396475770925,4,1,0,100,1
82735,332.594235033259,4,1,0,100,1
84066,333.333333333333,4,1,0,100,1
86399,361.44578313253,4,1,0,100,1
86760,361.44578313253,4,1,0,100,1
86760,2727.27272727273,4,1,0,100,1
86941,2727.27272727273,4,1,0,100,1

[Colours]
Combo1 : 255,150,0
Combo2 : 0,255,0
Combo3 : 255,0,0
Combo4 : 255,255,0
Combo5 : 0,0,255

[HitObjects]
96,192,11665,2,0,B|96:240,2,35
256,96,12177,1,0
384,152,12518,1,0
384,288,12859,1,0
320,312,13029,1,0
256,288,13200,1,0
320,160,13540,1,0
320,160,13626,1,0
320,160,13711,1,0
256,128,13881,6,0,B|256:88,2,35
136,56,14393,5,0
136,56,14563,1,0
136,192,14904,1,0
240,288,15245,1,0
376,288,15586,1,0
376,288,15671,1,0
376,288,15756,1,0
376,288,15842,1,0
376,288,15927,1,0
392,80,16438,5,8
320,80,16609,1,8
320,152,16779,1,4
392,152,16948,1,8
356,212,17117,1,8
356,212,17201,1,0
356,212,17286,1,4
160,144,17793,2,0,B|112:88,2,70,2|8|2
72,256,18469,5,4
72,256,18553,1,0
72,328,18638,1,4
133,295,18807,1,8
192,256,18976,1,4
192,328,19145,1,4
133,295,19229,1,0
133,295,19314,1,8
192,96,19821,2,0,B|255:64|340:103,3,140,2|2|2|8
256,216,21177,5,0
256,216,21349,2,0,B|160:336,1,140
48,248,22035,2,0,B|144:136,1,140
152,72,22549,1,0
208,112,22720,1,0
336,56,23063,1,0
336,56,23235,1,0
256,176,23578,5,12
136,56,23918,5,0
136,56,24089,1,0
136,192,24430,1,0
240,288,24771,1,0
376,288,25112,1,0
376,288,25282,1,0
376,288,25452,1,0
312,80,25964,5,2
240,80,26134,1,8
168,80,26305,2,0,B|138:121|178:162,1,70,4|0
232,144,26643,1,2
304,144,26812,2,0,B|334:166|312:216,3,70,0|8|0|8
120,280,27995,5,0
168,232,28164,1,0
120,184,28333,1,4
168,136,28502,1,0
120,88,28671,1,0
176,48,28840,2,0,B|272:48|344:72|408:112|432:160|440:232|392:312|272:344|232:352|232:280|240:168,1,630,8|4
336,64,30714,5,0
336,64,30884,1,0
376,120,31055,1,8
376,120,31225,1,0
408,184,31396,1,0
408,184,31566,1,0
400,256,31737,2,0,B|368:320|320:328|312:336|248:304|224:240,1,210,8|6
464,72,33425,5,2
392,48,33593,1,8
392,48,33761,1,2
320,72,33929,1,8
320,72,34097,1,2
256,104,34265,2,0,B|208:64|152:152,2,70,8|4|8
304,144,34769,1,0
352,192,34937,1,4
136,72,36114,5,8
136,144,36282,1,0
194,106,36450,1,4
336,104,36786,2,0,B|382:170|332:266,1,140,8|2
344,238,37458,5,8
344,310,37626,1,0
286,272,37794,1,4
147,272,38131,1,8
256,16,38803,5,8
291,76,38971,1,0
221,76,39139,1,8
256,136,39307,1,0
256,136,39475,1,8
200,184,39643,1,0
256,224,39812,1,8
312,184,39981,1,0
288,248,40150,2,0,B|248:272|208:240,6,70,8|2|2|2|2|2|4
192,264,50867,5,0
192,264,51036,1,0
192,120,51372,1,0
328,120,51709,1,0
328,264,52046,1,0
328,264,52214,1,0
328,264,52382,1,0
256,192,52718,1,0
256,192,52886,1,0
