osu file format v8

[General]
AudioFilename: Chayenne torero.mp3
AudioLeadIn: 0
PreviewTime: 106691
Countdown: 0
SampleSet: Soft
StackLeniency: 0.5
Mode: 0
LetterboxInBreaks: 1

[Editor]
DistanceSpacing: 0.810000002384186
BeatDivisor: 4
GridSize: 8

[Metadata]
Title:Torero
Artist:Chayanne
Creator:Krisom
Version:Easy
Source:
Tags:lepidopodus spanish

[Difficulty]
HPDrainRate:2
CircleSize:3
OverallDifficulty:2
ApproachRate:2
SliderMultiplier:0.919999999999999
SliderTickRate:1

[Events]
//Background and Video events
0,0,"BG.jpg"
//Break Periods
2,79978,85278
2,143498,148797
//Storyboard Layer 0 (Background)
//Storyboard Layer 1 (Fail)
//Storyboard Layer 2 (Pass)
//Storyboard Layer 3 (Foreground)
//Storyboard Sound Samples
//Background Colour Transformations
3,100,163,162,255

[TimingPoints]
2142,441.176470588235,4,2,1,100,1,0
51553,-100,4,2,1,100,0,1
76250,441.176470588235,4,2,1,100,1,1
78014,-100,4,1,1,100,0,1
79007,-100,4,2,1,100,0,1
79779,-100,4,2,1,100,0,0
108014,-100,4,2,1,100,0,1
132710,441.176470588235,4,2,1,100,1,1
132820,-100,4,1,1,100,0,1
136239,-100,4,2,1,100,0,0
157415,-100,4,1,1,50,0,0
171533,-100,4,2,1,80,0,0
182110,441.176470588235,4,1,1,100,1,0
185639,-100,4,2,1,100,0,1
213874,-100,4,1,1,70,0,0

[Colours]
Combo1 : 252,221,3
Combo2 : 4,208,4
Combo3 : 14,98,254
Combo4 : 240,5,5
SliderBorder : 0,0,0

[HitObjects]
104,320,23318,5,4
256,320,24200,1,2
408,320,25083,2,0,B|472:304|512:208|480:160,1,184,0|2
418,140,26406,1,8
408,64,26847,5,4
256,64,27730,1,2
104,64,28612,2,0,B|40:80|0:176|32:224,1,184,0|2
94,244,29936,1,8
160,280,30377,5,4
256,168,31259,1,2
352,280,32142,1,0
302,336,32583,2,0,B|202:336,1,91.9999999999999,8|2
210,261,33465,2,0,B|310:261,1,91.9999999999999,8|4
256,120,34789,5,2
148,223,35671,1,0
220,223,36112,1,8
292,223,36553,1,2
364,223,36994,1,8
367,146,37436,6,0,B|368:88|328:24|256:23,2,184,4|2|0
365,224,39641,1,8
290,224,40083,1,2
144,237,40965,6,0,B|144:296|184:360|255:360,2,184,4|2|0
147,160,43171,1,8
222,160,43612,1,2
328,264,44494,6,0,B|295:330|216:330|184:264|184:264|176:256,1,184,4|2
256,240,45818,2,0,B|232:193|184:175|138:204,2,138,8|2|0
328,240,47583,1,8
292,304,48024,5,4
220,304,48465,1,8
184,240,48906,1,2
256,240,49347,2,0,B|280:193|328:175|374:204,2,138,8|2|4
256,312,51112,1,4
182,312,51553,6,0,B|72:320|29:234,1,184,4|2
88,192,52877,1,8
29,149,53318,2,0,B|72:64|182:71,1,184,0|2
256,72,54641,1,8
296,136,55083,6,0,B|280:160|232:160|216:136|216:136|208:128,5,91.9999999999999,4|8|2|8|0|8
256,72,57730,2,0,B|256:280,1,184,2|4
400,208,59494,1,2
365,71,60377,5,0
293,71,60818,1,8
219,71,61259,1,2
147,71,61700,1,8
143,145,62141,6,0,B|143:201|183:281|255:305|327:281|367:201|367:145|367:145|367:137,1,368,4|2
256,240,64789,5,4
256,312,65230,1,4
329,312,65671,6,0,B|440:320|482:234,1,184,4|2
424,192,66994,1,8
482,149,67436,2,0,B|440:64|329:71,1,184,0|2
256,72,68759,1,8
216,136,69200,6,0,B|232:160|280:160|296:136|296:136|304:128,5,91.9999999999999,4|8|2|8|0|8
256,72,71847,2,0,B|256:280,1,184,2|4
112,208,73612,1,2
147,71,74494,5,0
219,71,74936,1,8
293,71,75377,1,2
365,71,75818,1,8
256,192,76250,12,4,78014
256,264,79117,6,0,B|256:112,1,138,2|4
192,312,86838,6,0,B|192:120,1,184,4|2
320,56,88602,2,0,B|320:248,1,184,0|2
216,352,90367,5,4
256,288,90808,1,8
296,352,91250,1,2
328,208,92132,2,0,B|295:142|216:142|184:208|184:208|176:216,2,184,0|2|4
402,208,94338,5,8
476,208,94779,1,2
438,143,95220,2,0,B|432:56|304:32,1,184,8|8
256,88,96544,1,2
184,208,97426,5,4
110,208,97867,1,8
36,208,98308,1,2
74,143,98750,2,0,B|80:56|208:32,1,184,8|8
256,88,100073,1,2
256,240,100955,6,0,B|280:304|224:312|256:384,2,138,4|2|8
221,94,103161,1,8
293,94,103602,1,2
256,160,104044,1,8
256,232,104485,6,0,B|255:295|207:295|204:295,1,91.9999999999999,4|8
256,232,105367,2,0,B|256:295|304:295|307:295,1,91.9999999999999,2|8
256,80,107132,5,4
256,80,107573,1,4
328,80,108014,6,0,B|328:191|443:191,1,184,4|2
512,192,109338,1,8
443,192,109779,2,0,B|328:192|328:304,1,184,0|2
256,328,111102,1,8
216,264,111544,6,0,B|232:240|280:240|296:264|296:264|304:272,5,91.9999999999999,4|8|2|8|0|8
328,328,114191,2,0,B|295:394|216:394|184:328|184:328|176:320,2,184,2|4|2
368,184,116838,6,0,B|480:184,1,91.9999999999999,0|8
456,256,117720,2,0,B|344:256,1,91.9999999999999,2|8
368,184,118602,6,0,B|368:128|328:48|256:24|184:48|144:128|144:184|144:184|144:192,1,368,4|2
256,80,121250,5,4
256,80,121691,1,4
184,80,122132,6,0,B|184:191|69:191,1,184,4|2
0,192,123455,1,8
69,192,123897,2,0,B|184:192|184:304,1,184,0|2
256,328,125220,1,8
296,264,125661,6,0,B|280:240|232:240|216:264|216:264|208:272,5,91.9999999999999,4|8|2|8|0|8
184,328,128308,2,0,B|217:394|296:394|328:328|328:328|336:320,2,184,2|4|2
144,184,130955,6,0,B|32:184,1,91.9999999999999,0|8
56,256,131838,2,0,B|168:256,1,91.9999999999999,2|8
256,192,132710,12,0,134474
256,240,135357,5,8
256,240,136239,1,4
256,312,136680,2,0,B|328:312|328:232|328:232|328:160,1,184,8|8
328,96,138004,1,0
256,96,138445,2,0,B|184:96|184:176|184:176|184:248,1,184,8|8
131,290,139768,5,4
256,368,140651,1,2
381,290,141533,1,4
256,192,141754,12,4,143298
184,120,150357,5,4
256,120,150798,1,8
328,120,151239,1,2
328,264,152121,1,0
256,264,152562,1,8
184,264,153004,1,2
184,112,153886,6,0,B|217:46|296:46|328:112|328:112|336:120,1,184,4|2
328,264,155651,1,4
293,330,156092,1,8
219,330,156533,1,2
184,264,156974,1,8
256,264,157415,5,4
160,152,158298,1,0
208,96,158739,1,8
256,40,159180,1,0
352,152,160062,1,0
304,96,160504,1,8
256,40,160945,5,4
176,168,161827,1,0
336,168,162709,1,0
328,320,163592,2,0,B|295:386|216:386|184:320|184:320|176:312,1,184,0|4
376,88,166239,6,0,B|312:88|256:148|256:148|200:88|136:88|136:88|128:88,1,276
136,160,168004,1,0
184,216,168445,1,0
256,216,168886,1,0
328,216,169327,1,0
376,160,169768,1,4
80,192,171533,6,0,B|176:192|176:128|176:128|176:74,1,184,4|2
336,73,173298,2,0,B|336:128|336:128|336:192|431:192,1,184,0|2
304,264,175062,6,0,B|304:296|304:296|304:332|208:332|208:296|208:296|208:264|208:264|208:256,2,184,0|2|0
256,208,177268,1,0
208,152,177709,2,0,B|208:120|208:120|208:84|304:84|304:120|304:120|304:152|304:152|304:160,1,184,2|0
256,296,179474,1,2
144,192,180357,5,0
256,88,181239,1,2
368,192,182110,5,0
256,288,182992,1,0
144,192,183874,1,0
218,192,184315,1,0
294,192,184757,1,0
368,192,185198,1,2
384,120,185639,6,0,B|384:56|320:56,1,91.9999999999999,4|8
256,56,186521,1,2
184,56,186962,1,8
112,56,187404,2,0,B|48:56|48:128,1,91.9999999999999,0|8
48,184,188286,1,2
48,256,188727,1,8
104,304,189168,6,0,B|208:304,1,91.9999999999999,4|8
210,230,190051,2,0,B|322:230,1,91.9999999999999,2|8
316,304,190933,2,0,B|408:304,1,91.9999999999999,0|8
416,232,191815,5,2
256,232,192698,1,4
96,232,193580,1,2
200,128,194462,5,0
256,80,194904,1,8
312,128,195345,1,2
256,176,195786,1,8
256,192,196227,12,4,197992
128,120,198874,5,4
128,120,199315,1,4
128,120,199757,6,0,B|128:56|192:56,1,91.9999999999999,4|8
256,56,200639,1,2
328,56,201080,1,8
400,56,201521,2,0,B|464:56|464:128,1,91.9999999999999,0|8
464,184,202404,1,2
464,256,202845,1,8
408,304,203286,6,0,B|304:304,1,91.9999999999999,4|8
302,230,204168,2,0,B|190:230,1,91.9999999999999,2|8
196,304,205051,2,0,B|104:304,1,91.9999999999999,0|8
96,232,205933,5,2
256,232,206815,1,4
416,232,207698,1,2
312,128,208580,5,0
256,80,209021,1,8
200,128,209462,1,2
256,176,209904,1,8
256,192,210345,12,4,212109
220,254,212992,5,2
292,254,213433,1,8
256,192,213874,2,0,B|256:136,1,46,4|0
