osu file format v5

[General]
AudioFilename: Chatmonchy - Renai Spirits.mp3
AudioLeadIn: 0
PreviewTime: 27475
Countdown: 0
SampleSet: Soft
StackLeniency: 0.7
Mode: 0
LetterboxInBreaks: 1

[Editor]
Bookmarks: 28307,83707
DistanceSpacing: 1.70000004768372
BeatDivisor: 2
GridSize: 8

[Metadata]
Title:Renai Spirits
Artist:Chatmonchy
Creator:Matma Rex
Version:Normal
Source:
Tags:

[Difficulty]
HPDrainRate:5
CircleSize:4
OverallDifficulty:5
SliderMultiplier:0.585
SliderTickRate:0.5

[Events]
//Background and Video events
0,0,"bg.jpg"
//Break Periods
2,102499,108282
//Storyboard Layer 0 (Background)
//Storyboard Layer 1 (Fail)
//Storyboard Layer 2 (Pass)
//Storyboard Layer 3 (Foreground)
//Storyboard Sound Samples
//Background Colour Transformations
3,100,163,162,255

[TimingPoints]
1726,422.535211267606,4,2,0,100,1,0
112862,-100,4,2,0,80,0,0
116243,-100,4,2,0,60,0,0
134200,-100,4,2,0,70,0,0
135045,-100,4,2,0,80,0,0
135890,-100,4,2,0,90,0,0
136736,-100,4,2,0,100,0,0
136936,-100,4,2,0,100,0,1
143065,-100,4,2,0,100,0,0
143699,-100,4,2,0,100,0,1
143911,-100,4,2,0,100,0,0
150462,-100,4,2,0,100,0,1
150674,-100,4,2,0,100,0,0
157228,-100,4,2,0,100,0,1
157440,-100,4,2,0,100,0,0

[Colours]
Combo1 : 3,74,166
Combo2 : 234,224,112
Combo3 : 242,29,86
Combo4 : 239,165,76

[HitObjects]
96,272,28345,5,0
101,172,28768,1,2
194,137,29190,1,0
178,235,29613,1,2
276,224,30035,1,0
345,294,30458,1,2
411,220,30880,5,0
410,170,31092,1,0
362,157,31303,1,2
336,199,31514,1,0
366,237,31725,1,2
267,254,32148,6,0,B|206:216|206:216,1,58.5,0|2
245,182,32993,2,0,B|165:182|165:182,1,58.5,0|2
179,136,33838,2,0,B|105:171|105:171,1,58.5,0|0
223,334,35106,5,0
141,277,35528,1,2
168,181,35951,1,0
267,179,36373,1,2
246,81,36796,1,0
339,113,37218,1,2
296,203,37641,5,0
295,253,37852,1,0
247,266,38064,1,0
221,224,38275,1,2
251,186,38486,1,2
259,86,38909,6,0,B|179:86|179:86,1,58.5,0|2
224,127,39754,2,0,B|160:151|160:151,1,58.5,0|2
204,180,40599,2,0,B|156:228|156:228,1,58.5,0|0
333,323,41866,5,0
416,268,42289,2,0,B|436:209|436:209,1,58.5,0|2
392,122,43134,1,0
294,138,43556,2,0,B|302:192|302:192,2,29.25,0|0|2
195,155,44402,1,0
97,176,44824,1,2
73,79,45247,5,0
121,67,45458,1,0
170,63,45669,2,0,B|243:62|243:62,1,58.5,0|2
276,67,46514,2,0,B|351:96|351:96,1,58.5,0|2
362,124,47359,2,0,B|395:177|394:236,1,117,0|4
465,305,48627,5,0
365,304,49049,1,2
266,290,49472,1,0
199,216,49895,1,2
182,117,50317,1,0
268,68,50740,1,2
362,99,51162,5,0
368,148,51373,1,0
327,176,51585,1,2
228,161,52007,1,0
180,193,52218,1,0
188,249,52430,1,2
287,242,52852,1,2
287,242,53275,1,2
344,323,53697,5,0
392,291,53909,1,0
384,235,54120,1,2
286,242,54542,1,2
287,242,54965,1,2
359,173,55387,6,0,B|303:149|303:149,1,58.5,0|0
259,130,56021,1,0
212,110,56233,1,2
119,74,56655,1,0
132,122,56866,1,0
146,169,57078,1,2
169,263,57500,2,0,B|102:311|102:311,2,58.5,0|0|2
316,240,58979,5,0
365,239,59190,1,2
387,194,59402,1,0
365,149,59613,2,0,B|309:101,1,58.5,2|2
223,75,60458,1,0
132,106,60880,2,0,B|72:152|72:152,2,58.5,0|0|4
34,218,62359,5,2
71,244,62571,2,0,B|127:282|127:282,1,58.5,0|2
218,280,63416,1,2
289,210,63838,1,0
241,178,64049,1,0
249,122,64261,1,2
348,129,64683,1,2
348,129,65106,1,2
405,48,65528,5,0
453,80,65740,1,0
445,136,65951,1,2
347,129,66373,2,0,B|272:167|272:167,2,58.5,2|2|2
259,176,67641,2,0,B|331:296|331:296,1,117,0|4
433,305,68909,5,0
423,205,69331,1,2
370,120,69754,1,0
282,73,70176,1,2
183,57,70599,2,0,B|130:56|130:56,2,29.25
187,156,71444,1,2
190,255,71866,1,0
76,158,72500,5,0
107,119,72711,1,2
191,66,73134,2,0,B|216:101|216:101,5,29.25,0|0|2|2|0|0
238,129,74402,1,2
335,148,74824,1,0
393,228,75247,1,2
278,323,75880,5,0
228,321,76092,1,2
137,280,76514,1,0
106,185,76937,1,2
148,94,77359,1,0
193,75,77571,1,0
242,74,77782,1,2
328,122,78204,1,0
376,209,78627,1,2
313,286,79049,5,0
292,240,79261,1,0
256,204,79472,1,2
160,177,79895,1,0
254,144,80317,2,0,B|314:112,1,58.5,0|2
256,192,81162,12,4,82852
101,107,83697,5,0
138,302,84542,2,0,B|210:294|210:294,1,58.5
147,208,85387,1,2
268,49,86233,5,0
169,59,86655,1,0
90,121,87078,1,2
268,50,87923,6,0,B|340:58|340:58,1,58.5
397,125,88768,1,2
381,223,89190,1,0
288,259,89613,2,0,B|149:284|149:284,1,117,2|0
73,275,90880,1,0
153,216,91303,6,0,B|266:157|266:157,1,117,2|0
316,82,92571,1,0
216,89,92993,2,0,B|141:113,1,58.5,0|2
163,206,93838,2,0,B|249:224,1,58.5,0|2
319,222,94683,1,0
319,122,95106,1,0
219,122,95528,1,2
86,269,96373,6,0,B|230:269|230:269,3,117,0|0|0|2
402,270,99754,1,0
296,101,100599,1,2
195,272,101444,1,2
146,185,101866,1,0
245,185,102289,1,2
84,276,109472,5,0
106,179,109895,1,2
186,120,110317,1,0
285,129,110740,1,0
333,139,110951,1,0
379,155,111162,1,2
373,254,111585,2,0,B|303:231|303:231,2,58.5,0|0|2
229,210,113064,5,0
180,198,113275,1,2
230,112,113697,1,0
317,64,114120,1,2
411,96,114542,1,0
442,190,114965,1,2
394,277,115387,1,0
296,293,115810,1,4
443,316,116444,5,0
442,266,116655,1,2
392,180,117078,1,0
308,126,117500,1,2
211,101,117923,1,0
161,106,118134,1,0
119,133,118345,1,2
116,232,118768,5,0
187,300,119190,1,2
217,205,119613,1,0
291,138,120035,2,0,B|355:80,1,58.5,0|2
261,166,120880,2,0,B|208:214|208:214,1,58.5,0|2
144,272,121726,2,0,B|192:230,1,58.5,0|2
74,69,122993,5,0
68,168,123416,1,2
120,252,123838,1,0
209,294,124261,1,2
308,294,124683,1,0
401,260,125106,2,0,B|375:200|375:200,2,58.5,0|0|2
372,113,126585,6,0,B|412:92,4,29.25,0|0|0|2|2
327,135,127641,1,0
287,165,127852,1,0
179,268,128486,2,0,B|235:218|235:218,2,58.5,0|0|2
50,192,129965,5,0
77,150,130176,1,2
171,118,130599,1,0
257,68,131021,1,2
353,92,131444,1,0
394,182,131866,1,2
389,281,132289,1,0
395,181,132711,1,2
303,141,133134,5,0
260,166,133345,1,0
232,207,133556,1,4
319,255,133979,1,2
228,296,134402,1,4
141,246,134824,1,2
115,149,135247,1,4
203,103,135669,5,0
296,137,136092,1,6
372,200,136514,5,0
434,276,136937,1,4
335,291,137359,1,0
235,288,137782,2,0,B|252:329,2,29.25
214,242,138416,1,2
187,199,138627,1,2
106,141,139049,1,0
192,92,139472,1,4
290,76,139895,5,0
387,97,140317,1,2
442,179,140740,1,0
421,276,141162,1,2
332,322,141585,1,0
232,326,142007,2,0,B|193:359|254:410|306:324|228:326|228:326,1,117
131,311,143275,5,0
147,213,143697,1,4
225,274,144120,1,0
240,176,144542,2,0,B|217:203|217:203,2,29.25
272,139,145176,1,2
306,103,145387,1,2
389,157,145810,1,0
322,231,146233,1,4
419,253,146655,5,0
389,157,147078,1,2
340,70,147500,1,0
241,58,147923,1,2
153,105,148345,1,0
76,169,148768,2,0,B|75:166|115:232|15:230|28:152|77:169,1,117
71,75,150035,5,0
170,75,150458,1,4
269,81,150880,1,0
367,90,151303,2,0,B|400:56,2,29.25
333,127,151937,1,2
297,161,152148,1,2
212,212,152571,1,0
114,231,152993,1,4
67,143,153416,5,0
135,70,153838,1,2
224,114,154261,1,0
211,212,154683,1,2
303,249,155106,1,0
398,221,155528,2,0,B|398:226|396:148|482:200|431:261|398:222,1,117
330,149,156796,5,0
428,163,157218,1,4
391,70,157641,1,0
300,97,158063,2,0,B|284:59|284:59,2,29.25
253,115,158697,1,2
206,132,158908,1,2
145,210,159331,1,0
146,309,159754,1,4
245,310,160176,5,0
245,210,160599,1,2
145,210,161021,1,0
146,309,161444,1,2
245,311,161866,1,0
256,192,162289,12,4,163979
