osu file format v5

[General]
AudioFilename: Chatmonchy - Renai Spirits.mp3
AudioLeadIn: 0
PreviewTime: 27475
Countdown: 0
SampleSet: Soft
StackLeniency: 0.7
Mode: 0
LetterboxInBreaks: 1

[Editor]
Bookmarks: 28355,82862
DistanceSpacing: 1.5
BeatDivisor: 2
GridSize: 8

[Metadata]
Title:Renai Spirits
Artist:Chatmonchy
Creator:Matma Rex
Version:Easy
Source:
Tags:

[Difficulty]
HPDrainRate:3
CircleSize:3
OverallDifficulty:3
SliderMultiplier:0.785
SliderTickRate:0.5

[Events]
//Background and Video events
0,0,"bg.jpg"
//Break Periods
//Storyboard Layer 0 (Background)
//Storyboard Layer 1 (Fail)
//Storyboard Layer 2 (Pass)
//Storyboard Layer 3 (Foreground)
//Storyboard Sound Samples
//Background Colour Transformations
3,100,163,162,255

[TimingPoints]
1726,422.535211267606,4,2,0,100,1,0
112862,-100,4,2,0,80,0,0
116243,-100,4,2,0,60,0,0
134200,-100,4,2,0,70,0,0
135045,-100,4,2,0,80,0,0
135890,-100,4,2,0,90,0,0
136736,-100,4,2,0,100,0,0
136936,-100,4,2,0,100,0,1
143065,-100,4,2,0,100,0,0
143699,-100,4,2,0,100,0,1
143911,-100,4,2,0,100,0,0
150462,-100,4,2,0,100,0,1
150674,-100,4,2,0,100,0,0
157228,-100,4,2,0,100,0,1
157440,-100,4,2,0,100,0,0

[Colours]
Combo1 : 3,74,166
Combo2 : 234,224,112
Combo3 : 242,29,86
Combo4 : 239,165,76

[HitObjects]
67,73,28768,5,0
184,76,29190,1,0
126,178,29613,1,2
361,188,30458,5,0
478,185,30880,1,0
420,83,31303,1,2
302,83,31725,1,0
184,82,32148,6,0,B|125:83|98:150|98:150,1,78.5,0|2
95,234,32993,2,0,B|96:293|163:320|163:320,1,78.5,0|2
245,331,33838,2,0,B|304:330|331:263|331:263,1,78.5,0|2
91,95,35106,5,0
128,211,35528,1,2
327,86,36373,1,4
91,95,37218,5,0
129,210,37641,2,0,B|180:194|180:194,3,39.25,0|0|0|2
287,326,38909,6,0,B|346:325|373:258|373:258,1,78.5,0|2
376,174,39754,2,0,B|375:115|308:88|308:88,1,78.5,0|2
226,77,40599,2,0,B|167:78|140:145|140:145,1,78.5,0|2
101,305,41866,5,0
218,306,42289,2,0,B|252:265|235:200|235:200,2,78.5,0|2|0
335,309,43556,2,0,B|392:306|392:306,2,39.25,0|0|2
307,194,44402,5,0
190,177,44824,1,2
73,79,45247,1,0
190,80,45669,6,0,B|249:81|276:148|276:148,1,78.5,0|2
279,232,46514,2,0,B|278:291|211:318|211:318,1,78.5,0|2
129,329,47359,2,0,B|70:328|43:261|43:261,1,78.5,0|2
297,319,48627,5,0
415,313,49049,1,0
347,212,49472,1,2
297,319,49895,1,0
117,160,50740,5,0
211,90,51162,1,0
222,207,51585,1,2
445,132,52430,5,0
413,245,52852,1,0
331,159,53275,1,2
311,275,53697,1,0
215,205,54120,1,4
452,132,55387,6,0,B|429:67|370:64|370:64,1,78.5,0|2
286,53,56233,1,0
171,80,56655,5,2
85,160,57078,1,0
94,277,57500,2,0,B|119:327|163:294|163:294,2,78.5,0|0|2
327,307,59190,5,0
430,250,59613,2,0,B|449:198|395:188|395:188,2,78.5,0|0|2
312,256,60880,2,0,B|331:308|277:318|277:318,2,78.5,0|0|2
135,260,62359,6,0,B|85:251|85:251,1,39.25,0|2
142,144,62993,1,0
223,58,63416,1,2
340,59,63838,1,0
278,161,64261,5,2
395,164,64683,1,0
339,268,65106,1,2
107,309,65951,5,0
112,190,66373,2,0,B|115:134|168:146|168:146,2,78.5,0|0|2
209,257,67641,2,0,B|303:258|338:160|338:160,1,157,0|4
379,65,68909,5,0
331,173,69331,1,0
261,76,69754,1,2
214,182,70176,5,0
133,96,70599,1,2
95,328,71444,1,0
101,210,71866,1,4
319,297,72711,5,0
433,268,73134,2,0,B|467:224|419:198|419:198,2,78.5,0|0|2
319,236,74402,1,0
94,306,75247,1,4
329,315,76092,5,0
211,309,76514,1,0
276,210,76937,1,2
40,204,77782,5,0
116,114,78204,1,0
157,224,78627,1,2
242,142,79049,1,0
290,249,79472,6,0,B|270:301|324:311|324:311,1,78.5,2|0
420,247,80317,2,0,B|416:245|470:255|451:307,1,78.5,2|0
256,192,81162,12,4,82852
