osu file format v5

[General]
AudioFilename: Chatmonchy - Mayonaka Yuuenchi.mp3
AudioLeadIn: 0
PreviewTime: 32803
Countdown: 0
SampleSet: Normal
StackLeniency: 0.7
Mode: 0
LetterboxInBreaks: 1
EditorBookmarks: 10976,54624,65536,109185

[Metadata]
Title:Mayonaka Yuuenchi
Artist:Chatmonchy
Creator:Echo
Version:Hard
Source:
Tags:

[Difficulty]
HPDrainRate:6
CircleSize:4
OverallDifficulty:6
SliderMultiplier:1.8
SliderTickRate:2

[Events]
//Background and Video events
0,0,"midnightamusementpark.jpg"
//Break Periods
2,54830,64493
//Storyboard Layer 0 (Background)
4,0,1,"title1.png",120,390 F,0,0,109185,1,1 M,1,1427,2791,-100,390,120,390 F,0,109185,110185,1,0
4,0,1,"title2.png",165,422 F,0,0,109185,1,1 M,1,1427,2791,800,422,165,422 F,0,109185,110185,1,0
4,0,1,"title1.png",120,390 F,0,2791,3291,0.5,0 S,1,2791,3791,1,2
4,0,1,"title2.png",165,422 F,0,2791,3291,0.5,0 S,1,2791,3791,1,2
//Storyboard Layer 1 (Failing)
//Storyboard Layer 2 (Passing)
//Storyboard Layer 3 (Foreground)
//Storyboard Sound Samples
//Background Colour Transformations
3,100,0,0,0

[TimingPoints]
5505,341.004426602246,4,1,0,100,1
64179,341.044426602245,4,2,0,100,0
87029,341.044426602246,4,1,0,100,0

[HitObjects]
432,104,10961,5,0
256,144,11302,1,0
80,104,11643,1,0
144,280,11984,1,0
320,224,12325,2,2,B|256:344|192:220,1,180
368,280,13007,1,0
80,312,13689,6,2,B|160:280|88:176|200:192,1,180
160,120,14200,1,0
208,56,14371,2,2,B|304:104|408:80,1,180
440,232,15053,1,0
392,296,15223,1,0
312,288,15394,1,0
360,224,15564,1,2
280,216,15735,1,6
440,64,16417,5,0
280,96,16758,1,0
208,64,16928,1,0
136,96,17099,2,2,B|136:216|204:152|270:200,1,180
112,264,17781,1,4
256,192,18122,1,0
400,120,18463,1,4
416,336,18974,5,0
416,336,19145,1,0
456,192,19486,2,2,B|392:232|328:192|296:96,1,180
168,56,20168,2,2,B|160:112|72:128|80:216,1,180
176,336,20850,1,0
256,336,21020,1,0
336,336,21191,1,4
392,88,21873,5,0
392,168,22043,1,0
336,224,22214,1,0
248,88,22555,1,0
192,144,22725,1,0
192,224,22896,1,0
72,336,23237,1,0
72,192,23578,1,2
72,48,23919,1,2
344,88,24601,5,4
344,248,24942,1,0
256,112,25283,1,0
256,272,25624,1,4
168,136,25965,1,0
168,296,26306,1,4
88,184,26647,6,2,B|160:264|256:190|363:116|434:211,1,360
423,198,27670,1,2
176,320,28352,5,0
256,64,28693,1,0
336,320,29034,1,0
104,152,29375,1,0
408,152,29716,1,0
176,320,30057,1,4
256,192,30398,12,6,32444
96,328,32785,5,0
256,328,33126,1,0
192,280,33296,1,0
56,192,33637,1,2
176,80,33978,5,0
248,104,34149,1,0
312,56,34319,1,0
440,144,34660,1,2
312,232,35001,1,0
384,264,35172,1,0
416,336,35342,1,0
336,328,35513,5,6
176,328,35854,1,0
112,280,36024,2,0,B|176:208|48:176|120:56|240:96,1,270
376,80,36877,1,2
448,112,37047,1,2
448,272,37388,2,0,B|392:328|312:328|248:304,1,180
328,248,37900,1,4
256,208,38070,1,0
64,72,38241,5,0
64,232,38582,1,0
208,312,38923,1,0
208,152,39264,1,0
448,72,39605,5,0
448,232,39946,1,0
304,312,40287,1,0
304,152,40628,1,0
128,64,40969,5,0
128,320,41310,1,0
384,320,41651,1,0
384,64,41992,1,0
152,144,42333,5,2
360,144,42674,1,2
256,304,43015,1,6
416,328,43697,5,0
256,328,44038,1,0
320,280,44209,1,0
456,192,44550,1,2
336,80,44891,5,0
264,104,45061,1,0
200,56,45232,1,0
128,88,45402,1,2
72,144,45573,1,2
200,232,45914,1,0
128,264,46084,1,0
96,336,46255,1,0
176,328,46425,5,6
336,328,46766,1,0
400,280,46937,2,0,B|336:208|464:176|392:56|272:96,1,270
216,96,47619,1,0
136,80,47789,1,2
64,112,47960,1,2
64,272,48301,2,0,B|120:328|200:328|264:304,1,180
184,248,48812,1,4
256,208,48983,1,0
440,72,49153,5,0
360,72,49324,1,0
280,72,49494,1,0
200,72,49665,1,0
120,72,49835,2,2,B|25:88|25:160|144:176,1,180
256,192,50517,1,2
393,212,50858,1,0
312,312,51199,1,6
72,312,51881,5,0
152,312,52052,1,0
232,312,52222,1,0
312,312,52393,1,0
392,312,52563,2,2,B|487:296|487:224|368:208,1,180
256,192,53245,1,2
119,172,53586,1,0
168,48,53927,2,6,B|240:80|304:32|360:56,2,180
72,248,65521,5,0
144,216,65692,1,0
144,136,65862,1,0
216,104,66033,1,2
288,136,66203,1,0
424,64,66544,5,0
472,128,66715,1,0
424,192,66885,2,0,B|416:240|448:264|368:312|312:264,1,180
256,208,67397,1,2
56,288,67738,5,0
104,224,67908,1,0
152,160,68079,1,0
80,128,68249,2,0,B|112:56|208:56|248:120,1,180
256,168,68761,1,2
280,240,68931,2,0,B|288:320|416:328|440:264|440:160,1,270
344,72,70125,1,2
72,64,70807,5,0
136,112,70977,1,0
72,168,71148,1,0
136,216,71318,1,0
72,272,71489,1,2
136,328,71659,2,0,B|200:352|248:312|320:312,1,180
392,312,72171,1,0
448,256,72341,1,0
296,192,72682,1,0
144,128,73023,1,0
440,64,73535,5,0
376,112,73705,1,0
440,168,73876,1,0
376,216,74046,1,0
440,272,74217,1,2
376,328,74387,2,0,B|312:352|264:312|192:312,1,180
120,312,74899,1,0
64,256,75069,1,0
216,192,75410,1,0
368,128,75751,1,0
440,248,76433,5,0
368,216,76604,1,0
368,136,76774,1,0
296,104,76945,1,2
224,136,77115,1,0
88,64,77456,5,0
40,128,77627,1,0
88,192,77797,2,0,B|96:240|64:264|144:312|200:264,1,180
256,208,78309,1,2
456,288,78650,5,0
408,224,78820,1,0
360,160,78991,1,0
432,128,79161,2,0,B|400:56|304:56|264:120,1,180
256,168,79673,1,2
232,240,79843,2,0,B|224:320|96:328|72:264|72:160,1,270
168,72,81037,1,2
464,328,81719,6,0,B|408:344|352:312,1,90
304,288,82060,1,0
232,328,82230,2,0,B|176:344|120:312,1,90
72,288,82572,1,0
168,152,82913,2,0,B|264:192|360:144,1,180
256,72,83595,1,0
256,248,83936,1,0
48,328,84447,6,0,B|104:344|160:312,1,90
208,288,84788,1,0
280,328,84959,2,0,B|336:344|392:312,1,90
440,288,85300,1,0
440,208,85470,1,0
440,128,85641,1,0
368,168,85811,1,0
320,232,85982,1,4
184,144,86323,1,0
48,56,86664,1,4
56,272,87346,5,0
112,328,87516,1,0
184,304,87687,1,0
264,304,87857,2,2,B|336:280|392:344|456:296,1,180
336,192,88539,1,0
256,192,88710,1,2
176,192,88880,1,0
448,64,89221,6,2,B|360:40|328:88|256:88,1,180
200,56,89733,1,0
120,72,89903,1,0
72,136,90074,6,2,B|40:224|80:328,1,180
151,312,90585,2,2,B|117:224|149:136,1,180
224,160,91097,1,0
288,304,91438,1,0
368,288,91608,1,0
464,160,91949,2,0,B|452:64|320:54,1,180
256,40,92461,1,4
176,56,92631,1,0
208,128,92802,5,0
136,168,92972,1,0
56,168,93143,1,0
104,320,93484,1,0
256,272,93825,1,0
304,128,94166,5,0
376,168,94336,1,0
456,168,94507,1,0
408,320,94848,1,0
256,272,95189,1,0
128,320,95530,5,0
128,64,95871,1,0
384,64,96212,1,0
384,320,96553,1,0
152,240,96894,5,2
360,240,97235,1,2
256,80,97576,1,2
456,112,98258,5,0
400,56,98428,1,0
328,80,98599,1,0
248,80,98769,2,2,B|176:104|120:40|56:88,1,180
336,208,99451,5,0
256,192,99621,1,2
176,208,99792,1,0
104,248,99963,1,0
64,320,100133,2,2,B|152:344|184:296|256:296,1,180
312,328,100645,1,0
392,312,100815,1,0
440,248,100986,6,2,B|472:160|432:56,1,180
360,71,101497,2,2,B|395:160|363:248,1,180
288,224,102009,1,0
272,144,102179,1,0
224,80,102350,1,0
144,96,102520,1,0
48,224,102861,2,0,B|60:320|192:330,1,180
256,344,103373,1,4
336,328,103543,1,0
448,192,103714,5,0
416,120,103884,1,2
288,120,104225,1,0
256,192,104396,1,0
224,264,104567,1,2
96,264,104907,1,0
72,192,105078,5,2
256,192,105419,1,0
448,192,105760,1,2
256,192,106101,12,6,109170
