osu file format v5

[General]
AudioFilename: 12 - Last Love LetterAlbum ver..mp3
AudioLeadIn: 0
PreviewTime: 148888
Countdown: 1
SampleSet: Normal
StackLeniency: 0.7
Mode: 0
LetterboxInBreaks: 0
StoryFireInFront: 0
EditorBookmarks: 21758,28917,43223,48592,50382,51053,51724,52395,53066,53737,55974,68055,69621,70292,70516,79011,86176,93373,100717,113086,120698,150675,155600,165014,166255
EditorDistanceSpacing: 0.899999976158142

[Metadata]
Title:Last Love Letter(Album Ver.)
Artist:Chatmonchy
Creator:Skyripper
Version:Hard
Source:
Tags:

[Difficulty]
HPDrainRate:7
CircleSize:5
OverallDifficulty:7
SliderMultiplier:1.6
SliderTickRate:2

[Events]
//Background and Video events
0,0,"background.png"
//Break Periods
2,42313,47165
2,78992,84736
2,106782,111634
2,143498,147845
//Storyboard Layer 0 (Background)
//Storyboard Layer 1 (Failing)
//Storyboard Layer 2 (Passing)
//Storyboard Layer 3 (Foreground)
//Storyboard Sound Samples
//Background Colour Transformations
3,100,163,162,255

[TimingPoints]
7407,447.761194029851,4,1,0,100,1,0
34390,-200,4,1,0,100,0,0
35174,-100,4,1,0,100,0,0
41554,-200,4,1,0,100,0,0
42337,-100,4,1,0,100,0,0
50276,-100,4,1,0,100,0,0
79445.223929982,-100,4,1,0,100,0,0
85718,-100,4,1,0,100,0,0
100493,-100,4,1,0,100,0,0
105751,-200,4,1,0,100,0,0
107642,-100,4,1,0,100,0,0
114206,-100,4,1,0,100,0,0
114869,-100,4,1,0,100,0,1
126622,-100,4,1,0,100,0,0
129196,-100,4,1,0,100,0,1

[Colours]
Combo1 : 215,215,215
Combo2 : 146,219,254
Combo3 : 132,132,255
Combo4 : 253,153,153

[HitObjects]
56,192,21735,2,0,L|112:120|136:176,1,120
128,256,22407,1,2
344,256,23078,1,0
200,256,23526,1,0
344,256,23974,2,0,L|424:256,1,80,0|2
272,256,24645,1,4
136,72,25317,6,0,B|192:120|264:56,2,120,0|0|2
136,288,26660,2,0,B|136:112,1,160
336,216,27780,1,2
40,336,28899,5,0
40,264,29123,1,0
40,192,29347,1,2
88,136,29571,1,2
136,192,29795,5,0
136,264,30018,1,0
136,336,30242,1,2
200,376,30466,1,2
264,336,30690,5,0
264,264,30914,1,0
264,192,31138,1,0
312,136,31362,1,2
480,64,32257,5,0
480,136,32481,1,0
480,208,32705,1,0
416,176,32929,1,2
416,104,33153,1,0
352,136,33377,1,4
136,96,34048,5,0
136,168,34272,1,0
200,136,34496,2,0,B|288:136,1,80,0|4
56,320,36287,5,2
128,320,36511,1,0
96,256,36735,1,0
96,184,36959,1,2
136,128,37183,1,0
56,128,37407,1,0
96,72,37630,1,0
168,72,37854,2,0,B|272:72,1,80,2|0
248,144,38302,2,0,B|248:248,1,80,2|2
472,264,39645,6,0,B|472:352,1,80
400,344,40093,1,2
328,344,40317,1,0
176,96,41212,5,0
248,96,41436,1,2
248,168,41660,2,0,B|248:256,1,80,2|4
56,344,48601,5,4
200,344,49048,1,0
344,344,49496,1,0
344,232,49832,2,6,L|344:184,1,40
296,136,50168,1,4
224,136,50392,6,0,B|136:136,1,80
144,216,50839,2,0,B|144:128,1,80
144,64,51287,1,0
72,64,51511,1,0
72,136,51735,1,0
288,136,52407,5,0
432,296,53078,2,0,B|312:328|176:304,1,240
120,304,53974,5,0
72,248,54198,1,0
72,176,54421,1,8
144,192,54645,1,0
216,200,54869,1,0
272,152,55093,1,0
320,200,55317,1,8
272,248,55541,1,0
216,296,55765,1,4
280,328,55989,1,4
336,280,56212,1,4
160,144,56660,5,0
216,104,56884,1,0
272,152,57108,2,0,B|304:72|352:104,1,80
392,96,57556,6,0,B|392:288,1,160
392,328,58227,2,0,B|200:328,1,160
232,256,58899,2,0,B|232:80,1,160
160,96,59571,1,0
160,344,60242,1,0
160,208,60690,1,0
184,64,61138,6,0,L|264:32|248:128|328:112|296:192|376:192|352:264,1,480
224,288,62929,5,0
152,160,63377,1,0
40,72,63824,1,0
176,32,64272,1,0
240,56,64496,1,0
304,32,64720,6,0,B|448:160,1,160
472,184,65392,2,0,B|336:312,1,160
312,240,66063,2,0,B|192:112,1,160
128,128,66735,1,0
264,288,67407,1,0
64,232,68078,6,0,L|96:136|160:184|192:112|264:160|272:96|344:152|384:104,1,560
416,248,70093,1,0
352,280,70317,1,4
288,320,70541,1,4
200,208,70989,5,0
152,152,71212,1,0
200,208,71436,1,0
224,136,71660,1,0
272,192,71884,6,0,L|424:104,1,160
440,176,72556,2,0,L|280:272,1,160
344,320,73227,2,0,L|504:224,1,160
488,312,73899,1,0
272,320,74571,1,0
120,200,75018,1,0
216,96,75466,6,0,B|312:16|488:208|320:352,1,400
264,320,76809,1,0
216,272,77033,1,0
216,272,77145,1,0
216,272,77257,1,0
152,232,77481,1,0
88,264,77705,1,0
352,144,78601,6,0,B|416:208,1,80,4|0
144,72,86212,5,0
248,96,86548,1,0
216,200,86884,1,0
432,184,87556,1,0
376,320,88004,5,2
304,320,88227,1,2
232,312,88451,1,0
168,344,88675,1,2
80,232,89123,1,2
240,88,89795,5,0
384,104,90242,1,0
336,160,90466,1,2
128,232,91138,1,0
264,288,91586,1,0
456,192,92257,1,6
104,104,93377,5,0
56,160,93601,1,0
112,200,93824,1,0
160,152,94048,1,0
200,208,94272,1,0
256,168,94496,1,0
288,232,94720,1,0
344,184,94944,1,0
376,248,95168,5,0
424,192,95392,1,0
392,128,95615,1,0
320,112,95839,1,0
368,64,96063,1,0
440,80,96287,1,0
472,144,96511,1,0
496,208,96735,1,0
496,208,96847,1,0
496,208,96959,5,0
440,256,97183,1,0
368,280,97406,1,0
416,336,97630,1,0
344,344,97854,1,0
288,296,98078,1,0
312,224,98302,1,0
384,208,98526,1,0
336,152,98750,6,2,B|240:112,1,80
144,40,99421,1,4
88,296,100765,6,0,B|184:288,1,80
160,216,101212,2,0,B|256:208,1,80,2|0
248,280,101660,1,0
320,272,101884,1,0
312,200,102108,1,0
384,192,102332,2,2,B|368:104,1,80
224,136,103004,1,2
456,304,103899,5,0
456,232,104123,2,0,B|352:248,1,80
360,176,104571,2,0,B|448:160,1,80,0|2
472,96,105018,2,0,B|368:96,1,80
320,96,105466,2,0,B|232:144,1,80
248,208,105914,2,2,B|248:280,1,40
128,288,106586,1,4
88,56,113078,5,4
232,56,113526,1,4
136,168,113974,1,4
280,160,114421,1,4
280,232,114645,1,0
280,304,114869,6,0,B|392:280|328:152,1,160
400,144,115541,2,0,B|376:32|248:96,1,160
264,8,116212,2,0,B|152:32|216:160,1,160
128,144,116884,1,0
40,224,117556,1,0
232,312,118227,5,0
248,240,118451,1,0
304,288,118675,1,0
320,224,118899,1,8
376,272,119123,1,0
392,200,119347,1,0
440,248,119571,1,0
456,176,119795,1,8
432,104,120018,1,0
384,48,120242,1,4
312,48,120466,1,4
240,72,120690,1,4
112,136,121138,6,0,B|80:216,1,80
144,248,121586,2,0,B|224:280,1,80
248,216,122033,6,0,B|312:136|384:224,1,160
384,288,122705,2,0,B|320:368|248:280,1,160
248,216,123377,2,0,B|312:136|384:224,1,160
448,208,124048,1,2
280,64,124720,1,0
152,128,125168,1,0
64,240,125615,1,0
120,280,125839,5,0
184,248,126063,1,8
248,280,126287,1,0
312,248,126511,1,0
376,280,126735,1,0
440,248,126959,1,8
440,104,127406,6,0,B|264:16,1,160
256,168,128302,1,0
120,128,128750,1,0
88,192,128974,1,0
136,240,129198,5,4
344,296,129869,1,4
464,112,130541,1,4
256,56,131212,1,2
384,232,131884,1,0
176,168,132556,1,0
248,168,132780,5,0
208,232,133004,1,0
280,248,133227,1,2
232,304,133451,1,0
304,320,133675,1,0
376,304,133899,1,0
448,304,134123,1,2
416,240,134347,1,0
448,176,134571,1,4
392,128,134795,1,4
456,96,135018,1,4
320,48,135466,6,0,L|240:136,1,80
200,72,135914,2,0,L|136:152,1,80
104,192,136362,5,6
216,272,136809,1,0
264,216,137033,1,4
392,280,137481,1,0
440,224,137705,1,4
384,88,138153,1,0
320,56,138377,2,2,L|176:144,1,160,0|0
120,176,139048,1,0
232,264,139496,1,0
256,192,139944,12,0,142406
408,88,143078,5,4
448,144,143302,1,0
80,72,148899,5,4
128,120,149123,1,4
176,168,149347,1,4
224,216,149571,1,4
272,168,149795,5,0
328,216,150018,1,0
384,264,150242,1,0
440,312,150466,1,0
456,240,150690,5,0
400,192,150914,1,0
344,144,151138,1,0
288,96,151362,1,0
216,96,151586,5,4
216,168,151809,1,0
216,240,152033,1,0
216,312,152257,1,0
152,272,152481,6,0,L|80:224,1,80
24,184,152929,2,0,L|80:104,1,80
112,64,153377,2,0,L|184:120,1,80
216,56,153824,1,0
272,96,154048,2,0,L|464:240,1,240
432,304,154944,5,0
368,272,155168,1,0
304,312,155392,1,0
256,256,155615,1,0
184,232,155839,1,0
168,160,156063,6,0,B|176:72,1,80
320,88,156735,1,0
384,216,157183,1,0
456,216,157406,1,0
424,280,157630,1,0
368,320,157854,1,0
296,296,158078,1,0
256,192,158526,12,0,160317
80,48,160765,6,0,B|80:232,1,160
352,120,162108,1,0
248,224,162556,1,0
248,152,162780,1,0
144,192,163115,1,4
384,264,163899,5,0
248,224,164347,1,0
248,296,164571,1,0
144,264,165018,1,4
