osu file format v9

[General]
AudioFilename: Chata step of cloud.mp3
AudioLeadIn: 0
PreviewTime: 79600
Countdown: 0
SampleSet: Soft
StackLeniency: 0.7
Mode: 0
LetterboxInBreaks: 0

[Editor]
DistanceSpacing: 1.2
BeatDivisor: 4
GridSize: 4

[Metadata]
Title:step of cloud
Artist:Chata
Creator:hoLysoup
Version:Hard
Source:sola
Tags:chatanowa image song koyori ishizuki oratorio

[Difficulty]
HPDrainRate:6
CircleSize:5
OverallDifficulty:6
ApproachRate:7
SliderMultiplier:1.4
SliderTickRate:2

[Events]
//Background and Video events
0,0,"BG.jpg"
//Break Periods
//Storyboard Layer 0 (Background)
//Storyboard Layer 1 (Fail)
//Storyboard Layer 2 (Pass)
//Storyboard Layer 3 (Foreground)
//Storyboard Sound Samples
//Background Colour Transformations
3,100,163,162,255

[TimingPoints]
911,500,4,2,0,70,1,0
8286,-100,4,2,1,40,0,0
12661,-100,4,2,2,40,0,0
20036,-100,4,2,1,30,0,0
20536,-100,4,2,2,40,0,0
52286,-100,4,2,1,40,0,0
52786,-100,4,2,1,55,0,0
64786,-100,4,2,1,45,0,0
67286,-100,4,2,1,50,0,0
80911,-100,4,2,1,55,0,1
108911,-100,4,2,2,40,0,0

[Colours]
Combo1 : 248,211,171
Combo2 : 172,251,202
Combo3 : 175,210,254
Combo4 : 249,244,187
Combo5 : 240,81,81

[HitObjects]
304,84,8411,2,0,B|240:112|168:104,1,140,8|4
108,172,9161,1,0
108,172,9411,1,8
108,172,9661,2,0,B|160:212|176:296,1,140,10|0
268,316,10411,1,8
268,316,10661,2,0,B|300:248|376:212,1,140,4|0
396,140,11411,1,10
328,88,11661,1,0
296,168,11911,1,4
256,328,12911,6,0,B|188:352|116:328,1,140,4|0
76,256,13661,1,0
120,184,13911,1,8
120,184,14161,1,0
372,84,14661,5,0
372,84,14911,2,0,B|404:116|404:184|372:212,1,140,2|0
288,212,15661,2,0,B|212:212,2,70,0|8|8
192,72,16661,5,0
112,108,16911,2,0,B|64:164|88:240,1,140,2|0
87,239,17661,1,0
152,296,17911,1,8
152,296,18161,1,0
228,260,18411,2,0,B|300:260,2,70,0|10|0
160,136,19161,6,0,B|124:136,2,35,2|0|2
244,136,19661,2,0,B|280:168|280:232|248:264,1,140,2|8
196,328,20411,2,0,B|160:296|160:232|192:200,1,140,10|4
348,88,21411,5,0
348,88,21661,2,0,B|324:64|316:28,2,70,2|8|0
440,228,22661,1,0
440,228,22911,2,0,B|428:300|356:332,1,140,2|0
276,308,23661,2,0,B|219:261|227:183,1,140
284,120,24411,2,0,B|352:94|416:140,2,140,0|2|0
284,120,25661,1,0
216,72,25911,1,8
216,72,26161,1,8
88,128,26661,5,0
88,128,26911,2,0,B|48:156|48:220|84:252,1,140,2|0
168,252,27661,2,0,B|196:264|236:252|236:252|272:240|308:252,2,140
84,252,28911,2,0,B|48:220|48:156|88:128,1,140,2|0
172,132,29661,1,0
172,132,29911,2,0,B|212:68,1,70,8|0
272,128,30411,2,0,B|332:84,1,70
368,160,30911,6,0,B|384:232|448:284,1,140,2|0
380,336,31661,1,0
380,336,31911,2,0,B|308:336|240:360,1,140,8|0
176,308,32661,1,0
176,308,32911,2,0,B|212:248|216:176,2,140,2|0|10
92,300,34161,1,8
64,220,34411,1,0
132,168,34661,1,0
132,168,34911,5,0
304,288,35161,1,10
304,288,35661,1,0
132,168,35911,2,0,B|96:228|112:304,2,140,10|0|4
308,48,37411,5,0
368,104,37661,1,0
308,160,37911,1,8
308,160,38161,2,0,B|320:228|356:300,1,140
276,332,38911,6,0,B|204:332|136:356,1,140,2|0
76,300,39661,2,0,B|56:232|52:160,2,140
136,192,40911,2,0,B|204:180|284:180,1,140,2|0
344,224,41661,2,0,B|380:232|412:232,2,70,0|8|8
268,76,42661,5,0
196,120,42911,2,0,B|224:184|216:260,1,140,2|0
280,312,43661,2,0,B|316:328|348:332,1,70,0|8
412,280,44161,2,0,B|440:260|476:256,2,70,8|0|8
340,180,44911,6,0,B|336:140|320:112,1,70,2|0
252,164,45411,2,0,B|240:128|212:108,1,70
168,180,45911,2,0,B|136:152|100:148,1,70,8|0
100,232,46411,1,0
100,232,46661,6,0,B|116:304|108:376,2,140
112,92,47911,1,8
188,240,48161,1,8
64,160,48411,1,0
196,100,48661,1,0
148,168,48911,1,2
328,308,49661,5,0
328,308,49911,1,8
328,308,50161,1,0
404,104,50911,5,0
212,144,51161,1,10
212,144,51661,1,0
404,104,51911,2,0,B|404:176|440:248,1,140,10|8
376,336,52661,1,0
288,264,52911,6,0,B|256:224|192:224|164:264,1,140,4|0
104,316,53661,2,0,B|136:356|200:356|228:316,2,140,8|0|0
40,264,54911,5,2
104,208,55161,1,8
44,152,55411,1,2
104,96,55661,2,0,B|130:58|194:58|226:98,1,140,8|0
276,164,56411,1,8
360,164,56661,1,0
408,104,56911,6,0,B|368:136|368:200|405:226,1,140,2|0
460,292,57661,2,0,B|500:260|500:196|462:169,2,140,8|0|0
396,344,58911,6,0,B|364:360|328:364,1,70,2|8
276,296,59411,2,0,B|240:300|206:291,2,70,2|8|8
320,224,60161,2,0,B|352:208|386:204,1,70,0|8
268,88,60911,6,0,B|236:72|200:88|200:88|164:104|128:88,1,140,2|2
72,32,61661,1,0
16,92,61911,1,8
72,152,62161,1,0
236,180,62661,5,0
236,180,62911,2,0,B|276:180|276:180|336:196|336:196|384:196,1,140,10|2
372,264,63661,2,0,B|332:264|332:264|272:248|272:248|234:248,1,140,10|2
234,248,64411,1,8
164,272,64661,1,0
164,272,64911,6,0,B|96:228|96:136|164:98,1,210,4|8
163,98,65911,1,8
347,98,66411,2,0,B|416:136|416:228|348:272,1,210,4|8
349,271,67411,5,8
349,271,67661,1,0
288,328,67911,1,8
288,328,68161,1,0
224,272,68411,1,8
224,272,68661,1,0
164,332,68911,6,0,B|108:336|64:296|64:240,1,140,4|0
163,89,69661,2,0,B|107:85|63:125|64:168,1,140,8|0
176,256,70411,1,0
176,256,70661,2,0,B|136:256|116:208|136:164|184:164,1,140,2|0
256,168,71411,1,8
256,168,71661,2,0,B|298:167|318:211|298:259|258:259,1,140,0|8
264,340,72411,2,0,B|320:344|364:304|364:248,1,140,8|4
364,92,73411,5,0
364,92,73661,2,0,B|216:92,1,140,8|8
152,160,74411,2,0,B|376:160,1,210,4|8
436,204,75411,5,8
436,204,75661,1,0
364,248,75911,1,8
364,248,76161,1,0
436,288,76411,1,8
436,288,76661,1,0
364,336,76911,6,0,B|328:344|292:340,1,70,4|0
220,300,77411,2,0,B|180:288|140:288,1,70,2|0
76,328,77911,2,0,B|40:316|16:288,2,70,8|0|2
84,240,78661,2,0,B|56:172|60:100,1,140
152,68,79411,1,8
160,160,79661,6,0,B|232:160|304:136,1,140,8|0
340,60,80411,1,8
420,88,80661,1,0
420,172,80911,6,0,B|408:240|420:316,1,140,6|0
344,348,81661,1,0
268,312,81911,2,0,B|248:280|244:244,2,70,10|0|0
304,188,82661,1,0
368,244,82911,2,0,B|436:228|496:184,1,140,2|0
480,96,83661,2,0,B|416:64|344:56,1,140
216,152,84411,1,0
248,76,84661,1,0
320,120,84911,6,0,B|364:176|392:244,1,140,2|0
320,328,85661,1,0
320,328,85911,2,0,B|292:348|248:344,1,70,10|0
200,280,86411,2,0,B|228:260|272:264,1,70
172,352,86911,2,0,B|104:336|44:272,1,140,2|0
112,220,87661,2,0,B|128:188|132:152,1,70,0|10
52,124,88161,2,0,B|32:92|28:56,2,70
144,72,88911,6,0,B|216:52|288:56,1,140,2|0
372,180,89661,2,0,B|408:168|432:140,1,70,0|10
420,60,90161,2,0,B|384:72|360:100,1,70
244,148,90661,1,0
244,148,90911,2,0,B|200:208|216:288,1,140,2|0
372,340,91661,2,0,B|416:280|400:200,1,140
428,128,92411,1,0
368,68,92661,1,0
292,104,92911,6,0,B|252:124|196:92|148:112,2,140,2|0|10
424,132,94161,1,0
436,216,94411,1,0
368,260,94661,1,0
368,260,94911,6,0,B|308:296|232:296,1,140,4|8
144,124,95661,2,0,B|204:88|280:88,1,140,10|8
360,64,96411,1,8
416,124,96661,1,0
416,124,96786,1,0
416,124,96911,6,0,B|432:192|428:264,1,140,4|0
364,316,97661,1,0
288,280,97911,2,0,B|268:312|236:332,2,70,10|0|0
316,200,98661,1,0
316,200,98911,2,0,B|260:152|236:84,1,140,2|0
160,48,99661,2,0,B|132:68|96:80,1,70,0|10
56,152,100161,1,0
108,220,100411,1,0
180,172,100661,1,0
180,172,100911,6,0,B|248:148|324:144,1,140,2|0
472,208,101661,2,0,B|404:232|328:236,1,140,8|0
392,152,102411,2,0,B|400:116|400:84,1,70,8|0
244,240,102911,2,0,B|236:276|236:308,2,70,4|0|8
51,203,103661,2,0,B|124:200|188:176,1,140,8|0
240,112,104411,2,0,B|276:116|312:132,1,70,8|0
368,188,104911,6,0,B|436:164|476:104,1,140,4|8
468,244,105661,2,0,B|400:268|360:328,1,140,4|0
284,288,106411,1,8
216,240,106661,2,0,B|175:300|107:324,1,140,4|0
104,200,107411,1,8
104,200,107661,2,0,B|144:139|212:115,1,140,2|0
324,200,108411,2,0,B|292:204|256:192,1,70,0|0
256,192,108911,5,4
256,192,109161,12,4,112911
