osu file format v14

[General]
AudioFilename: audio.mp3
AudioLeadIn: 0
PreviewTime: 176401
Countdown: 0
SampleSet: Soft
StackLeniency: 0.7
Mode: 0
LetterboxInBreaks: 0
WidescreenStoryboard: 0

[Editor]
DistanceSpacing: 1.1
BeatDivisor: 4
GridSize: 4
TimelineZoom: 2.5

[Metadata]
Title:ennb~fuchi~
TitleUnicode:ennb~淵火~
Artist:Chata
ArtistUnicode:茶太
Creator:YoonA-
Version:Fuchi
Source:東方神霊廟 ~ Ten Desires.
Tags:東方Project
BeatmapID:1469694
BeatmapSetID:694734

[Difficulty]
HPDrainRate:6.5
CircleSize:4
OverallDifficulty:8.5
ApproachRate:9.8
SliderMultiplier:1.6
SliderTickRate:1

[Events]
//Background and Video events
0,0,"12222.png",0,0
//Break Periods
//Storyboard Layer 0 (Background)
//Storyboard Layer 1 (Fail)
//Storyboard Layer 2 (Pass)
//Storyboard Layer 3 (Foreground)
//Storyboard Sound Samples

[TimingPoints]
304,243.90243902439,4,2,0,100,1,0
23596,-100,4,2,0,5,0,0
27864,-100,4,2,0,25,0,0
27964,-100,4,2,0,75,0,0
28596,-100,4,2,0,75,0,0
76645,-181.818181818181,4,2,0,75,0,0
87133,-200,4,2,0,75,0,0
88108,-133.333333333333,4,2,0,75,0,0
89572,-100,4,2,0,75,0,0
91035,-100,4,2,0,75,0,0

[Colours]
Combo1 : 255,255,128
Combo2 : 255,190,159
Combo3 : 255,125,125

[HitObjects]
256,192,23596,12,0,27864,0:0:0:0:
355,261,27986,5,2,0:0:0:0:
355,261,28068,1,2,0:0:0:0:
355,261,28149,1,2,0:0:0:0:
355,261,28230,1,2,0:0:0:0:
113,137,28596,6,0,P|148:120|187:126,1,80
338,56,28840,2,0,P|302:73|263:67,1,80,2|0,0:0|0:0,0:0:0:0:
185,25,29084,2,0,L|205:183,1,160,4|0,0:0|0:0,0:0:0:0:
311,294,29450,2,0,B|271:256|271:256|230:296|173:273,1,160
156,351,29816,6,0,P|191:368|230:361,1,80
317,194,30060,2,0,P|281:176|242:183,1,80
431,362,30303,2,0,B|447:321|447:321|438:286,1,80
207,128,30547,2,0,L|365:148,1,160
435,104,30913,1,0,0:0:0:0:
280,248,31035,2,0,P|255:217|253:177,1,80,8|0,0:0|0:0,0:0:0:0:
376,38,31279,1,0,0:0:0:0:
435,104,31401,6,0,L|428:191,1,80,0|8,0:0|0:0,0:0:0:0:
214,307,31645,1,0,0:0:0:0:
280,248,31767,2,0,L|359:254,1,80
267,144,32011,1,8,0:0:0:0:
124,285,32133,1,8,0:0:0:0:
313,346,32255,1,0,0:0:0:0:
236,245,32377,1,0,0:0:0:0:
93,361,32499,6,0,L|84:201,1,160
136,108,32864,1,0,0:0:0:0:
200,312,32986,2,0,P|164:330|125:329,1,80
48,260,33230,1,0,0:0:0:0:
103,171,33352,2,0,P|138:153|177:153,1,80
408,196,33596,1,0,0:0:0:0:
334,321,33718,2,0,L|327:241,1,80
204,109,33962,2,0,L|211:189,1,80
221,331,34206,2,0,B|183:346|183:346|144:337,1,80
134,194,34450,6,0,B|172:179|172:179|210:188,1,80,4|0,0:0|0:0,0:0:0:0:
288,268,34694,1,0,0:0:0:0:
94,280,34816,1,0,0:0:0:0:
288,268,34938,2,0,L|128:258,1,160,4|0,0:0|0:0,0:0:0:0:
33,130,35303,2,0,P|27:168|48:202,1,80,4|0,0:0|0:0,0:0:0:0:
279,69,35547,5,0,0:0:0:0:
252,214,35669,1,4,0:0:0:0:
407,145,35791,1,0,0:0:0:0:
183,95,35913,5,4,0:0:0:0:
216,334,36035,1,4,0:0:0:0:
241,171,36157,1,4,0:0:0:0:
117,259,36279,1,4,0:0:0:0:
313,359,36401,6,0,B|388:324|388:386|467:350,1,160
467,349,36767,1,0,0:0:0:0:
487,154,36889,2,0,P|416:179|415:254,1,160
467,349,37255,1,0,0:0:0:0:
332,104,37377,6,0,B|291:93|291:93|253:99,1,80
180,338,37621,2,0,B|221:349|221:349|258:342,1,80
121,153,37864,2,0,B|110:194|110:194|116:231,1,80
376,282,38108,2,0,B|392:241|392:241|383:206,1,80
207,128,38352,6,0,L|365:148,1,160,8|0,0:0|0:0,0:0:0:0:
435,104,38718,1,0,0:0:0:0:
280,248,38840,2,0,P|255:217|253:177,1,80,8|0,0:0|0:0,0:0:0:0:
376,38,39084,1,0,0:0:0:0:
435,104,39206,6,0,L|428:191,1,80,0|8,0:0|0:0,0:0:0:0:
282,131,39450,1,0,0:0:0:0:
348,190,39572,2,0,L|435:183,1,80
282,131,39816,1,8,0:0:0:0:
309,305,39938,1,8,0:0:0:0:
211,227,40060,1,8,0:0:0:0:
385,199,40182,1,8,0:0:0:0:
180,124,40303,6,0,L|186:203,1,80,8|0,0:0|0:0,0:0:0:0:
309,305,40547,1,0,0:0:0:0:
109,200,40669,1,0,0:0:0:0:
123,368,40791,2,0,L|117:289,1,80
109,200,41035,1,0,0:0:0:0:
272,296,41157,6,0,L|192:289,1,80
259,138,41401,1,0,0:0:0:0:
259,138,41523,2,0,P|277:174|276:213,1,80
209,364,41767,2,0,P|191:328|192:289,1,80
259,138,42011,2,0,B|297:123|297:123|336:132,1,80
209,364,42255,6,0,B|171:373|171:373|133:358,1,80,4|0,0:0|0:0,0:0:0:0:
52,324,42499,1,0,0:0:0:0:
318,177,42621,1,0,0:0:0:0:
325,337,42743,2,0,L|321:257,1,80,4|0,0:0|0:0,0:0:0:0:
219,170,42987,1,0,0:0:0:0:
358,35,43108,6,0,P|370:72|363:111,1,80,0|4,0:0|0:0,0:0:0:0:
318,177,43352,1,0,0:0:0:0:
264,311,43474,2,0,P|251:273|258:234,1,80
318,177,43718,1,4,0:0:0:0:
164,348,43840,1,4,0:0:0:0:
230,184,43962,1,4,0:0:0:0:
343,325,44084,1,4,0:0:0:0:
123,271,44206,6,0,B|198:236|198:298|277:262,1,160
385,240,44572,1,0,0:0:0:0:
327,144,44694,2,0,P|265:186|277:261,1,160
385,240,45060,1,0,0:0:0:0:
255,108,45182,6,0,B|215:99|215:99|177:108,1,80
123,195,45425,2,0,L|140:356,1,160
209,278,45791,1,0,0:0:0:0:
56,258,45913,2,0,P|31:228|27:189,1,80
187,127,46157,2,0,P|212:157|216:196,1,80
142,56,46401,2,0,B|218:23|225:80|297:52,1,160
252,205,46767,1,0,0:0:0:0:
187,127,46889,6,0,L|197:286,1,160
382,363,47255,1,0,0:0:0:0:
433,286,47377,2,0,P|445:249|442:209,1,80
346,145,47621,2,0,P|307:153|274:175,1,80
302,299,47864,2,0,L|352:236,1,80
266,45,48108,6,0,B|184:17|183:62|108:42,1,160
21,112,48474,1,0,0:0:0:0:
226,196,48596,2,0,P|231:156|221:118,1,80
65,204,48840,2,0,P|59:243|70:281,1,80
215,355,49084,6,0,L|225:196,1,160
234,76,49450,1,0,0:0:0:0:
327,272,49572,2,0,L|423:263,1,80
191,146,49816,2,0,L|95:155,1,80
277,353,50060,6,0,L|295:176,1,160
191,146,50426,1,0,0:0:0:0:
293,193,50547,1,0,0:0:0:0:
168,136,50669,1,0,0:0:0:0:
264,20,50791,2,0,P|278:56|273:96,1,80
240,256,51035,5,0,0:0:0:0:
191,146,51157,1,4,0:0:0:0:
128,332,51279,1,4,0:0:0:0:
240,256,51401,1,0,0:0:0:0:
256,244,51462,1,0,0:0:0:0:
272,232,51523,2,0,L|360:244,1,80
128,332,51767,1,4,0:0:0:0:
52,244,51889,1,0,0:0:0:0:
40,228,51950,1,0,0:0:0:0:
28,212,52011,6,0,L|40:124,1,80
244,80,52255,2,0,B|256:120|256:120|241:155,1,80
296,240,52499,1,0,0:0:0:0:
164,220,52621,1,0,0:0:0:0:
252,350,52743,2,0,L|162:337,1,80
64,256,52986,6,0,P|125:209|127:131,1,160
191,0,53352,2,0,P|237:61|315:63,1,160
404,220,53718,1,0,0:0:0:0:
432,96,53840,1,0,0:0:0:0:
211,313,53962,6,0,P|272:266|274:188,1,160
192,0,54328,2,0,P|130:46|128:124,1,160
103,242,54694,2,0,P|66:253|27:246,1,80
216,214,54938,6,0,P|214:291|152:338,1,160
187,104,55304,2,0,P|264:105|311:166,1,160
408,242,55669,2,0,P|448:249|487:246,1,80
354,66,55913,6,0,P|314:59|275:62,1,80
206,133,56157,2,0,P|209:172|206:212,1,80
129,277,56401,2,0,P|89:281|55:262,1,80
205,212,56645,2,0,P|228:243|229:283,1,80
112,178,56889,6,0,P|127:141|161:121,1,80
308,293,57133,2,0,L|228:282,1,80
6,325,57377,2,0,L|54:261,1,80
130,47,57621,2,0,L|160:120,1,80
204,205,57864,5,0,0:0:0:0:
266,125,57986,1,0,0:0:0:0:
234,278,58108,2,0,L|204:205,1,80
160,120,58352,1,0,0:0:0:0:
26,242,58474,2,0,L|99:212,1,80
266,125,58718,1,0,0:0:0:0:
376,261,58840,6,0,L|303:231,1,80
216,43,59084,1,0,0:0:0:0:
183,326,59206,2,0,L|194:246,1,80
194,246,59389,1,0,0:0:0:0:
194,246,59450,1,0,0:0:0:0:
288,300,59572,1,0,0:0:0:0:
240,152,59694,1,2,0:0:0:0:
240,152,59755,1,2,0:0:0:0:
240,152,59816,6,0,B|158:124|157:169|82:149,1,160
300,64,60182,1,0,0:0:0:0:
364,196,60303,2,0,P|403:196|443:192,1,80
476,28,60547,2,0,P|436:23|396:23,1,80
276,288,60791,6,0,B|292:232|260:232|272:169,1,120
280,139,61035,2,0,P|354:127|390:193,1,160
276,288,61401,1,0,0:0:0:0:
275,288,61523,2,0,P|235:288|195:284,1,80
63,359,61767,6,0,P|50:322|47:282,1,80
168,112,62011,2,0,P|163:184|91:185,1,160
232,312,62377,1,0,0:0:0:0:
304,224,62499,6,0,B|368:220|368:220|404:232|404:232|461:228,1,160
427,66,62864,1,0,0:0:0:0:
209,102,62986,2,0,P|217:141|239:174,1,80
350,15,63230,2,0,P|313:3|273:6,1,80
372,192,63474,2,0,P|397:162|410:124,1,80
312,100,63718,6,0,L|324:272,1,160
184,120,64084,1,0,0:0:0:0:
132,230,64206,2,0,P|170:218|209:214,1,80
383,307,64450,2,0,P|371:270|368:230,1,80
207,371,64694,6,0,P|219:292|209:213,1,160
184,120,65060,1,0,0:0:0:0:
56,295,65182,2,0,P|95:289|135:284,1,80
372,205,65425,2,0,P|332:198|292:193,1,80
88,44,65669,2,0,B|69:94|69:94|89:202,1,160
191,146,66036,1,0,0:0:0:0:
293,193,66157,1,0,0:0:0:0:
168,136,66279,1,0,0:0:0:0:
268,52,66401,2,0,P|307:46|344:61,1,80
240,256,66645,5,0,0:0:0:0:
191,146,66767,1,4,0:0:0:0:
128,332,66889,1,4,0:0:0:0:
240,256,67011,1,0,0:0:0:0:
256,244,67072,1,0,0:0:0:0:
272,232,67133,2,0,L|360:244,1,80
128,332,67377,1,4,0:0:0:0:
216,172,67499,1,0,0:0:0:0:
232,160,67560,1,0,0:0:0:0:
248,148,67621,6,0,L|336:160,1,80
420,120,67864,1,0,0:0:0:0:
344,40,67986,1,0,0:0:0:0:
248,204,68108,1,0,0:0:0:0:
328,128,68230,1,0,0:0:0:0:
236,40,68352,2,0,L|244:132,1,80
258,355,68596,6,0,B|278:279|278:279|247:203,1,160
128,332,68962,2,0,P|179:285|122:247,1,160
8,304,69328,2,0,L|87:296,1,80
344,275,69572,6,0,B|280:283|280:283|248:275|248:275|185:282,1,160
56,128,69938,2,0,B|120:120|120:120|152:128|152:128|214:120,1,160
352,206,70303,1,0,0:0:0:0:
296,41,70425,1,0,0:0:0:0:
152,305,70547,6,0,L|136:145,1,160
360,305,70913,2,0,L|375:145,1,160
256,363,71279,1,0,0:0:0:0:
256,363,71401,1,0,0:0:0:0:
106,305,71523,6,0,P|88:269|89:229,1,80
256,192,71767,2,0,P|233:224|199:243,1,80
82,118,72011,2,0,P|121:120|155:141,1,80
262,362,72255,2,0,P|244:326|245:286,1,80
410,112,72499,6,0,P|387:144|353:163,1,80
102,272,72743,2,0,P|124:239|158:220,1,80
402,285,72986,2,0,P|362:282|328:262,1,80
109,98,73230,2,0,P|149:101|183:121,1,80
263,360,73474,5,0,0:0:0:0:
353,163,73596,1,0,0:0:0:0:
158,220,73718,1,0,0:0:0:0:
340,306,73840,1,0,0:0:0:0:
250,22,73962,2,0,P|267:57|266:97,1,80
206,173,74206,1,0,0:0:0:0:
108,49,74328,6,0,P|107:88|124:124,1,80
213,193,74572,1,0,0:0:0:0:
346,103,74694,2,0,L|266:96,1,80
53,252,74938,2,0,L|132:258,1,80
255,360,75182,1,0,0:0:0:0:
213,81,75425,5,0,0:0:0:0:
349,233,75547,2,0,P|289:182|212:192,1,160
256,347,75913,2,0,L|262:267,1,80
212,192,76157,1,0,0:0:0:0:
207,167,76645,6,0,P|169:147|125:148,1,88.000002685547
52,289,77133,2,0,P|49:267|47:245,1,44.0000013427735
127,363,77377,2,0,P|170:361|214:353,1,88.000002685547
292,288,77743,2,0,P|299:245|291:202,1,88.000002685547
183,131,78108,2,0,P|174:174|182:217,1,88.000002685547
362,74,78596,6,0,L|422:69,1,44.0000013427735
413,174,78840,2,0,L|464:181,1,44.0000013427735
406,290,79084,2,0,L|462:284,1,44.0000013427735
506,344,79328,5,0,0:0:0:0:
298,156,79450,2,0,L|303:199,1,44.0000013427735
240,304,79694,1,0,0:0:0:0:
164,194,79816,1,0,0:0:0:0:
354,279,79938,1,0,0:0:0:0:
240,304,80060,6,0,P|292:266|354:279,1,132.00000402832
478,367,80547,2,0,L|380:357,1,88.000002685547
354,279,80913,1,0,0:0:0:0:
470,218,81035,2,0,P|472:196|471:174,1,44.0000013427735
332,34,81279,6,0,B|326:68|326:68|340:87|340:87|333:116,2,88.000002685547
310,281,82133,1,0,0:0:0:0:
392,213,82255,2,0,L|479:222,1,88.000002685547
316,312,82621,1,0,0:0:0:0:
164,256,82743,1,0,0:0:0:0:
240,132,82864,2,0,B|253:148|253:148|259:178|251:214,1,88.000002685547
164,256,83230,6,0,L|120:253,1,44.0000013427735
200,344,83474,1,0,0:0:0:0:
72,224,83596,2,0,L|108:220,2,22.0000006713867
248,208,83840,1,0,0:0:0:0:
108,32,83962,6,0,P|93:95|121:154,1,132.00000402832
204,80,84450,2,0,B|232:72|232:72|290:79,1,88.000002685547
409,228,84816,2,0,L|405:180,2,44.0000013427735
285,381,85182,6,0,P|309:344|315:301,1,88.000002685547
216,194,85547,2,0,L|260:204,2,44.0000013427735
342,132,85913,2,0,P|358:91|355:47,2,88.000002685547
260,204,86523,5,0,0:0:0:0:
190,130,86645,1,0,0:0:0:0:
93,119,86767,1,0,0:0:0:0:
9,170,86889,1,0,0:0:0:0:
255,358,87133,6,0,B|208:248|304:248|259:125,1,240
259,126,88108,6,0,L|199:120,1,60.0000022888184
284,244,88352,1,0,0:0:0:0:
424,204,88474,1,0,0:0:0:0:
284,244,88596,2,0,L|343:249,1,60.0000022888184
206,187,88840,6,0,P|187:243|203:300,2,120.000004577637
284,244,89450,1,0,0:0:0:0:
55,299,89572,2,0,P|38:264|38:224,1,80
205,187,89816,2,0,P|182:219|147:238,1,80
32,112,90060,2,0,P|71:115|105:136,1,80
256,360,90303,1,0,0:0:0:0:
268,332,90547,5,0,0:0:0:0:
300,308,90629,1,0,0:0:0:0:
336,308,90710,1,0,0:0:0:0:
372,328,90791,1,0,0:0:0:0:
412,356,90873,1,0,0:0:0:0:
464,344,90954,1,0,0:0:0:0:
492,296,91035,6,0,P|508:218|494:139,1,160
