osu file format v12

[General]
AudioFilename: con~Mark~ (full Ver.).mp3
AudioLeadIn: 2000
PreviewTime: 99183
Countdown: 1
SampleSet: Soft
StackLeniency: 0.7
Mode: 0
LetterboxInBreaks: 1

[Editor]
DistanceSpacing: 1
BeatDivisor: 4
GridSize: 8

[Metadata]
Title:con~Mark~ (Full Ver.)
TitleUnicode:con~痕~ (Full Ver.)
Artist:Chata
ArtistUnicode:茶太
Creator:2sister
Version:Marathon
Source:Touhou
Tags:flandre scarlet syndrome sally U.N. Owen was Her?
BeatmapID:254203
BeatmapSetID:94447

[Difficulty]
HPDrainRate:7
CircleSize:4
OverallDifficulty:6
ApproachRate:8
SliderMultiplier:1.7
SliderTickRate:1

[Events]
//Background and Video events
0,0,"BG.jpg",0,0
//Break Periods
2,176932,178560
2,180681,182310
2,216775,217700
//Storyboard Layer 0 (Background)
//Storyboard Layer 1 (Fail)
//Storyboard Layer 2 (Pass)
//Storyboard Layer 3 (Foreground)
Sprite,Foreground,Centre,"SB\1.png",320,240 F,0,9183,9652,0,1 M,0,9183,16683,193,118,199,142 F,0,9652,16215,1 F,0,16215,16683,1,0
Sprite,Foreground,Centre,"SB\2.png",320,240 F,0,12933,13402,0,1 M,0,12933,16683,24,298,25,271 F,0,13402,16215,1 F,0,16215,16683,1,0
Sprite,Foreground,Centre,"SB\4.png",320,240 F,0,20668,21137,0,1 M,0,20668,24183,32,288,32,276 F,0,21137,,1 F,0,21137,23715,1 F,0,23715,24183,1,0
Sprite,Foreground,Centre,"SB\5.png",320,240 F,0,23012,23480,0,1 M,0,23012,24183,100,221 S,0,23012,24183,1,1.314487 F,0,23480,23715,1 F,0,23715,24183,1,0.006681671
Sprite,Foreground,Centre,"SB\6.png",320,240 F,0,24887,25355,0,1 M,0,24887,31918,186,148,169,148 F,0,25355,31449,1 F,0,31449,31918,1,0
Sprite,Foreground,Centre,"SB\7.png",320,240 F,0,24887,25355,0,1 M,0,24887,31918,172,361,197,361 F,0,25355,31449,1 F,0,31449,31918,1,0
Sprite,Foreground,Centre,"SB\8.png",320,240 M,0,32387,39418,36,177,33,204 F,0,38949,39418,1,0
Sprite,Foreground,Centre,"SB\9.png",320,240 M,0,32387,39418,120,317,120,294 F,0,38949,39418,1,0
Sprite,Foreground,Centre,"SB\5.png",320,240 F,0,38012,38480,0,1 M,0,38012,39418,62,360 R,0,38012,39418,0,-3.129528 F,0,38480,38949,1 F,0,38949,39418,1,0.04119857
Sprite,Foreground,Centre,"SB\13.png",320,240 F,0,41293,43637,0,1 M,0,41293,48324,92,99,92,65 F,0,43637,47387,1 F,0,47387,48324,1,0
Sprite,Foreground,Centre,"SB\11.png",320,240 M,0,45043,,90,168 F,0,45043,,0 F,0,45043,45512,0,1 M,0,45043,48324,90,168,91,152 F,0,45512,47387,1 F,0,47387,48324,1,0
Sprite,Foreground,Centre,"SB\12.png",320,240 F,0,45980,,0 F,0,45980,47387,0,1 M,0,46215,,93,272 M,0,46215,48324,93,272,93,259 F,0,47387,48324,1,0
Sprite,Foreground,Centre,"SB\14.png",320,240 F,0,48793,49262,0,1 M,0,48793,51137,116,187 F,0,49262,50668,1 R,0,49262,51137,0,-1.150562 F,0,50668,51137,1,0
Sprite,Foreground,Centre,"SB\15.png",320,240 M,0,55824,56058,33,97,44,104 R,0,55824,56058,0 M,0,56058,56762,44,104,33,97
Sprite,Foreground,Centre,"SB\16.png",320,240 M,0,56058,56293,101,137,111,149 F,0,56058,56293,1,0.9923295 R,0,56058,56293,0,0.2454535 M,0,56293,56762,111,149,101,137
Sprite,Foreground,Centre,"SB\17.png",320,240 M,0,56410,56762,40,246 R,0,56527,56762,0,-0.3528388 M,0,56762,56996,40,246,37,238
Sprite,Foreground,Centre,"SB\18.png",320,240 R,0,56644,56762,0,-0.2301129 M,0,56645,56996,98,322,112,309
Sprite,Foreground,Centre,"SB\19.png",320,240 M,0,59340,59574,99,355,99,350 F,0,59340,59808,0,1 M,0,59574,59808,99,350,99,366 M,0,59808,60031,99,366,100,356 F,0,59808,61918,1 M,0,60031,60277,100,356,100,366 M,0,60277,60512,100,366,100,356 M,0,60512,62387,100,356,99,314 F,0,61918,62387,1,0
Sprite,Foreground,Centre,"SB\21.png",320,240 R,0,62855,,-0.4909064 M,0,62855,64730,82,363,100,328 F,0,64266,64730,1,0
Sprite,Foreground,Centre,"SB\22.png",320,240 R,0,66840,,0.3068164 F,0,66840,67777,1 M,0,66840,68246,99,71,108,112 F,0,67777,68246,1,0
Sprite,Foreground,Centre,"SB\23.png",320,240 F,0,70590,71058,0,1 M,0,70590,80668,32,269,32,233 F,0,71058,79965,1 F,0,79965,80668,1,0
Sprite,Foreground,Centre,"SB\24.png",320,240 F,0,74340,74808,0,1 M,0,74340,80668,73,207,84,285 F,0,74808,79965,1 F,0,79965,80668,1,0
Sprite,Foreground,Centre,"SB\25.png",320,240 F,0,75980,76449,0,1 M,0,75980,80668,134,279,132,220 F,0,76449,79730,1 F,0,79730,80668,1,0
Sprite,Foreground,Centre,"SB\26.png",320,240 R,0,83480,,0.6443146 F,0,83480,83949,0,1 M,0,83480,87230,201,212,168,183 F,0,83949,86762,1 F,0,86762,87230,1,0
Sprite,Foreground,Centre,"SB\27.png",320,240 R,0,87465,,0.536929 F,0,87465,87933,1 M,0,87465,89574,77,249,97,265 F,0,87933,88637,1 F,0,88637,89105,1 S,0,89105,89340,1,0.9463074 F,0,89105,89574,1,0 S,0,89340,89574,0.9463074,1
Sprite,Foreground,Centre,"SB\28.png",320,240 S,0,89808,90043,1,1.061363 M,0,89808,90746,114,378,102,363 R,0,90043,,0.6443155 S,0,90043,90277,1.061363,1.00767 S,0,90277,90512,1.00767,1.107386 S,0,90512,90746,1.107386,1.00767 M,0,90746,90980,102,363 F,0,90746,90980,1,0
Sprite,Foreground,Centre,"SB\29.png",320,240 M,0,91449,93793,36,264
Sprite,Foreground,Centre,"SB\31.png",320,240 M,0,91683,93793,118,260
Sprite,Foreground,Centre,"SB\32.png",320,240 M,0,92152,93793,79,305,77,301
Sprite,Foreground,Centre,"SB\33.png",320,240 M,0,92621,93793,40,346
Sprite,Foreground,Centre,"SB\34.png",320,240 M,0,92855,93793,119,343
Sprite,Foreground,Centre,"SB\35.png",320,240 R,0,94730,,-0.4909064 F,0,94730,95199,0,1 M,0,94730,98715,130,177,160,154 S,0,98012,98246,1,0.9463072 S,0,98246,98480,0.9463072,0.9923296 S,0,98480,98715,0.9923296,0.9232959
Sprite,Foreground,Centre,"SB\37.png",320,240 F,0,103637,104105,0,1 M,0,103637,106918,90,218,91,238 F,0,104105,106449,1 F,0,106449,106918,1,0
Sprite,Foreground,Centre,"SB\38.png",320,240 F,0,107387,107855,0,1 M,0,107387,113949,129,154,156,153 F,0,107855,113012,1 F,0,113012,113949,1,0
Sprite,Foreground,Centre,"SB\39.png",320,240 F,0,107387,107862,0,1 M,0,107387,113949,253,335,198,335 F,0,107862,113012,1 F,0,113012,113949,1,0.06804474
Sprite,Foreground,Centre,"SB\41.png",320,240 F,0,114887,115355,0,1 M,0,114887,121918,33,309,33,261 F,0,115355,121449,1 F,0,121449,121918,1,0
Sprite,Foreground,Centre,"SB\42.png",320,240 M,0,118168,,103,252 F,0,118168,,1,0 F,0,118168,118637,0,1 M,0,118168,121918,103,252,103,299 F,0,118637,121449,1 F,0,121449,121918,1,0
Sprite,Foreground,Centre,"SB\43.png",320,240 F,0,122387,,1 M,0,122387,129887,30,434,25,448
Sprite,Foreground,Centre,"SB\44.png",320,240 M,0,122387,129887,74,434,82,420
Sprite,Foreground,Centre,"SB\45.png",320,240 M,0,124262,129887,74,248,74,273
Sprite,Foreground,Centre,"SB\46.png",320,240 M,0,126137,129887,135,147,134,114
Sprite,Foreground,Centre,"SB\5.png",320,240 M,0,128012,129887,129,199,129,189 R,0,128012,129887,0,-6.289737 S,0,129887,,1.536929
Sprite,Foreground,Centre,"SB\47.png",320,240 R,0,131293,,-0.3221576 M,0,131293,131996,43,288,59,258 M,0,131996,132699,59,258,88,279 M,0,132699,135512,88,279 S,0,135394,135512,1,1.368179
Sprite,Foreground,Centre,"SB\48.png",320,240 R,0,132933,,0.5062473 F,0,132933,133402,0,1 M,0,132933,135512,121,181,100,160 S,0,135426,135512,1,1.283805
Sprite,Foreground,Centre,"SB\49.png",320,240 S,0,136683,,1 R,0,136683,137152,0,0.09204468 M,0,136683,139262,95,140 R,0,137152,137738,0.09204468,0.2454529 M,0,139262,141496,95,140 M,0,139496,,95,103 M,0,141496,141605,95,140
Sprite,Foreground,Centre,"SB\51.png",320,240 M,0,137855,141617,42,210 M,0,139496,141605,42,180,75,178
Sprite,Foreground,Centre,"SB\52.png",320,240 M,0,138090,141605,92,232 M,0,139496,141605,92,203
Sprite,Foreground,Centre,"SB\53.png",320,240 M,0,138324,141605,94,292 M,0,139496,141605,94,262
Sprite,Foreground,Centre,"SB\51.png",320,240 M,0,138558,141605,41,342 M,0,139496,141605,41,312
Sprite,Foreground,Centre,"SB\52.png",320,240 M,0,138803,141605,52,416 M,0,139496,141605,52,386
Sprite,Foreground,Centre,"SB\53.png",320,240 M,0,139262,141605,121,435 M,0,139496,141605,121,405
Sprite,Foreground,Centre,"SB\54.png",320,240 M,0,143012,146293,43,124,59,156 M,0,146293,150512,59,156,59,184
Sprite,Foreground,Centre,"SB\55.png",320,240 M,0,146293,150512,65,184,66,213
Sprite,Foreground,Centre,"SB\54.png",320,240 M,0,146762,150512,90,191,90,216
Sprite,Foreground,Centre,"SB\57.png",320,240 R,0,147933,,0.3681796 M,0,147933,150512,83,250,83,269
Sprite,Foreground,Centre,"SB\53.png",320,240 F,0,151683,152152,0,1 M,0,151683,154262,76,421,76,394 F,0,152152,157543,1 M,0,154262,158012,76,394,76,350 F,0,157543,158009,1,0 F,0,158009,158012,0,1
Sprite,Foreground,Centre,"SB\56.png",320,240 F,0,151683,152152,0,1 M,0,151683,158012,76,263,75,190 F,0,152152,157543,1 F,0,157543,158012,1,0
Sprite,Foreground,Centre,"SB\58.png",320,240 F,0,179340,,1 M,0,179340,188480,67,106,107,104
Sprite,Foreground,Centre,"SB\59.png",320,240 F,0,183090,183558,0,1 M,0,183090,188480,158,190,126,190
Sprite,Foreground,Centre,"SB\61.png",320,240 M,0,184730,188480,104,262,83,262
Sprite,Foreground,Centre,"SB\61.png",320,240 M,0,185199,188480,72,289,49,289
Sprite,Foreground,Centre,"SB\62.png",320,240 M,0,185668,188480,119,332,102,332
Sprite,Foreground,Centre,"SB\63.png",320,240 F,0,186605,187074,0,1 M,0,186605,188480,102,398,110,398
Sprite,Foreground,Centre,"SB\64.png",320,240 F,0,190590,191058,0,1 M,0,190590,192465,113,403,96,390 S,0,192230,192347,1,1.023011 S,0,192347,192465,1.023011,1
Sprite,Foreground,Centre,"SB\65.png",320,240 S,0,194340,,1 F,0,194340,194808,0,1 M,0,194340,197387,102,131,102,155 F,0,194808,196918,1 F,0,196918,197387,1,0
Sprite,Foreground,Centre,"SB\66.png",320,240 F,0,198090,198558,0,1 M,0,198090,204418,108,160,168,223 F,0,198558,203949,1 F,0,203949,204418,1,0
Sprite,Foreground,Centre,"SB\67.png",320,240 F,0,199730,203949,1 M,0,199730,204418,191,371,191,343 F,0,203949,204418,1,0
Sprite,Foreground,Centre,"SB\68.png",320,240 F,0,207230,207699,0,1 M,0,207230,217074,46,178,46,216 F,0,207699,216605,1 F,0,216605,217074,1,0
Sprite,Foreground,Centre,"SB\71.png",320,240 F,0,218480,218949,0,1 M,0,218480,222347,121,220,121,252 F,0,218949,221879,1,0.9981615 F,0,221879,222347,0.9981615,0
Sprite,Foreground,Centre,"SB\72.png",320,240 F,0,213558,214027,0,1 M,0,213558,217081,133,118,122,115 F,0,214027,216605,1 F,0,216605,,1 F,0,216605,217074,1,0 F,0,216605,217081,1,0 M,0,217081,,122,115 F,0,217308,,0
Sprite,Foreground,Centre,"SB\73.png",320,240 F,0,214965,215433,0,1 M,0,214965,217074,117,252,115,257 F,0,215433,216605,1 F,0,216605,217069,1,0.3903464 F,0,217069,217074,0.3903464,0
Sprite,Foreground,Centre,"SB\74.png",320,240 F,0,222933,223402,0,1 M,0,222933,230668,213,140,161,136 F,0,223402,230199,1 F,0,230199,230668,1,0
Sprite,Foreground,Centre,"SB\75.png",320,240 F,0,224574,225043,0,1 M,0,224574,230668,154,235,125,237 F,0,225043,230217,1 F,0,230217,230668,1,0
Sprite,Foreground,Centre,"SB\77.png",320,240 F,0,226918,227387,0,1 M,0,226918,230668,37,302,36,275 F,0,227387,230199,1 F,0,230199,230668,1,0
Sprite,Foreground,Centre,"SB\78.png",320,240 R,0,231137,,0.4602249 F,0,231137,231605,0,1 M,0,231137,238168,129,136,93,117 F,0,231605,237699,1 F,0,237699,238168,1,0
Sprite,Foreground,Centre,"SB\79.png",320,240 R,0,234887,,0.3988617 F,0,234887,235355,0.09489135,1 M,0,234887,238168,112,298,125,309 F,0,235355,237699,1 F,0,237699,238168,1,0
Sprite,Foreground,Centre,"SB\5.png",320,240 C,0,236762,237230,255,128,255,128,0,0 F,0,236762,237699,1 M,0,236762,238168,110,210 C,0,237230,237699,128,0,0,255,128,255 F,0,237699,238168,1,0.002846374 C,0,237699,238168,255,128,255,255,128,128
Sprite,Foreground,Centre,"SB\81.png",320,240 F,0,238637,239105,0,1 M,0,238637,245668,129,312,130,278 F,0,239105,245199,1 F,0,245199,245668,1,0
Sprite,Foreground,Centre,"SB\82.png",320,240 F,0,242387,242855,0,1 M,0,242387,245668,204,144,184,143 F,0,242855,245199,1 F,0,245199,245668,1,0
Sprite,Foreground,Centre,"SB\86.png",320,240 F,0,246137,246605,0,1 M,0,246137,253637,135,321,181,318 F,0,246605,253168,1 F,0,253168,253637,1,0
Sprite,Foreground,Centre,"SB\5.png",320,240 M,0,251762,253637,122,234,138,234 S,0,251762,253637,1,1.352839 R,0,251762,253637,0,-6.320419 F,0,253168,253637,1,0
Sprite,Foreground,Centre,"SB\85.png",320,240 F,0,246137,246605,0,1 M,0,246137,253637,158,137,113,136 F,0,246605,253168,1 F,0,253168,253637,1,0
//Storyboard Sound Samples
//Background Colour Transformations
3,100,163,162,255

[TimingPoints]
482,468.75,4,2,2,60,1,0
9153,-100,4,2,2,60,0,1
16888,-100,4,2,2,70,0,1
17357,-66.6666666666667,4,2,0,70,0,1
18294,-66.6666666666667,4,2,2,70,0,1
19232,-100,4,2,0,70,0,1
19700,-100,4,2,2,70,0,1
19935,-66.6666666666667,4,2,2,70,0,1
22982,-200,4,2,0,70,0,1
23919,-200,4,2,2,70,0,1
24857,-66.6666666666667,4,2,2,70,0,1
28607,-100,4,2,2,70,0,1
32357,-100,4,2,2,70,0,1
34700,-100,4,2,2,70,0,1
38099,-100,4,2,0,70,0,1
41732,-200,4,2,2,70,0,0
45013,-100,4,2,2,70,0,0
48763,-200,4,2,0,40,0,0
55794,-100,4,2,0,70,0,0
59310,-100,4,2,2,70,0,0
63060,-100,4,2,2,70,0,0
88607,-200,4,2,0,70,0,0
89310,-200,4,2,2,70,0,0
89778,-100,4,2,2,70,0,0
93763,-100,4,2,2,70,0,0
95872,-200,4,2,0,70,0,0
97278,-100,4,2,0,70,0,0
97982,-100,4,2,2,70,0,0
99153,-100,4,2,0,70,0,1
101263,-100,4,2,2,70,0,1
121888,-100,4,2,2,70,0,1
127982,-200,4,2,0,70,0,1
131263,-100,4,2,0,70,0,0
133138,-100,4,2,2,70,0,0
142982,-200,4,2,2,70,0,0
149778,-200,4,2,2,70,0,0
151653,-100,4,2,2,70,0,0
153763,-100,4,2,2,70,0,0
154232,-200,4,2,0,70,0,0
155872,-200,4,2,2,70,0,0
157982,-100,4,2,0,70,0,0
158216,-100,4,2,2,70,0,0
161732,-100,4,2,2,70,0,0
164075,-200,4,2,2,70,0,0
164778,-100,4,2,2,70,0,0
179310,-100,4,2,2,70,0,0
186575,-100,4,2,2,70,0,0
204388,-100,4,2,2,70,0,0
222903,-100,4,2,2,70,0,1
230638,-100,4,2,2,70,0,1
253607,-100,4,2,0,70,0,0
255013,-100,4,2,2,70,0,0
269075,-100,4,2,2,70,0,0
276810,-66.6666666666667,4,2,2,70,0,0
280560,-100,4,2,2,70,0,0
285364,-100,4,2,2,40,0,0
285599,-100,4,2,2,70,0,0
289700,-66.6666666666667,4,2,2,70,0,0
290872,-100,4,2,2,70,0,0
293685,-66.6666666666667,4,2,2,70,0,0
296028,-100,4,2,2,70,0,0
297435,-100,4,2,2,70,0,0
305403,-66.6666666666667,4,2,2,70,0,1
306575,-100,4,2,2,70,0,1
307513,-100,4,2,2,70,0,1
313607,-66.6666666666667,4,2,2,70,0,1
315950,-100,4,2,0,70,0,1
316888,-100,4,2,2,70,0,1
317357,-100,4,2,2,70,0,1
327552,-100,4,2,2,40,0,1
327786,-100,4,2,2,70,0,1
334114,-100,4,2,0,70,0,0
337513,-100,4,2,2,70,0,0
373607,-100,4,2,2,5,0,0

[Colours]
Combo1 : 255,0,128
Combo2 : 128,0,255
Combo3 : 255,255,255
Combo4 : 255,128,255
Combo5 : 255,128,0

[HitObjects]
256,192,482,1,4,0:0:0:0:
320,136,716,1,8,0:0:0:0:
352,112,833,1,8,0:0:0:0:
384,80,950,1,8,0:0:0:0:
432,240,1419,1,8,0:0:0:0:
432,240,1653,1,0,0:0:0:0:
288,320,2122,2,0,P|224:320|112:272,1,170,0|0,0:0|0:0,0:0:0:0:
126,282,2825,1,8,0:0:0:0:
144,208,3060,1,0,0:0:0:0:
144,208,3177,1,8,0:0:0:0:
144,208,3294,2,0,P|160:144|192:96,2,85,0|2|0,0:0|0:0|0:0,0:0:0:0:
168,127,3997,1,0,0:0:0:0:
240,96,4232,5,4,0:0:0:0:
320,96,4466,1,0,0:0:0:0:
288,176,4700,2,0,L|368:232,1,85,8|0,0:0|0:0,0:0:0:0:
416,288,5169,2,0,L|464:208,1,85,2|0,0:0|0:0,0:0:0:0:
320,96,5872,2,0,L|216:120,1,85
176,176,6341,5,0,0:0:0:0:
128,240,6575,1,8,0:0:0:0:
96,320,6810,1,0,0:0:0:0:
32,272,7044,1,0,0:0:0:0:
24,232,7161,1,0,0:0:0:0:
24,192,7278,1,0,0:0:0:0:
40,152,7396,1,0,0:0:0:0:
64,120,7513,1,0,0:0:0:0:
104,96,7630,1,0,0:0:0:0:
144,96,7747,1,0,0:0:0:0:
176,120,7864,1,0,0:0:0:0:
192,160,7982,5,0,0:0:0:0:
272,128,8216,1,0,0:0:0:0:
240,208,8450,1,0,0:0:0:0:
488,272,9153,5,0,0:0:0:0:
400,264,9388,1,0,0:0:0:0:
428,176,9622,1,0,0:0:0:0:
320,272,9857,2,0,P|336:208|436:180,1,170,8|8,0:0|0:0,0:0:0:0:
368,112,10560,1,0,0:0:0:0:
272,128,10794,1,0,0:0:0:0:
176,272,11263,2,0,L|144:304,2,42.5
176,272,11732,1,8,0:0:0:0:
336,336,12200,1,0,0:0:0:0:
416,320,12435,1,0,0:0:0:0:
464,256,12669,1,0,0:0:0:0:
368,112,13138,5,8,0:0:0:0:
356,264,13607,1,0,0:0:0:0:
256,192,13841,1,0,0:0:0:0:
256,320,14075,1,0,0:0:0:0:
256,192,14310,1,0,0:0:0:0:
155,264,14544,2,8,L|80:192,1,85,0|0,0:0|0:0,0:0:0:0:
160,112,15013,5,0,0:0:0:0:
256,192,15247,1,0,0:0:0:0:
256,64,15482,1,0,0:0:0:0:
256,320,15950,1,0,0:0:0:0:
400,192,16419,1,8,0:0:0:0:
256,192,16888,6,0,L|304:192,2,42.5
160,112,17357,6,0,P|240:88|320:112,1,127.500004863739,4|0,0:0|0:0,0:0:0:0:
384,264,17825,2,0,P|360:168|328:112,1,127.500004863739
216,240,18294,2,0,P|304:264|360:264,1,127.500004863739,8|0,0:0|0:0,0:0:0:0:
324,110,18763,2,0,P|272:144|216:240,1,127.500004863739
256,320,19232,1,0,0:0:0:0:
256,320,19700,1,8,0:0:0:0:
256,320,19817,1,8,0:0:0:0:
256,320,19935,2,0,P|320:296|352:248,2,127.500004863739,8|8|0,0:0|0:0|0:0,0:0:0:0:
256,224,20638,2,0,L|256:104,2,63.7500024318696,0|0|0,0:0|0:0|0:0,0:0:0:0:
112,192,21107,5,0,0:0:0:0:
144,112,21341,1,0,0:0:0:0:
208,64,21575,1,0,0:0:0:0:
288,64,21810,1,0,0:0:0:0:
352,112,22044,1,8,0:0:0:0:
400,176,22278,1,8,0:0:0:0:
400,216,22396,1,8,0:0:0:0:
384,256,22513,1,8,0:0:0:0:
320,192,22747,1,0,0:0:0:0:
256,192,22982,6,0,P|192:200|144:256,1,127.5,0|4,0:0|0:0,0:0:0:0:
224,272,23919,2,0,P|256:296|304:304,1,85,8|8,0:0|0:0,0:0:0:0:
72,192,24857,6,0,L|232:136,1,127.500004863739,8|0,0:0|0:0,0:0:0:0:
112,48,25325,2,0,L|224:144,1,127.500004863739,8|0,0:0|0:0,0:0:0:0:
336,80,25794,2,0,L|200:176,1,127.500004863739,8|0,0:0|0:0,0:0:0:0:
344,216,26263,2,0,L|192:168,1,127.500004863739,8|0,0:0|0:0,0:0:0:0:
248,304,26732,2,0,L|184:168,1,127.500004863739,8|0,0:0|0:0,0:0:0:0:
104,272,27200,2,0,L|192:136,1,127.500004863739,8|0,0:0|0:0,0:0:0:0:
248,56,27669,1,8,0:0:0:0:
464,192,28138,1,8,0:0:0:0:
368,216,28607,6,0,L|402:251,1,42.5,8|0,0:0|0:0,0:0:0:0:
336,272,28841,2,0,L|368:304,1,42.5,8|0,0:0|0:0,0:0:0:0:
285,302,29075,2,0,L|304:344,1,42.5,8|0,0:0|0:0,0:0:0:0:
226,302,29310,2,0,L|232:352,1,42.5,8|0,0:0|0:0,0:0:0:0:
175,272,29544,6,0,P|136:248|128:192,1,85
145,162,30013,1,8,0:0:0:0:
175,111,30247,1,8,0:0:0:0:
226,81,30482,6,0,P|272:72|336:96,1,85,8|0,0:0|0:0,0:0:0:0:
352,112,30950,1,0,0:0:0:0:
366,162,31185,1,0,0:0:0:0:
366,221,31419,1,0,0:0:0:0:
304,272,31888,1,8,0:0:0:0:
304,272,32005,1,8,0:0:0:0:
304,272,32122,1,8,0:0:0:0:
240,336,32357,6,8,P|208:320|160:256,1,85
176,208,32825,2,8,P|224:208|272:224,1,85
320,272,33294,2,8,P|320:320|336:352,1,85,0|8,0:0|0:0,0:0:0:0:
416,304,33763,2,8,P|432:240|416:192,1,85
352,176,34232,1,8,0:0:0:0:
496,80,34700,5,8,0:0:0:0:
496,80,34817,1,8,0:0:0:0:
496,80,34934,1,8,0:0:0:0:
464,160,35169,2,0,P|416:160|368:192,2,85,0|0|8,0:0|0:0|0:0,0:0:0:0:
326,262,36107,5,8,0:0:0:0:
185,262,36341,1,8,0:0:0:0:
185,121,36575,1,8,0:0:0:0:
326,121,36810,1,8,0:0:0:0:
256,291,37044,1,8,0:0:0:0:
256,88,37278,1,8,0:0:0:0:
256,88,37396,1,8,0:0:0:0:
256,88,37513,1,8,0:0:0:0:
156,191,37747,1,8,0:0:0:0:
355,192,37982,1,8,0:0:0:0:
256,192,38099,12,4,39857,0:0:0:0:
256,192,41263,5,0,0:0:0:0:
256,192,41732,2,0,P|88:248|224:80,1,552.5
152,162,45013,5,8,0:0:0:0:
312,104,45482,1,8,0:0:0:0:
384,256,45950,1,8,0:0:0:0:
232,336,46419,1,8,0:0:0:0:
264,168,46888,1,8,0:0:0:0:
424,120,47357,2,0,P|352:160|264:168,2,170,8|0|8,0:0|0:0|0:0,0:0:0:0:
256,128,48763,6,0,P|184:144|216:256,1,212.5
264,208,50169,2,0,P|312:264|264:336,1,170
256,128,52513,6,0,P|328:144|296:256,1,212.5
248,208,53919,2,0,P|192:272|248:336,1,170,0|4,0:0|0:0,0:0:0:0:
256,208,55560,1,0,0:0:0:0:
256,208,55794,5,0,0:0:0:0:
168,136,56028,1,0,0:0:0:0:
348,136,56263,1,0,0:0:0:0:
256,280,56497,1,0,0:0:0:0:
256,32,56966,5,0,0:0:0:0:
256,120,57200,1,0,0:0:0:0:
256,200,57435,2,0,L|256:288,1,85
344,280,57903,1,0,0:0:0:0:
176,280,58138,1,0,0:0:0:0:
256,200,58372,2,0,L|256:88,1,85
256,115,59075,5,0,0:0:0:0:
168,120,59310,1,8,0:0:0:0:
128,192,59544,1,8,0:0:0:0:
128,104,59778,1,8,0:0:0:0:
48,144,60013,1,8,0:0:0:0:
104,80,60247,1,8,0:0:0:0:
24,48,60482,1,8,0:0:0:0:
192,32,60950,6,0,P|216:88|208:120,1,85
192,200,61419,2,0,P|184:248|208:288,1,85
352,256,61888,2,0,P|368:200|360:160,1,85
192,200,62357,2,0,P|184:248|208:288,1,85
440,80,62825,5,0,0:0:0:0:
440,80,63060,1,8,0:0:0:0:
440,80,63177,1,8,0:0:0:0:
440,80,63294,1,8,0:0:0:0:
408,160,63528,2,0,P|392:208|400:248,1,85
448,304,63997,1,0,0:0:0:0:
280,336,64466,5,0,0:0:0:0:
200,304,64700,1,8,0:0:0:0:
280,336,64935,2,0,P|236:324|176:284,1,85
216,224,65403,1,8,0:0:0:0:
176,208,65521,1,8,0:0:0:0:
136,200,65638,1,8,0:0:0:0:
72,256,65872,1,0,0:0:0:0:
32,176,66107,2,0,L|64:88,2,85
61,96,66810,5,8,0:0:0:0:
144,72,67044,2,0,P|192:64|248:72,1,85
200,152,67513,1,8,0:0:0:0:
288,160,67747,2,0,P|336:144|360:104,1,85
440,112,68216,1,8,0:0:0:0:
440,200,68450,2,0,P|488:240|512:280,1,85
416,272,68919,2,0,P|352:264|328:248,2,85,0|8|0,0:0|0:0|0:0,0:0:0:0:
336,256,69622,1,0,0:0:0:0:
256,264,69857,1,0,0:0:0:0:
192,320,70091,2,0,L|104:320,1,85
96,232,70560,5,8,0:0:0:0:
184,224,70794,1,8,0:0:0:0:
112,176,71028,1,8,0:0:0:0:
224,136,71263,1,8,0:0:0:0:
80,128,71497,1,8,0:0:0:0:
208,24,71732,1,8,0:0:0:0:
464,176,72200,1,8,0:0:0:0:
56,208,72669,1,8,0:0:0:0:
440,336,73138,1,8,0:0:0:0:
72,328,73607,1,8,0:0:0:0:
440,232,74075,1,8,0:0:0:0:
392,160,74310,5,8,0:0:0:0:
340,102,74544,1,8,0:0:0:0:
392,160,74778,2,0,P|368:112|320:104,2,85
344,232,75482,1,0,0:0:0:0:
216,344,75950,2,0,L|216:240,1,85
216,176,76419,2,0,L|216:80,1,85
272,216,76888,1,8,0:0:0:0:
160,216,77122,1,8,0:0:0:0:
336,152,77591,1,8,0:0:0:0:
104,152,77825,1,8,0:0:0:0:
160,48,78294,5,8,0:0:0:0:
224,96,78528,1,8,0:0:0:0:
304,72,78763,2,8,P|344:88|368:128,1,85
368,200,79232,1,8,0:0:0:0:
376,272,79466,1,8,0:0:0:0:
448,312,79700,2,0,P|464:272|472:224,1,85,8|4,0:0|0:0,0:0:0:0:
464,80,80403,5,8,0:0:0:0:
424,64,80521,1,8,0:0:0:0:
384,56,80638,1,8,0:0:0:0:
344,48,80755,1,8,0:0:0:0:
304,48,80872,1,8,0:0:0:0:
264,48,80989,1,8,0:0:0:0:
224,40,81107,2,0,P|176:56|112:32,1,85,8|4,0:0|0:0,0:0:0:0:
136,128,81575,1,8,0:0:0:0:
168,160,81692,1,8,0:0:0:0:
208,176,81810,2,0,P|184:264|128:328,1,170
64,296,82513,1,8,0:0:0:0:
64,296,82630,1,8,0:0:0:0:
64,296,82747,1,8,0:0:0:0:
64,296,82982,1,4,0:0:0:0:
136,160,83450,6,0,P|160:200|224:232,1,85
268,248,83919,1,0,0:0:0:0:
268,248,84153,1,0,0:0:0:0:
248,96,84622,1,8,0:0:0:0:
248,96,84739,1,8,0:0:0:0:
248,96,84857,2,0,P|296:96|344:120,1,85,8|0,0:0|0:0,0:0:0:0:
328,280,85560,2,0,P|280:272|232:280,1,85
272,200,86028,2,0,P|307:195|355:203,1,85
424,248,86497,1,8,0:0:0:0:
424,248,86732,2,0,L|424:344,1,85,4|0,0:0|0:0,0:0:0:0:
257,85,87435,5,8,0:0:0:0:
162,243,87669,1,8,0:0:0:0:
347,246,87903,1,8,0:0:0:0:
164,137,88138,1,8,0:0:0:0:
349,140,88372,1,8,0:0:0:0:
256,296,88607,2,0,L|256:192,1,85
255,213,89310,1,8,0:0:0:0:
256,24,89778,5,8,0:0:0:0:
182,151,90012,1,8,0:0:0:0:
329,151,90246,1,8,0:0:0:0:
256,107,90482,2,0,L|256:288,1,170,4|0,0:0|0:0,0:0:0:0:
208,336,91185,1,8,0:0:0:0:
256,276,91419,1,8,0:0:0:0:
304,336,91653,1,8,0:0:0:0:
464,312,92122,1,4,0:0:0:0:
504,176,92591,1,0,0:0:0:0:
360,208,92825,2,0,P|328:160|352:48,1,170
347,54,93528,1,0,0:0:0:0:
264,80,93763,2,0,L|196:108,2,42.5,8|0|8,0:0|0:0|0:0,0:0:0:0:
264,80,94232,1,4,0:0:0:0:
224,248,94700,6,0,P|232:288|224:336,1,85
120,240,95169,2,0,P|112:192|128:136,1,85
40,40,95872,6,0,P|16:136|28:248,1,212.5,4|0,0:0|0:0,0:0:0:0:
96,280,97278,1,0,0:0:0:0:
168,296,97513,1,0,0:0:0:0:
232,256,97747,1,0,0:0:0:0:
344,336,97982,1,8,0:0:0:0:
400,208,98216,1,8,0:0:0:0:
456,336,98450,1,8,0:0:0:0:
336,72,99153,5,0,0:0:0:0:
392,128,99388,1,0,0:0:0:0:
376,200,99622,1,0,0:0:0:0:
168,144,99857,1,4,0:0:0:0:
320,144,100325,1,0,0:0:0:0:
96,288,100794,1,0,0:0:0:0:
248,280,101263,1,8,0:0:0:0:
168,288,101497,5,8,0:0:0:0:
96,288,101732,2,0,P|64:208|72:184,1,85,0|0,0:0|0:0,0:0:0:0:
112,152,102200,1,8,0:0:0:0:
112,152,102435,1,8,0:0:0:0:
112,152,102669,2,0,P|168:96|208:88,1,85
248,80,103138,2,0,P|320:104|352:104,1,85,8|0,0:0|0:0,0:0:0:0:
416,112,103607,5,8,0:0:0:0:
464,176,103841,1,8,0:0:0:0:
432,248,104075,1,8,0:0:0:0:
360,296,104310,1,8,0:0:0:0:
280,280,104544,6,0,P|240:248|216:208,1,85,8|0,0:0|0:0,0:0:0:0:
216,136,105013,1,8,0:0:0:0:
248,56,105247,1,8,0:0:0:0:
320,112,105482,1,8,0:0:0:0:
88,192,105950,2,0,L|144:288,1,85,8|0,0:0|0:0,0:0:0:0:
192,320,106419,2,0,L|280:248,1,85,8|0,0:0|0:0,0:0:0:0:
256,184,106888,2,8,L|320:184,2,42.5
176,184,107357,6,0,P|216:136|256:128,1,85,8|0,0:0|0:0,0:0:0:0:
432,192,107825,2,0,P|432:256|416:288,1,85,8|0,0:0|0:0,0:0:0:0:
280,88,108294,2,0,P|312:144|312:168,1,85,8|0,0:0|0:0,0:0:0:0:
320,304,108763,2,0,P|312:248|320:208,1,85,8|0,0:0|0:0,0:0:0:0:
400,112,109232,2,0,P|384:152|352:176,1,85,8|0,0:0|0:0,0:0:0:0:
208,272,109700,1,8,0:0:0:0:
208,272,109935,1,8,0:0:0:0:
136,256,110169,2,0,P|104:184|104:168,1,85
128,104,110638,2,0,P|160:136|208:136,1,85
272,120,111107,6,0,L|272:64,1,42.5,8|8,0:0|0:0,0:0:0:0:
312,128,111341,2,0,L|344:96,1,42.5,8|0,0:0|0:0,0:0:0:0:
328,168,111575,2,8,L|384:168,1,42.5
320,208,111810,2,0,L|360:248,1,42.5,8|0,0:0|0:0,0:0:0:0:
288,240,112044,2,0,L|288:288,1,42.5,8|0,0:0|0:0,0:0:0:0:
240,232,112278,2,0,L|208:272,1,42.5,8|0,0:0|0:0,0:0:0:0:
224,192,112513,2,0,L|176:192,1,42.5,8|0,0:0|0:0,0:0:0:0:
232,152,112747,2,8,L|192:120,1,42.5
272,120,112982,2,0,P|304:72|448:160,1,255,8|4,0:0|0:0,0:0:0:0:
450,202,113919,1,0,0:0:0:0:
384,256,114153,1,8,0:0:0:0:
368,216,114271,1,8,0:0:0:0:
352,176,114388,1,8,0:0:0:0:
256,320,114857,6,8,L|256:376,2,42.5
168,320,115325,2,8,L|168:376,2,42.5
208,248,115794,2,0,P|144:224|88:128,1,170,8|0,0:0|0:0,0:0:0:0:
104,56,116497,1,8,0:0:0:0:
184,88,116732,2,0,P|280:80|344:120,1,170
272,168,117435,1,8,0:0:0:0:
304,248,117669,2,0,P|328:288|368:312,1,85
432,272,118138,6,0,P|464:224|464:184,1,85
351,253,118607,1,8,0:0:0:0:
239,303,118841,1,8,0:0:0:0:
147,223,119075,1,8,0:0:0:0:
181,106,119310,1,8,0:0:0:0:
302,89,119544,5,8,0:0:0:0:
147,160,119778,1,8,0:0:0:0:
181,277,120013,1,8,0:0:0:0:
302,294,120247,1,8,0:0:0:0:
239,80,120482,1,8,0:0:0:0:
248,248,120950,1,8,0:0:0:0:
88,312,121419,1,8,0:0:0:0:
64,144,121888,1,8,0:0:0:0:
64,144,122005,1,8,0:0:0:0:
64,144,122122,1,8,0:0:0:0:
144,112,122357,6,0,P|200:72|312:64,1,170,4|0,0:0|0:0,0:0:0:0:
296,144,123060,1,8,0:0:0:0:
256,224,123294,2,0,P|368:288|416:288,1,170
464,224,123997,1,8,0:0:0:0:
456,128,124232,2,0,L|352:72,1,85
296,112,124700,2,0,P|224:128|200:152,2,85,0|8|0,0:0|0:0|0:0,0:0:0:0:
304,200,125403,1,0,0:0:0:0:
248,264,125638,2,0,P|184:304|152:304,1,85,8|0,0:0|0:0,0:0:0:0:
88,296,126107,5,8,0:0:0:0:
88,208,126341,1,8,0:0:0:0:
136,272,126575,1,8,0:0:0:0:
136,184,126810,1,8,0:0:0:0:
176,256,127044,1,8,0:0:0:0:
176,168,127279,1,8,0:0:0:0:
176,168,127396,1,8,0:0:0:0:
176,168,127513,1,8,0:0:0:0:
200,88,127747,1,8,0:0:0:0:
280,48,127982,6,0,B|360:88|464:160|336:240|448:320,1,340,4|0,0:0|0:0,0:0:0:0:
256,184,131263,5,0,0:0:0:0:
384,296,131732,2,0,P|376:216|416:128,1,170
336,88,132435,2,0,P|246:85|182:37,1,170
144,112,133138,1,8,0:0:0:0:
184,184,133372,1,8,0:0:0:0:
256,224,133607,2,0,P|240:312|184:368,1,170
168,288,134310,2,0,P|112:232|24:224,1,170
24,136,135013,1,8,0:0:0:0:
72,72,135247,1,8,0:0:0:0:
144,32,135482,1,4,0:0:0:0:
396,244,136653,5,8,0:0:0:0:
392,328,136888,2,0,P|400:264|392:232,1,85
312,256,137357,1,8,0:0:0:0:
256,192,137591,1,8,0:0:0:0:
224,272,137825,1,8,0:0:0:0:
256,192,138060,1,8,0:0:0:0:
296,120,138294,1,8,0:0:0:0:
216,96,138528,1,8,0:0:0:0:
160,160,138763,1,8,0:0:0:0:
144,240,138997,1,8,0:0:0:0:
224,272,139232,6,0,P|320:328|464:312,2,255,8|0|8,0:0|0:0|0:0,0:0:0:0:
216,184,140872,1,8,0:0:0:0:
216,96,141107,2,0,P|288:48|472:64,2,255,8|0|8,0:0|0:0|0:0,0:0:0:0:
216,184,142747,1,8,0:0:0:0:
224,272,142982,6,0,B|232:304|272:304|272:304|296:336|336:336|336:336|360:368|408:368,2,212.5,8|0|8,0:0|0:0|0:0,0:0:0:0:
128,288,145560,1,8,0:0:0:0:
64,328,145794,1,8,0:0:0:0:
24,264,146028,1,8,0:0:0:0:
88,224,146263,1,8,0:0:0:0:
128,56,146732,2,0,B|168:40|208:72|208:72|240:128|288:112,1,170,8|0,0:0|0:0,0:0:0:0:
344,160,147903,1,8,0:0:0:0:
416,208,148138,1,8,0:0:0:0:
360,272,148372,1,8,0:0:0:0:
288,224,148607,6,0,P|168:224|80:272,1,212.5,8|8,0:0|0:0,0:0:0:0:
160,304,150013,1,8,0:0:0:0:
184,224,150247,1,8,0:0:0:0:
160,144,150482,1,12,0:0:0:0:
112,80,150716,1,8,0:0:0:0:
64,144,150950,1,8,0:0:0:0:
160,144,151185,1,8,0:0:0:0:
408,104,151653,6,8,L|480:48,2,85
432,184,152357,1,8,0:0:0:0:
376,248,152591,1,8,0:0:0:0:
328,184,152825,1,8,0:0:0:0:
296,264,153060,1,8,0:0:0:0:
360,320,153294,1,8,0:0:0:0:
280,344,153528,1,8,0:0:0:0:
200,328,153763,1,8,0:0:0:0:
200,288,153880,1,8,0:0:0:0:
208,240,153997,1,8,0:0:0:0:
256,168,154232,6,0,P|192:104|144:104,2,127.5,4|0|4,0:0|0:0|0:0,0:0:0:0:
312,216,155872,1,8,0:0:0:0:
256,264,156107,1,8,0:0:0:0:
192,232,156341,2,0,B|192:168|128:176|128:176|128:376,1,297.5
208,360,158216,5,8,0:0:0:0:
240,336,158333,1,8,0:0:0:0:
280,312,158450,1,8,0:0:0:0:
344,256,158685,1,8,0:0:0:0:
344,256,158919,1,8,0:0:0:0:
344,256,159153,1,8,0:0:0:0:
408,200,159388,6,0,P|440:256|480:272,1,85,0|8,0:0|0:0,0:0:0:0:
480,192,159857,2,0,P|496:136|488:104,1,85,0|8,0:0|0:0,0:0:0:0:
408,112,160325,2,0,P|368:80|360:48,1,85,0|8,0:0|0:0,0:0:0:0:
288,88,160794,2,0,L|192:96,2,85,0|8|0,0:0|0:0|0:0,0:0:0:0:
216,240,161732,5,0,0:0:0:0:
144,288,161966,1,0,0:0:0:0:
104,216,162200,1,8,0:0:0:0:
104,216,162317,1,8,0:0:0:0:
104,216,162435,2,0,P|48:184|24:144,1,85,8|4,0:0|0:0,0:0:0:0:
176,72,163138,5,8,0:0:0:0:
176,112,163255,1,8,0:0:0:0:
168,160,163372,1,8,0:0:0:0:
104,216,163607,1,0,0:0:0:0:
144,288,163841,1,0,0:0:0:0:
216,240,164075,1,8,0:0:0:0:
232,256,164192,1,8,0:0:0:0:
256,256,164310,1,8,0:0:0:0:
272,272,164427,1,8,0:0:0:0:
296,272,164544,5,8,0:0:0:0:
376,288,164778,1,0,0:0:0:0:
320,224,165013,1,4,0:0:0:0:
400,192,165247,1,0,0:0:0:0:
320,160,165482,1,0,0:0:0:0:
376,96,165716,1,0,0:0:0:0:
288,96,165950,2,0,P|240:104|176:80,2,85
256,264,166888,5,8,0:0:0:0:
256,232,167005,1,8,0:0:0:0:
256,192,167122,1,8,0:0:0:0:
256,160,167239,1,8,0:0:0:0:
256,192,167357,12,2,171107,0:0:0:0:
256,192,171341,5,8,0:0:0:0:
320,136,171575,1,8,0:0:0:0:
400,104,171810,1,8,0:0:0:0:
280,224,172278,5,8,0:0:0:0:
216,280,172513,1,8,0:0:0:0:
136,304,172747,1,8,0:0:0:0:
256,192,172982,12,0,174857,0:0:0:0:
269,187,175091,5,8,0:0:0:0:
354,193,175325,1,8,0:0:0:0:
433,227,175560,1,8,0:0:0:0:
264,227,176028,5,8,0:0:0:0:
179,221,176263,1,8,0:0:0:0:
105,182,176497,1,8,0:0:0:0:
64,104,176732,1,4,0:0:0:0:
336,96,179310,6,0,P|360:128|360:176,1,85,8|8,0:0|0:0,0:0:0:0:
280,168,179778,2,0,P|232:176|176:160,1,85,8|8,0:0|0:0,0:0:0:0:
112,176,180247,2,0,P|112:136|136:96,1,85,8|8,0:0|0:0,0:0:0:0:
416,336,183060,6,8,P|432:272|432:232,1,85
352,272,183528,2,8,P|296:264|264:248,1,85
320,184,183997,2,8,P|352:144|360:96,1,85
200,168,184700,2,0,P|168:216|160:248,1,85,8|0,0:0|0:0,0:0:0:0:
120,320,185169,2,0,P|184:336|216:328,1,85,8|0,0:0|0:0,0:0:0:0:
288,312,185638,2,0,P|288:256|264:216,1,85,8|0,0:0|0:0,0:0:0:0:
80,40,186575,5,8,0:0:0:0:
80,40,186692,1,8,0:0:0:0:
80,40,186810,1,8,0:0:0:0:
80,40,187044,2,0,P|104:112|176:192,1,170,8|0,0:0|0:0,0:0:0:0:
163,183,187747,1,4,0:0:0:0:
416,192,188450,5,8,0:0:0:0:
376,264,188685,1,8,0:0:0:0:
224,344,189153,1,8,0:0:0:0:
208,256,189388,1,8,0:0:0:0:
248,176,189622,1,8,0:0:0:0:
296,104,189857,2,0,P|232:64|128:64,1,170,4|0,0:0|0:0,0:0:0:0:
168,144,190560,6,0,L|136:224,1,85,0|8,0:0|0:0,0:0:0:0:
168,304,191028,1,8,0:0:0:0:
248,280,191263,2,0,L|344:336,1,85,8|0,0:0|0:0,0:0:0:0:
472,248,191966,1,8,0:0:0:0:
424,176,192200,1,8,0:0:0:0:
424,88,192435,1,8,0:0:0:0:
256,120,192903,1,8,0:0:0:0:
312,184,193138,1,8,0:0:0:0:
288,264,193372,1,8,0:0:0:0:
48,24,194310,5,8,0:0:0:0:
176,98,194544,1,8,0:0:0:0:
48,172,194778,1,8,0:0:0:0:
133,24,195013,1,8,0:0:0:0:
6,98,195247,1,8,0:0:0:0:
133,172,195482,1,8,0:0:0:0:
376,120,195950,1,8,0:0:0:0:
272,312,196419,1,8,0:0:0:0:
56,336,196888,1,8,0:0:0:0:
128,288,197122,5,8,0:0:0:0:
200,240,197357,1,8,0:0:0:0:
272,192,197591,1,8,0:0:0:0:
416,120,198060,6,0,L|416:216,1,85,8|0,0:0|0:0,0:0:0:0:
336,176,198528,2,0,L|336:264,1,85,8|0,0:0|0:0,0:0:0:0:
256,240,198997,2,0,L|160:240,1,85,8|0,0:0|0:0,0:0:0:0:
192,72,199700,2,0,P|184:120|152:152,1,85,8|0,0:0|0:0,0:0:0:0:
96,216,200169,2,0,P|152:216|192:232,1,85,8|0,0:0|0:0,0:0:0:0:
256,264,200638,2,8,L|304:336,1,85,8|8,0:0|0:0,0:0:0:0:
384,184,201341,2,8,L|336:112,1,85
176,72,202044,1,8,0:0:0:0:
104,224,202513,1,8,0:0:0:0:
23,197,202747,1,8,0:0:0:0:
23,112,202982,1,4,0:0:0:0:
104,86,203216,1,0,0:0:0:0:
153,155,203450,1,0,0:0:0:0:
200,224,203685,5,0,0:0:0:0:
256,288,203919,1,0,0:0:0:0:
336,304,204153,1,0,0:0:0:0:
400,256,204388,1,8,0:0:0:0:
376,224,204505,1,8,0:0:0:0:
360,184,204622,1,8,0:0:0:0:
360,144,204739,1,8,0:0:0:0:
368,104,204857,1,8,0:0:0:0:
304,64,205091,1,4,0:0:0:0:
224,104,205325,1,0,0:0:0:0:
144,128,205560,1,8,0:0:0:0:
152,168,205677,1,8,0:0:0:0:
168,208,205794,1,8,0:0:0:0:
192,288,206028,1,0,0:0:0:0:
112,296,206263,1,8,0:0:0:0:
80,272,206380,1,8,0:0:0:0:
48,248,206497,1,8,0:0:0:0:
48,336,206732,1,4,0:0:0:0:
48,136,207200,5,0,0:0:0:0:
48,136,207435,2,0,P|80:96|144:72,1,85,8|0,0:0|0:0,0:0:0:0:
176,32,207903,1,8,0:0:0:0:
176,200,208372,1,0,0:0:0:0:
176,288,208607,1,8,0:0:0:0:
256,248,208841,2,0,P|296:276|360:284,1,85,0|8,0:0|0:0,0:0:0:0:
416,304,209310,1,0,0:0:0:0:
392,224,209544,1,0,0:0:0:0:
456,160,209778,1,0,0:0:0:0:
376,136,210013,2,0,P|328:152|304:200,2,85,8|8|8,0:0|0:0|0:0,0:0:0:0:
144,152,211185,5,0,0:0:0:0:
144,152,211419,2,0,L|168:248,1,85,8|0,0:0|0:0,0:0:0:0:
248,248,211888,1,8,0:0:0:0:
248,248,212005,1,8,0:0:0:0:
248,248,212122,2,0,L|200:328,1,85,8|4,0:0|0:0,0:0:0:0:
448,216,213528,5,0,0:0:0:0:
448,216,213763,2,0,P|408:136|336:96,1,170,8|4,0:0|0:0,0:0:0:0:
272,344,214935,1,8,0:0:0:0:
200,304,215169,1,8,0:0:0:0:
176,224,215403,1,8,0:0:0:0:
208,56,215872,1,4,0:0:0:0:
344,152,216341,2,0,P|296:144|256:112,1,85
120,256,218450,6,0,L|56:264,1,42.5,8|0,0:0|0:0,0:0:0:0:
128,208,218685,2,0,L|80:192,1,42.5,8|0,0:0|0:0,0:0:0:0:
160,168,218919,2,0,L|120:128,1,42.5,8|0,0:0|0:0,0:0:0:0:
208,144,219153,2,0,L|200:96,2,42.5,8|0|8,0:0|0:0|0:0,0:0:0:0:
208,232,219622,2,0,L|376:280,2,170,2|0|2,0:0|0:0|0:0,0:0:0:0:
264,168,220794,1,8,0:0:0:0:
304,144,220911,1,8,0:0:0:0:
344,128,221028,1,8,0:0:0:0:
344,168,221146,1,8,0:0:0:0:
344,216,221263,1,8,0:0:0:0:
416,168,221497,1,0,0:0:0:0:
416,256,221732,2,0,L|416:344,2,85,0|0|8,0:0|0:0|0:0,0:0:0:0:
168,312,222903,5,0,0:0:0:0:
168,312,223138,2,0,P|96:280|80:256,1,85,8|0,0:0|0:0,0:0:0:0:
80,192,223607,1,8,0:0:0:0:
248,200,224075,1,4,0:0:0:0:
248,200,224310,1,0,0:0:0:0:
336,192,224544,2,0,P|296:128|208:120,1,170,4|8,0:0|0:0,0:0:0:0:
232,40,225247,1,8,0:0:0:0:
272,40,225364,1,8,0:0:0:0:
320,40,225482,2,0,P|400:80|480:72,1,170,8|0,0:0|0:0,0:0:0:0:
488,160,226185,1,8,0:0:0:0:
448,232,226419,2,8,P|408:312|328:344,1,170,0|0,0:0|0:0,0:0:0:0:
264,192,227357,5,8,0:0:0:0:
192,232,227591,1,8,0:0:0:0:
256,288,227825,1,8,0:0:0:0:
176,320,228060,1,8,0:0:0:0:
256,288,228294,1,8,0:0:0:0:
24,240,228763,1,8,0:0:0:0:
104,272,228997,1,8,0:0:0:0:
176,320,229232,1,8,0:0:0:0:
264,176,229700,1,8,0:0:0:0:
408,88,230169,1,8,0:0:0:0:
408,256,230638,5,12,0:0:0:0:
408,256,230755,1,8,0:0:0:0:
408,256,230872,1,8,0:0:0:0:
320,264,231107,6,0,P|288:296|248:304,1,85,8|0,0:0|0:0,0:0:0:0:
152,264,231575,2,0,P|184:296|224:304,1,85,8|0,0:0|0:0,0:0:0:0:
312,192,232044,2,0,P|280:224|240:232,1,85,8|0,0:0|0:0,0:0:0:0:
144,192,232513,2,0,P|176:224|216:232,1,85,8|0,0:0|0:0,0:0:0:0:
296,120,232982,2,0,P|264:152|224:160,1,85,8|0,0:0|0:0,0:0:0:0:
128,120,233450,1,8,0:0:0:0:
128,120,233685,1,0,0:0:0:0:
40,136,233919,2,0,P|64:208|112:288,1,170,8|8,0:0|0:0,0:0:0:0:
280,328,234857,5,8,0:0:0:0:
360,304,235091,1,8,0:0:0:0:
424,248,235325,1,8,0:0:0:0:
448,168,235560,1,8,0:0:0:0:
424,88,235794,5,8,0:0:0:0:
360,32,236028,1,8,0:0:0:0:
360,32,236146,1,8,0:0:0:0:
360,32,236263,1,8,0:0:0:0:
296,88,236497,1,8,0:0:0:0:
224,144,236732,2,0,B|112:208|320:256|112:304|224:368,2,255,0|4|4,0:0|0:0|0:0,0:0:0:0:
320,240,238607,5,8,0:0:0:0:
320,240,238724,1,8,0:0:0:0:
320,240,238841,1,8,0:0:0:0:
320,240,239075,2,0,P|400:192|416:120,1,170,0|8,0:0|0:0,0:0:0:0:
248,80,240013,1,8,0:0:0:0:
288,152,240247,1,8,0:0:0:0:
360,200,240482,1,8,0:0:0:0:
248,304,240950,1,8,0:0:0:0:
208,232,241185,1,8,0:0:0:0:
136,184,241419,1,8,0:0:0:0:
64,48,241888,5,8,0:0:0:0:
208,152,242357,1,8,0:0:0:0:
288,120,242591,1,8,0:0:0:0:
232,184,242825,1,8,0:0:0:0:
312,208,243060,1,8,0:0:0:0:
224,216,243294,1,8,0:0:0:0:
256,296,243528,1,8,0:0:0:0:
168,280,243763,5,8,0:0:0:0:
168,280,243997,1,8,0:0:0:0:
112,216,244232,2,0,P|136:144|224:112,1,170,8|0,0:0|0:0,0:0:0:0:
384,160,245169,2,0,P|416:240|408:328,1,170,0|8,0:0|0:0,0:0:0:0:
409,322,245755,1,8,0:0:0:0:
409,322,245872,1,8,0:0:0:0:
352,264,246107,6,0,P|264:280|184:240,1,170,4|8,0:0|0:0,0:0:0:0:
240,88,247044,2,0,P|320:48|408:80,1,170,0|8,0:0|0:0,0:0:0:0:
504,200,247982,2,0,P|440:248|344:264,1,170,0|8,0:0|0:0,0:0:0:0:
264,184,248685,1,8,0:0:0:0:
184,168,248919,2,0,P|96:192|24:248,1,170,0|8,0:0|0:0,0:0:0:0:
176,328,249857,5,8,0:0:0:0:
256,344,250091,1,8,0:0:0:0:
336,328,250325,1,8,0:0:0:0:
408,288,250560,1,8,0:0:0:0:
456,216,250794,5,8,0:0:0:0:
440,136,251028,1,8,0:0:0:0:
408,104,251146,1,8,0:0:0:0:
368,80,251263,1,8,0:0:0:0:
288,72,251497,1,8,0:0:0:0:
216,104,251732,2,0,B|128:144|160:296|80:304,2,255,8|0|4,0:0|0:0|0:0,0:0:0:0:
256,272,253607,5,4,0:0:0:0:
256,192,255013,5,8,0:0:0:0:
344,336,255482,2,0,B|312:296|352:256|384:216|408:136|344:16|168:16|96:136|128:208|160:256|200:296|176:344,1,595
256,192,258763,5,8,0:0:0:0:
177,36,259232,2,0,B|200:80|160:120|128:168|96:240|168:360|344:360|408:240|384:160|352:120|312:80|344:40,1,595
256,56,261107,1,8,0:0:0:0:
256,280,261810,5,8,0:0:0:0:
328,240,262044,1,8,0:0:0:0:
368,160,262278,1,8,0:0:0:0:
352,80,262513,2,0,P|336:40|304:8,1,85
248,72,262982,1,8,0:0:0:0:
216,152,263216,2,0,B|152:208|152:208|72:168|72:168,1,170
56,256,263919,1,8,0:0:0:0:
104,328,264153,5,0,0:0:0:0:
184,288,264388,1,0,0:0:0:0:
264,328,264622,1,8,0:0:0:0:
336,280,264857,1,0,0:0:0:0:
408,328,265091,1,0,0:0:0:0:
408,328,265325,1,8,0:0:0:0:
440,248,265560,6,8,L|440:152,1,85
360,128,266028,2,8,L|360:224,1,85
280,176,266497,2,8,L|280:80,1,85
144,192,267200,1,8,0:0:0:0:
280,296,267669,1,8,0:0:0:0:
416,192,268138,2,0,P|352:168|232:168,1,170,8|8,0:0|0:0,0:0:0:0:
168,136,268841,1,8,0:0:0:0:
80,120,269075,5,8,0:0:0:0:
80,120,269192,1,8,0:0:0:0:
80,120,269310,2,0,P|80:192|104:232,1,85,8|0,0:0|0:0,0:0:0:0:
144,264,269778,2,0,P|192:304|232:312,1,85,0|8,0:0|0:0,0:0:0:0:
296,312,270247,2,0,P|344:312|392:280,1,85,0|8,0:0|0:0,0:0:0:0:
416,224,270716,5,0,0:0:0:0:
416,224,270950,1,0,0:0:0:0:
336,184,271185,2,0,L|352:144,2,42.5
256,152,271653,1,8,0:0:0:0:
256,152,271771,1,8,0:0:0:0:
256,152,271888,2,0,P|192:120|88:128,1,170,6|0,0:0|0:0,0:0:0:0:
152,192,272591,1,0,0:0:0:0:
152,192,272825,1,0,0:0:0:0:
128,272,273060,6,0,P|136:224|152:192,1,85
208,256,273529,2,0,P|248:240|288:216,1,85
352,168,273997,2,0,P|312:200|280:224,1,85
256,144,274466,2,0,P|264:192|296:232,1,85,0|8,0:0|0:0,0:0:0:0:
312,304,274935,2,0,P|368:320|400:312,1,85,0|8,0:0|0:0,0:0:0:0:
456,264,275403,5,0,0:0:0:0:
408,192,275638,1,0,0:0:0:0:
456,264,275872,1,0,0:0:0:0:
408,192,276107,1,0,0:0:0:0:
320,192,276341,1,0,0:0:0:0:
320,192,276575,1,0,0:0:0:0:
208,128,276810,6,0,L|152:96,1,63.7500024318696,8|0,0:0|0:0,0:0:0:0:
184,152,277044,2,0,L|112:152,1,63.7500024318696,8|0,0:0|0:0,0:0:0:0:
168,200,277278,2,0,L|96:224,1,63.7500024318696,8|0,0:0|0:0,0:0:0:0:
168,240,277513,2,0,L|120:288,1,63.7500024318696,8|0,0:0|0:0,0:0:0:0:
184,272,277747,2,0,L|160:336,2,63.7500024318696,8|0|8,0:0|0:0|0:0,0:0:0:0:
317,275,278216,1,0,0:0:0:0:
440,296,278450,6,0,P|376:296|312:272,1,127.500004863739,8|0,0:0|0:0,0:0:0:0:
392,168,278919,2,0,P|296:152|240:160,1,127.500004863739,8|0,0:0|0:0,0:0:0:0:
144,112,279388,2,0,P|96:176|80:240,1,127.500004863739,8|0,0:0|0:0,0:0:0:0:
184,296,279857,2,0,L|320:280,2,127.500004863739,8|0|8,0:0|0:0|0:0,0:0:0:0:
256,192,280560,5,8,0:0:0:0:
256,192,280677,1,8,0:0:0:0:
256,192,280794,2,0,P|312:144|352:144,1,85,8|0,0:0|0:0,0:0:0:0:
400,176,281263,1,0,0:0:0:0:
424,256,281497,2,0,P|384:296|336:312,1,85,8|8,0:0|0:0,0:0:0:0:
192,328,282200,5,8,0:0:0:0:
136,168,282669,1,8,0:0:0:0:
256,48,283138,1,8,0:0:0:0:
256,48,283372,1,8,0:0:0:0:
368,176,283841,1,8,0:0:0:0:
368,264,284075,1,8,0:0:0:0:
200,256,284544,5,8,0:0:0:0:
102,233,284778,1,8,0:0:0:0:
200,156,285013,1,8,0:0:0:0:
102,178,285247,1,8,0:0:0:0:
223,206,285482,1,4,0:0:0:0:
146,144,285716,1,8,0:0:0:0:
146,268,285950,1,8,0:0:0:0:
224,312,286185,1,0,0:0:0:0:
304,336,286419,1,0,0:0:0:0:
392,336,286653,5,8,0:0:0:0:
472,320,286888,1,8,0:0:0:0:
416,256,287123,1,8,0:0:0:0:
408,216,287239,1,8,0:0:0:0:
416,176,287357,1,8,0:0:0:0:
392,96,287592,1,12,0:0:0:0:
368,64,287709,1,8,0:0:0:0:
336,40,287826,1,8,0:0:0:0:
256,72,288060,1,8,0:0:0:0:
216,80,288177,1,8,0:0:0:0:
176,72,288294,1,8,0:0:0:0:
88,56,288528,5,12,0:0:0:0:
56,88,288646,1,8,0:0:0:0:
40,128,288763,1,8,0:0:0:0:
32,168,288880,1,8,0:0:0:0:
32,208,288997,1,8,0:0:0:0:
40,248,289114,1,8,0:0:0:0:
56,288,289232,1,6,0:0:0:0:
160,264,289700,6,0,L|136:200,1,63.7500024318696,8|0,0:0|0:0,0:0:0:0:
192,240,289935,2,0,L|192:168,1,63.7500024318696,8|0,0:0|0:0,0:0:0:0:
240,224,290169,2,0,L|256:160,1,63.7500024318696,8|0,0:0|0:0,0:0:0:0:
280,224,290403,1,8,0:0:0:0:
368,280,290638,1,0,0:0:0:0:
368,280,290872,1,8,0:0:0:0:
432,336,291107,1,8,0:0:0:0:
480,264,291341,1,8,0:0:0:0:
408,112,291810,1,0,0:0:0:0:
248,56,292278,1,0,0:0:0:0:
168,88,292513,1,0,0:0:0:0:
80,80,292747,2,0,L|24:96,2,42.5,0|0|4,0:0|0:0|0:0,0:0:0:0:
256,184,293685,6,0,P|296:168|336:168,2,63.7500024318696,8|0|8,0:0|0:0|0:0,0:0:0:0:
168,280,294153,6,0,P|128:288|88:336,2,63.7500024318696,8|0|8,0:0|0:0|0:0,0:0:0:0:
128,160,294622,2,0,P|104:112|104:88,2,63.7500024318696,8|0|8,0:0|0:0|0:0,0:0:0:0:
224,248,295091,1,8,0:0:0:0:
320,328,295325,2,0,P|400:312|456:280,1,127.500004863739,8|8,0:0|0:0,0:0:0:0:
448,120,296028,5,8,0:0:0:0:
368,144,296263,1,8,0:0:0:0:
328,144,296380,1,8,0:0:0:0:
288,144,296497,1,8,0:0:0:0:
248,136,296614,1,8,0:0:0:0:
208,144,296732,2,0,P|152:176|104:176,1,85,4|0,0:0|0:0,0:0:0:0:
56,208,297200,1,8,0:0:0:0:
88,288,297435,5,8,0:0:0:0:
88,288,297552,1,8,0:0:0:0:
88,288,297669,2,0,P|144:264|200:272,1,85,8|0,0:0|0:0,0:0:0:0:
232,312,298138,1,0,0:0:0:0:
320,312,298372,1,4,0:0:0:0:
232,312,298607,1,8,0:0:0:0:
320,312,298841,2,0,L|235:312,1,85,8|0,0:0|0:0,0:0:0:0:
272,240,299310,1,8,0:0:0:0:
296,208,299427,1,8,0:0:0:0:
336,184,299544,1,8,0:0:0:0:
416,152,299778,1,8,0:0:0:0:
504,144,300013,1,8,0:0:0:0:
504,144,300130,1,8,0:0:0:0:
504,144,300247,1,8,0:0:0:0:
504,144,300482,6,0,P|464:88|344:64,1,170,4|0,0:0|0:0,0:0:0:0:
288,56,301185,2,0,P|256:80|184:104,1,85,0|8,0:0|0:0,0:0:0:0:
168,168,301653,1,8,0:0:0:0:
256,192,301888,5,8,0:0:0:0:
256,192,302122,2,0,P|336:208|424:184,2,170,8|0|0,0:0|0:0|0:0,0:0:0:0:
296,360,303528,5,8,0:0:0:0:
296,227,303763,1,8,0:0:0:0:
181,293,303997,1,8,0:0:0:0:
334,293,304232,1,8,0:0:0:0:
219,360,304466,1,8,0:0:0:0:
219,227,304700,1,8,0:0:0:0:
256,144,305403,6,0,L|256:80,1,63.7500024318696,8|0,0:0|0:0,0:0:0:0:
224,168,305637,2,0,L|160:168,1,63.7500024318696,8|0,0:0|0:0,0:0:0:0:
256,192,305872,2,0,L|256:256,1,63.7500024318696,8|0,0:0|0:0,0:0:0:0:
280,168,306107,1,4,0:0:0:0:
408,280,306575,1,8,0:0:0:0:
272,344,307044,1,8,0:0:0:0:
128,256,307513,1,8,0:0:0:0:
128,256,307630,1,8,0:0:0:0:
128,256,307747,2,0,P|72:208|64:176,1,85,8|0,0:0|0:0,0:0:0:0:
152,48,308450,1,8,0:0:0:0:
152,48,308567,1,8,0:0:0:0:
152,48,308685,2,0,P|208:64|256:64,1,85,8|0,0:0|0:0,0:0:0:0:
400,104,309388,5,0,0:0:0:0:
256,192,309857,1,8,0:0:0:0:
200,256,310091,1,8,0:0:0:0:
280,224,310325,1,8,0:0:0:0:
272,312,310560,1,8,0:0:0:0:
328,248,310794,1,8,0:0:0:0:
368,320,311028,1,8,0:0:0:0:
384,232,311263,1,8,0:0:0:0:
456,280,311497,1,0,0:0:0:0:
424,200,311732,6,0,P|424:136|400:96,1,85,8|0,0:0|0:0,0:0:0:0:
344,88,312200,2,8,P|264:104|232:96,1,85
216,32,312669,2,0,P|160:56|136:96,1,85,8|0,0:0|0:0,0:0:0:0:
120,152,313138,1,8,0:0:0:0:
120,152,313255,1,8,0:0:0:0:
120,152,313372,1,8,0:0:0:0:
80,272,313607,6,0,L|224:272,1,127.500004863739,4|8,0:0|0:0,0:0:0:0:
192,144,314075,2,0,L|336:144,1,127.500004863739,0|8,0:0|0:0,0:0:0:0:
304,272,314544,2,0,L|432:272,1,127.500004863739,0|8,0:0|0:0,0:0:0:0:
448,144,315013,2,0,L|312:144,1,127.500004863739,0|8,0:0|0:0,0:0:0:0:
256,32,315482,2,0,L|256:160,1,127.500004863739,0|8,0:0|0:0,0:0:0:0:
256,248,315950,5,0,0:0:0:0:
256,336,316185,1,0,0:0:0:0:
256,248,316419,1,0,0:0:0:0:
88,248,316888,1,8,0:0:0:0:
88,80,317357,5,8,0:0:0:0:
168,88,317591,1,8,0:0:0:0:
248,112,317825,1,8,0:0:0:0:
320,152,318060,1,8,0:0:0:0:
384,208,318294,5,8,0:0:0:0:
440,272,318528,1,8,0:0:0:0:
464,304,318646,1,8,0:0:0:0:
480,344,318763,1,8,0:0:0:0:
392,352,318997,1,8,0:0:0:0:
312,328,319232,1,8,0:0:0:0:
256,192,319349,12,2,320638,0:0:0:0:
80,192,321107,6,0,P|96:144|144:112,1,85,4|0,0:0|0:0,0:0:0:0:
208,80,321575,2,0,P|208:128|176:176,1,85
184,248,322044,2,0,P|232:232|256:208,1,85
320,144,322513,1,8,0:0:0:0:
320,144,322630,1,8,0:0:0:0:
320,144,322747,2,0,L|320:256,1,85,8|0,0:0|0:0,0:0:0:0:
400,192,323216,1,0,0:0:0:0:
472,144,323450,1,8,0:0:0:0:
472,144,323567,1,8,0:0:0:0:
472,144,323685,2,0,L|472:240,1,85,8|0,0:0|0:0,0:0:0:0:
304,192,324388,1,0,0:0:0:0:
168,296,324857,5,8,0:0:0:0:
87,184,325091,1,8,0:0:0:0:
217,227,325325,1,8,0:0:0:0:
87,269,325560,1,8,0:0:0:0:
168,158,325794,1,8,0:0:0:0:
297,115,326028,1,8,0:0:0:0:
167,72,326262,1,8,0:0:0:0:
248,184,326497,1,8,0:0:0:0:
248,48,326732,5,8,0:0:0:0:
167,157,326965,1,8,0:0:0:0:
167,157,327200,1,8,0:0:0:0:
297,115,327669,1,4,0:0:0:0:
464,120,328138,1,8,0:0:0:0:
464,160,328255,1,8,0:0:0:0:
432,184,328372,1,8,0:0:0:0:
376,248,328607,6,0,L|280:288,1,85,4|8,0:0|0:0,0:0:0:0:
216,304,329075,2,0,L|104:296,1,85,0|8,0:0|0:0,0:0:0:0:
72,232,329544,2,0,L|88:128,1,85,0|8,0:0|0:0,0:0:0:0:
136,80,330013,2,0,L|248:56,1,85,0|8,0:0|0:0,0:0:0:0:
304,72,330482,2,0,L|264:152,1,85,8|0,0:0|0:0,0:0:0:0:
200,208,330950,1,8,0:0:0:0:
280,240,331185,1,8,0:0:0:0:
344,192,331419,2,0,P|384:168|448:176,1,85,8|8,0:0|0:0,0:0:0:0:
440,248,331888,2,0,P|424:288|392:320,1,85,8|8,0:0|0:0,0:0:0:0:
396,318,332357,5,8,0:0:0:0:
304,320,332591,1,0,0:0:0:0:
216,312,332825,1,8,0:0:0:0:
136,336,333060,1,0,0:0:0:0:
152,256,333294,1,0,0:0:0:0:
112,176,333528,1,8,0:0:0:0:
112,176,333646,1,8,0:0:0:0:
112,176,333763,1,8,0:0:0:0:
112,176,333997,1,8,0:0:0:0:
256,192,334114,12,2,337044,0:0:0:0:
256,192,337513,5,8,0:0:0:0:
256,192,337630,1,8,0:0:0:0:
176,288,337982,1,8,0:0:0:0:
176,288,338099,1,8,0:0:0:0:
176,288,338216,2,0,P|128:232|104:128,1,170,8|8,0:0|0:0,0:0:0:0:
256,64,339153,2,0,L|344:112,1,85,0|8,0:0|0:0,0:0:0:0:
288,176,339622,2,0,L|368:240,1,85,0|8,0:0|0:0,0:0:0:0:
208,320,340325,5,0,0:0:0:0:
208,320,340560,1,0,0:0:0:0:
184,240,340794,1,0,0:0:0:0:
160,160,341028,1,0,0:0:0:0:
232,120,341263,2,0,L|320:80,1,85,0|8,0:0|0:0,0:0:0:0:
336,168,341732,2,0,L|421:168,1,85,0|8,0:0|0:0,0:0:0:0:
416,256,342200,2,0,L|367:325,2,85,0|8|0,0:0|0:0|0:0,0:0:0:0:
328,256,342903,5,0,0:0:0:0:
248,288,343138,1,0,0:0:0:0:
168,256,343372,1,0,0:0:0:0:
168,168,343607,5,8,0:0:0:0:
88,136,343841,1,8,0:0:0:0:
168,168,344075,1,8,0:0:0:0:
120,96,344310,1,8,0:0:0:0:
208,112,344544,5,8,0:0:0:0:
152,48,344778,1,8,0:0:0:0:
208,112,345013,1,8,0:0:0:0:
208,72,345130,1,8,0:0:0:0:
208,24,345247,1,8,0:0:0:0:
272,80,345482,5,4,0:0:0:0:
256,192,345599,12,0,348294,0:0:0:0:
256,192,348763,5,8,0:0:0:0:
104,120,349232,2,0,L|184:72,1,85,8|0,0:0|0:0,0:0:0:0:
176,160,349700,2,0,L|264:104,1,85,8|0,0:0|0:0,0:0:0:0:
328,144,350169,2,0,L|248:200,1,85,8|0,0:0|0:0,0:0:0:0:
336,224,350638,2,0,L|248:292,1,85,8|0,0:0|0:0,0:0:0:0:
272,360,351107,5,8,0:0:0:0:
268,276,351341,1,8,0:0:0:0:
184,232,351575,2,8,L|176:144,1,85
240,88,352044,2,0,L|320:136,1,85,8|0,0:0|0:0,0:0:0:0:
256,192,352513,5,8,0:0:0:0:
190,32,352982,2,0,P|112:112|120:336,1,340,8|0,0:0|0:0,0:0:0:0:
194,327,354153,1,0,0:0:0:0:
194,327,354388,2,0,L|296:296,1,85,8|0,0:0|0:0,0:0:0:0:
360,280,354857,2,0,L|416:168,1,85,8|0,0:0|0:0,0:0:0:0:
256,280,355560,1,4,0:0:0:0:
80,312,356263,6,8,P|80:256|112:232,1,85
176,280,356732,2,8,P|224:272|256:248,1,85
200,192,357200,2,8,P|224:152|272:144,1,85
336,176,357669,1,0,0:0:0:0:
304,256,357903,5,8,0:0:0:0:
336,336,358138,1,8,0:0:0:0:
392,272,358372,1,8,0:0:0:0:
424,192,358607,5,8,0:0:0:0:
392,112,358841,1,8,0:0:0:0:
312,80,359075,1,8,0:0:0:0:
224,80,359310,1,8,0:0:0:0:
144,120,359544,5,8,0:0:0:0:
112,200,359778,1,8,0:0:0:0:
128,288,360013,1,8,0:0:0:0:
152,320,360130,1,8,0:0:0:0:
190,351,360247,1,8,0:0:0:0:
190,351,360482,2,0,P|256:96|320:352,1,680,4|0,0:0|0:0,0:0:0:0:
256,192,363528,5,8,0:0:0:0:
256,192,363646,1,8,0:0:0:0:
256,192,363763,1,8,0:0:0:0:
256,360,364232,5,4,0:0:0:0:
256,272,364466,1,8,0:0:0:0:
344,272,364700,1,8,0:0:0:0:
344,184,364935,1,8,0:0:0:0:
344,96,365169,5,8,0:0:0:0:
344,184,365403,1,8,0:0:0:0:
256,192,365638,1,8,0:0:0:0:
168,192,365872,1,8,0:0:0:0:
80,200,366107,2,8,L|80:96,1,85
80,32,366575,5,4,0:0:0:0:
168,32,366810,1,8,0:0:0:0:
168,120,367044,1,8,0:0:0:0:
256,120,367278,1,8,0:0:0:0:
344,120,367513,5,8,0:0:0:0:
344,208,367747,1,8,0:0:0:0:
344,296,367982,1,8,0:0:0:0:
432,296,368216,1,8,0:0:0:0:
432,208,368450,5,8,0:0:0:0:
432,168,368567,1,8,0:0:0:0:
432,128,368685,1,8,0:0:0:0:
432,88,368802,1,8,0:0:0:0:
432,48,368919,1,12,0:0:0:0:
320,64,369388,5,8,0:0:0:0:
320,64,369505,1,8,0:0:0:0:
320,64,369622,5,8,0:0:0:0:
256,120,369857,1,8,0:0:0:0:
223,198,370091,1,4,0:0:0:0:
144,248,370325,5,8,0:0:0:0:
144,248,370442,1,8,0:0:0:0:
144,248,370560,1,8,0:0:0:0:
80,192,370794,5,8,0:0:0:0:
40,112,371028,1,4,0:0:0:0:
120,144,371263,1,8,0:0:0:0:
80,64,371497,1,8,0:0:0:0:
168,72,371732,1,8,0:0:0:0:
168,72,371849,1,8,0:0:0:0:
168,72,371966,2,0,P|208:96|280:104,1,85,8|8,0:0|0:0,0:0:0:0:
328,120,372435,1,8,0:0:0:0:
416,128,372669,1,8,0:0:0:0:
256,192,373138,5,8,0:0:0:0:
256,192,373255,1,8,0:0:0:0:
256,192,373372,1,8,0:0:0:0:
256,192,373489,1,8,0:0:0:0:
256,192,373607,12,0,379232,0:0:0:0:
