osu file format v12

[General]
AudioFilename: anesthesia.mp3
AudioLeadIn: 0
PreviewTime: 52119
Countdown: 0
SampleSet: Soft
StackLeniency: 0.7
Mode: 0
LetterboxInBreaks: 1
WidescreenStoryboard: 0

[Editor]
Bookmarks: 125648
DistanceSpacing: 1.2
BeatDivisor: 4
GridSize: 4

[Metadata]
Title:anesthesia
TitleUnicode:anesthesia
Artist:Chata
ArtistUnicode:茶太
Creator:hoLysoup
Version:Hard
Source:
Tags:Azure 而立 さよなら20代 jiritsu sayonara
BeatmapID:240554
BeatmapSetID:77093

[Difficulty]
HPDrainRate:5
CircleSize:4
OverallDifficulty:5
ApproachRate:7
SliderMultiplier:1.4
SliderTickRate:1

[Events]
//Background and Video events
0,0,"BG.jpg",0,0
//Break Periods
2,78397,80435
2,172319,183964
//Storyboard Layer 0 (Background)
//Storyboard Layer 1 (Fail)
//Storyboard Layer 2 (Pass)
//Storyboard Layer 3 (Foreground)
//Storyboard Sound Samples
//Background Colour Transformations
3,100,163,162,255

[TimingPoints]
1335,392.156862745098,4,2,1,80,1,0
13295,-100,4,2,1,20,0,0
14864,-100,4,2,1,60,0,0
17021,-100,4,2,1,40,0,0
17119,-100,4,2,1,50,0,0
39864,-100,4,2,1,45,0,0
40256,-100,4,2,1,60,0,0
40550,-100,4,2,1,60,0,0
50746,-100,4,2,1,40,0,0
51138,-100,4,2,1,50,0,0
53099,-100,4,2,1,60,0,1
64864,-100,4,2,1,40,0,1
65256,-100,4,2,1,50,0,1
65648,-100,4,2,1,60,0,1
77217,-200,4,2,1,60,0,1
77805,-100,4,2,1,50,0,1
78197,-100,4,2,1,5,0,0
81236,-200,4,2,1,5,0,0
83589,-100,4,2,1,50,0,0
84374,-100,4,2,1,40,0,0
109570,-100,4,2,1,50,0,0
121236,-100,4,2,1,52,0,0
122119,-100,4,2,1,60,0,1
133589,-100,4,2,1,45,0,1
134570,-100,4,2,1,60,0,1
144962,-100,4,2,1,45,0,1
145550,-100,4,2,1,60,0,1
147217,-100,4,2,1,55,0,0
158295,-100,4,2,1,45,0,0
158491,-100,4,2,1,55,0,0
158687,-100,4,2,1,45,0,0
159374,-100,4,2,1,55,0,0
184766,-200,4,2,1,20,0,0
185452,-200,4,2,1,50,0,0
190256,-100,4,2,1,50,0,0
191138,-100,4,2,1,43,0,0
192707,-100,4,2,1,45,0,0
194276,-100,4,2,1,47,0,0
194570,-100,4,2,1,49,0,0
194962,-100,4,2,1,51,0,0
195354,-100,4,2,1,53,0,0
197413,-100,4,2,1,60,0,1
208884,-100,4,2,1,45,0,1
209570,-100,4,2,1,40,0,1
209962,-100,4,2,1,60,0,1
222413,-100,4,2,1,60,0,0
222511,-100,4,2,1,60,0,1
233982,-100,4,2,1,45,0,1
234962,-100,4,2,1,60,0,1
244227,-100,4,2,1,45,0,1
244423,-100,4,2,1,60,0,1
246531,-200,4,2,1,60,0,1
247609,-200,4,2,1,20,0,0

[Colours]
Combo1 : 244,132,132
Combo2 : 172,251,202
Combo3 : 175,210,254
Combo4 : 185,208,192

[HitObjects]
256,192,14864,1,0,0:0:0:0:
256,192,15060,1,0,0:0:0:0:
168,316,15452,6,0,B|136:332|100:328|100:328,1,70
32,288,15844,1,0,0:0:0:0:
32,288,16040,2,0,P|28:216|40:144,1,140
88,88,16629,1,0,0:0:0:0:
232,144,17021,6,0,L|304:132,1,70
376,120,17413,1,0,0:0:0:0:
376,120,17609,2,0,P|388:188|384:260,1,140
352,328,18197,1,0,0:0:0:0:
212,268,18589,5,0,0:0:0:0:
212,268,18785,2,0,L|140:280,1,70
64,304,19178,2,0,P|48:264|48:228,1,70
112,136,19570,2,0,P|128:176|128:212,1,70
212,268,19962,1,0,0:0:0:0:
212,268,20158,2,0,L|356:244,1,140
436,240,20746,2,0,P|444:268|436:308,2,70
276,112,21531,5,0,0:0:0:0:
276,112,21727,2,0,P|240:120|204:112,1,70
148,64,22119,1,0,0:0:0:0:
92,116,22315,2,0,B|76:176|108:216|108:216|96:252,1,140
68,320,22903,1,0,0:0:0:0:
68,320,23099,2,0,B|128:340|208:320|208:320,1,140
280,292,23687,1,0,0:0:0:0:
280,292,23884,2,0,B|278:292|358:272|418:292,1,140
488,256,24472,1,0,0:0:0:0:
480,168,24668,1,0,0:0:0:0:
412,124,24864,6,0,B|356:140|304:116|304:116|272:128,1,140
220,180,25452,2,0,B|204:252|224:324,1,140
222,318,26040,1,0,0:0:0:0:
376,320,26433,2,0,B|412:328|456:324|456:324,1,70
476,252,26825,1,0,0:0:0:0:
476,252,27021,2,0,B|404:240|332:244|332:244,1,140
260,244,27609,1,0,0:0:0:0:
148,80,28001,6,0,P|140:116|144:152,2,70,8|0|0,0:0|0:0|0:0,0:0:0:0:
216,48,28589,2,0,P|252:56|288:52,1,70,0|8,0:0|0:0,0:0:0:0:
360,76,28982,1,0,0:0:0:0:
352,152,29178,1,0,0:0:0:0:
412,344,29570,6,0,P|420:308|416:272,1,70,8|0,0:0|0:0,0:0:0:0:
344,232,29962,1,0,0:0:0:0:
336,304,30158,2,0,P|305:318|264:324,1,70,0|8,0:0|0:0,0:0:0:0:
201,340,30550,1,0,0:0:0:0:
201,340,30746,1,0,0:0:0:0:
92,148,31138,6,0,L|72:216,2,70,8|0|0,0:0|0:0|0:0,0:0:0:0:
184,152,31727,2,0,L|164:84,2,70,0|8|0,0:0|0:0|0:0,0:0:0:0:
264,128,32315,1,0,0:0:0:0:
424,292,32707,2,0,P|424:328|412:360,1,70,0|0,1:0|0:0,0:0:0:0:
336,372,33099,2,0,P|336:336|348:304,1,70
368,228,33491,2,0,P|380:160|368:88,1,140,8|0,0:0|0:0,0:0:0:0:
143,90,34276,6,0,P|132:160|144:228,1,140,0|0,1:0|0:0,0:0:0:0:
204,276,34864,1,0,0:0:0:0:
204,276,35060,2,0,P|208:312|204:348,2,70,8|0|0,0:0|0:0|0:0,0:0:0:0:
284,132,35844,2,0,P|280:96|284:60,2,70,0|0|0,1:0|0:0|0:0,0:0:0:0:
344,180,36433,2,0,P|380:180|416:168,1,70,8|0,0:0|0:0,0:0:0:0:
476,124,36825,1,0,0:0:0:0:
504,196,37021,1,0,0:0:0:0:
484,272,37217,1,0,0:0:0:0:
428,328,37413,6,0,L|368:364,1,70,0|0,1:0|0:0,0:0:0:0:
316,308,37805,2,0,L|244:296,2,70,0|0|0,0:0|0:0|0:0,0:0:0:0:
384,256,38393,1,8,0:0:0:0:
384,256,38589,1,8,0:0:0:0:
320,116,38982,6,0,P|256:88|188:96,1,140,0|0,1:0|0:0,0:0:0:0:
128,148,39570,2,0,P|112:216|128:288,1,140,8|8,0:0|0:0,0:0:0:0:
192,320,40158,1,8,0:0:0:0:
344,320,40550,6,0,P|412:280|420:208,1,140,4|0,0:0|0:0,0:0:0:0:
424,148,41138,2,0,P|356:188|348:260,1,140,0|0,0:0|0:0,0:0:0:0:
272,276,41727,1,8,0:0:0:0:
136,348,42119,6,0,P|68:340|36:280,1,140,0|0,0:0|0:0,0:0:0:0:
104,244,42707,2,0,B|132:188|96:140|96:140|124:112,1,140
116,119,43295,1,8,0:0:0:0:
268,88,43687,6,0,L|340:76,1,70,0|0,0:0|0:0,0:0:0:0:
408,104,44080,1,0,0:0:0:0:
408,104,44276,2,0,P|420:172|416:252,1,140
384,312,44864,1,8,0:0:0:0:
312,336,45060,1,0,0:0:0:0:
312,336,45256,6,0,P|240:332|168:340,1,140,0|0,0:0|0:0,0:0:0:0:
108,248,45844,2,0,P|180:252|252:244,1,140
312,196,46433,1,8,0:0:0:0:
312,196,46629,1,8,0:0:0:0:
388,212,46825,6,0,P|400:144|388:68,1,140,4|0,0:0|0:0,0:0:0:0:
316,52,47413,2,0,P|236:52|172:56,1,140,0|8,0:0|0:0,0:0:0:0:
176,55,48001,1,8,0:0:0:0:
84,232,48393,2,0,B|156:220|232:232|232:232,1,140
188,300,48982,2,0,B|179:298|255:310|327:298,1,140,0|8,0:0|0:0,0:0:0:0:
384,248,49570,1,8,0:0:0:0:
312,88,49962,6,0,P|280:76|248:52,1,70
192,112,50354,2,0,B|156:120|120:120|120:120,1,70,8|0,0:0|0:0,0:0:0:0:
160,200,50746,2,8,P|156:236|156:276,2,70
256,212,51335,1,8,0:0:0:0:
272,300,51531,1,8,0:0:0:0:
356,284,51727,1,8,0:0:0:0:
384,104,52119,5,8,0:0:0:0:
384,104,52315,1,8,0:0:0:0:
192,164,52707,1,8,0:0:0:0:
192,164,52903,1,8,0:0:0:0:
124,112,53099,6,0,B|112:76|120:44|120:44,1,70,4|0,0:0|0:0,0:0:0:0:
56,160,53491,2,0,B|72:228|64:304|64:304,1,140,8|0,0:0|0:0,0:0:0:0:
128,344,54080,1,0,0:0:0:0:
128,344,54276,1,8,0:0:0:0:
192,288,54472,1,0,0:0:0:0:
276,304,54668,6,0,B|312:288|356:292|356:292,1,70,2|0,0:0|0:0,0:0:0:0:
412,328,55060,2,0,B|452:336|484:332|484:332,2,70,8|0|0,0:0|0:0|0:0,0:0:0:0:
412,252,55648,1,0,0:0:0:0:
412,252,55844,1,8,0:0:0:0:
344,92,56236,6,0,P|308:76|272:72,1,70,2|0,0:0|0:0,0:0:0:0:
208,108,56629,2,0,B|200:148|208:184|208:184,1,70,8|0,0:0|0:0,0:0:0:0:
280,216,57021,2,0,B|320:200|340:176|340:176,2,70,0|0|8,0:0|0:0|0:0,0:0:0:0:
252,300,57609,1,0,0:0:0:0:
168,320,57805,6,0,B|92:320|24:332|24:332,1,140,2|8,0:0|0:0,0:0:0:0:
56,252,58393,1,0,0:0:0:0:
136,240,58589,2,0,L|208:232,2,70,0|0|8,0:0|0:0|0:0,0:0:0:0:
72,88,59374,6,0,B|144:76|212:76,1,140,4|8,0:0|0:0,0:0:0:0:
272,120,59962,1,0,0:0:0:0:
272,120,60158,2,0,P|272:156|264:192,2,70,0|0|8,0:0|0:0|0:0,0:0:0:0:
332,72,60746,1,0,0:0:0:0:
396,116,60942,6,0,P|408:184|400:264,1,140,2|8,0:0|0:0,0:0:0:0:
380,328,61531,1,0,0:0:0:0:
312,292,61727,2,0,L|228:304,2,70,0|0|8,0:0|0:0|0:0,0:0:0:0:
120,248,62511,6,0,L|108:176,1,70,2|0,0:0|0:0,0:0:0:0:
116,104,62903,2,0,P|188:112|260:108,1,140,8|0,0:0|0:0,0:0:0:0:
324,76,63491,1,0,0:0:0:0:
324,76,63687,2,0,B|344:124|320:180|320:180|340:208,1,140,8|0,0:0|0:0,0:0:0:0:
376,276,64276,1,8,0:0:0:0:
376,276,64472,1,8,0:0:0:0:
180,324,64864,2,8,L|192:364,2,35
108,296,65256,2,8,L|84:328,2,35
168,248,65648,6,0,P|180:176|172:108,1,140,4|8,0:0|0:0,0:0:0:0:
364,144,66433,1,0,0:0:0:0:
420,196,66629,1,0,0:0:0:0:
420,196,66825,2,0,P|408:268|416:336,1,140,8|2,0:0|0:0,0:0:0:0:
256,300,67609,6,0,L|104:316,1,140,8|0,0:0|0:0,0:0:0:0:
40,320,68197,1,0,0:0:0:0:
40,320,68393,1,8,0:0:0:0:
128,196,68785,2,0,P|140:160|144:128,1,70,2|0,0:0|0:0,0:0:0:0:
220,108,69178,2,0,P|252:128|284:136,1,70,8|0,0:0|0:0,0:0:0:0:
248,208,69570,2,0,P|244:248|252:288,2,70,0|0|8,0:0|0:0|0:0,0:0:0:0:
324,240,70158,1,0,0:0:0:0:
324,240,70354,6,0,P|332:168|328:96,2,140,2|8|0,0:0|0:0|0:0,0:0:0:0:
276,300,71335,1,0,0:0:0:0:
276,300,71531,1,8,0:0:0:0:
140,192,71923,6,0,P|132:264|136:336,2,140,4|8|0,0:0|0:0|0:0,0:0:0:0:
184,128,72903,1,0,0:0:0:0:
184,128,73099,2,0,B|224:128|256:136|256:136|288:128|328:128,1,140,8|2,0:0|0:0,0:0:0:0:
372,192,73687,1,0,0:0:0:0:
372,192,73884,2,0,P|380:264|376:336,2,140,8|0|8,0:0|0:0|0:0,0:0:0:0:
264,296,75060,6,0,P|192:316|128:292,1,140,2|8,0:0|0:0,0:0:0:0:
132,220,75648,2,0,P|204:200|268:224,1,140
336,256,76236,1,8,0:0:0:0:
336,256,76433,2,0,L|416:256,2,70,0|8|8,0:0|0:0|0:0,0:0:0:0:
256,76,77217,6,0,B|240:160|272:160|256:256,1,175
256,192,81335,6,0,B|248:260|264:260|256:340,2,140
256,44,83687,5,8,0:0:0:0:
200,100,83884,2,8,L|124:100,2,70
272,120,84472,6,0,B|280:152|280:196|280:196,1,70,12|0,0:0|0:0,0:0:0:0:
316,256,84864,1,8,0:0:0:0:
316,256,85060,1,0,0:0:0:0:
152,324,85452,1,0,0:0:0:0:
152,324,85648,2,0,L|80:316,1,70,8|0,0:0|0:0,0:0:0:0:
52,236,86040,2,0,P|120:240|200:256,2,140,8|8|8,0:0|0:0|0:0,0:0:0:0:
56,312,87021,2,0,L|44:384,1,70,0|8,0:0|0:0,0:0:0:0:
92,144,87609,6,0,L|104:72,1,70,8|0,0:0|0:0,0:0:0:0:
176,44,88001,1,8,0:0:0:0:
176,44,88197,2,0,P|248:44|340:64,1,140
368,120,88785,1,8,0:0:0:0:
444,148,88982,1,0,0:0:0:0:
440,232,89178,2,0,L|380:272,1,70,8|0,0:0|0:0,0:0:0:0:
308,280,89570,2,0,P|304:320|312:352,1,70,8|0,0:0|0:0,0:0:0:0:
224,352,89962,2,0,P|228:312|220:280,2,70,8|0|8,0:0|0:0|0:0,0:0:0:0:
88,276,90746,6,0,P|48:216|80:140,1,140,8|8,0:0|0:0,0:0:0:0:
136,180,91335,2,0,L|276:168,1,140
340,124,91923,1,8,0:0:0:0:
416,260,92315,2,0,B|420:304|436:340|436:340,2,70,8|0|8,0:0|0:0|0:0,0:0:0:0:
500,272,92903,2,0,B|496:200|468:132|468:132,1,140
412,88,93491,1,8,0:0:0:0:
256,84,93884,6,0,B|196:84|180:120|116:120,1,140,8|8,0:0|0:0,0:0:0:0:
44,120,94472,2,0,P|24:188|44:256,1,140
42,252,95060,1,8,0:0:0:0:
172,336,95452,2,0,L|244:348,1,70,8|0,0:0|0:0,0:0:0:0:
320,348,95844,2,0,L|389:336,2,70,8|0|8,0:0|0:0|0:0,0:0:0:0:
280,284,96433,1,8,0:0:0:0:
308,212,96629,1,0,0:0:0:0:
252,160,96825,1,8,0:0:0:0:
224,232,97021,6,0,P|152:240|76:236,2,140,4|8|8,0:0|0:0|0:0,0:0:0:0:
252,160,98001,1,0,0:0:0:0:
252,160,98197,1,8,0:0:0:0:
432,176,98589,6,0,P|436:104|420:36,2,140,8|8|8,0:0|0:0|0:0,0:0:0:0:
396,244,99570,1,0,0:0:0:0:
432,312,99766,1,8,0:0:0:0:
280,312,100158,6,0,B|216:312|216:344|140:344,1,140,8|8,0:0|0:0,0:0:0:0:
68,340,100746,2,0,P|48:268|68:204,1,140
66,207,101335,1,8,0:0:0:0:
220,204,101727,2,0,L|288:180,1,70,8|0,0:0|0:0,0:0:0:0:
256,112,102119,2,0,L|192:72,1,70,8|0,0:0|0:0,0:0:0:0:
144,132,102511,2,0,L|144:208,2,70,8|0|8,0:0|0:0|0:0,0:0:0:0:
264,36,103295,6,0,P|336:28|416:36,1,140,8|8,0:0|0:0,0:0:0:0:
468,76,103884,2,0,B|488:124|460:180|460:180|472:212,1,140
456,284,104472,1,8,0:0:0:0:
456,284,104668,1,0,0:0:0:0:
384,260,104864,6,0,P|312:256|240:268,1,140,8|8,0:0|0:0,0:0:0:0:
192,324,105452,2,0,B|160:296|160:248|184:220|184:220|168:200|148:188,1,140
104,152,106040,1,8,0:0:0:0:
272,128,106433,6,0,P|342:120|416:116,2,140,8|8|8,0:0|0:0|0:0,0:0:0:0:
208,64,107413,1,8,0:0:0:0:
124,80,107609,1,8,0:0:0:0:
104,164,107805,1,0,0:0:0:0:
144,244,108001,6,0,P|160:312|224:348,1,140,0|8,0:0|0:0,0:0:0:0:
295,347,108589,2,0,P|352:312|368:244,1,140,8|0,0:0|0:0,0:0:0:0:
316,188,109178,1,8,0:0:0:0:
256,236,109374,1,8,0:0:0:0:
196,188,109570,6,0,P|120:184|56:192,1,140,4|8,0:0|0:0,0:0:0:0:
0,112,110158,2,0,P|76:116|140:108,1,140
216,112,110746,1,8,0:0:0:0:
400,144,111138,6,0,L|480:128,1,70
476,208,111531,1,8,0:0:0:0:
476,208,111727,2,0,L|328:236,1,140
260,228,112315,1,8,0:0:0:0:
108,284,112707,6,0,L|256:312,1,140,0|8,1:0|0:0,0:0:0:0:
332,316,113295,1,0,0:0:0:0:
332,316,113491,2,0,B|368:304|408:308|408:308,1,70
480,308,113884,2,0,P|488:272|484:236,1,70,8|0,0:0|0:0,0:0:0:0:
412,220,114276,2,0,B|400:152|416:80|416:80,2,140,0|8|0,1:0|0:0|0:0,0:0:0:0:
340,244,115256,1,8,0:0:0:0:
340,244,115452,1,8,0:0:0:0:
192,212,115844,6,0,B|204:280|188:352|188:352,2,140,4|8|0,0:0|0:0|0:0,0:0:0:0:
112,228,116825,1,0,0:0:0:0:
112,228,117021,2,0,B|76:240|40:240|40:240,1,70,8|0,0:0|0:0,0:0:0:0:
72,156,117413,6,0,B|136:136|212:132|212:132,1,140,0|8,0:0|0:0,0:0:0:0:
268,84,118001,1,0,0:0:0:0:
280,160,118197,2,0,L|288:236,2,70,0|0|8,0:0|0:0|0:0,0:0:0:0:
300,312,118982,6,0,B|232:340|156:332,1,140,0|8,0:0|0:0,0:0:0:0:
104,284,119570,1,0,0:0:0:0:
168,232,119766,2,0,P|176:196|176:160,1,70,0|8,0:0|0:0,0:0:0:0:
104,132,120158,2,0,P|96:168|96:204,2,70,8|8|8,0:0|0:0|0:0,0:0:0:0:
168,88,120746,5,8,0:0:0:0:
244,76,120942,1,8,0:0:0:0:
320,64,121138,1,0,0:0:0:0:
396,52,121334,2,8,L|432:48,4,35
432,136,121923,1,8,0:0:0:0:
432,136,122119,6,0,P|436:208|424:288,2,140,4|8|0,0:0|0:0|0:0,0:0:0:0:
344,144,123099,2,0,L|272:156,1,70,0|8,0:0|0:0,0:0:0:0:
244,232,123491,1,0,0:0:0:0:
256,308,123687,2,0,L|184:320,1,70,2|0,0:0|0:0,0:0:0:0:
112,332,124080,1,8,0:0:0:0:
112,332,124276,2,0,B|72:272|104:196,1,140
103,198,124864,1,8,0:0:0:0:
256,228,125256,6,0,L|328:240,1,70,2|0,0:0|0:0,0:0:0:0:
400,264,125648,2,0,P|436:264|472:252,1,70,8|0,0:0|0:0,0:0:0:0:
456,176,126040,1,0,0:0:0:0:
456,176,126236,2,0,P|420:176|384:188,1,70,0|8,0:0|0:0,0:0:0:0:
308,160,126629,1,0,0:0:0:0:
256,228,126825,2,0,P|248:304|260:372,2,140,2|8|0,0:0|0:0|0:0,0:0:0:0:
308,160,127805,1,0,0:0:0:0:
308,160,128001,1,8,0:0:0:0:
176,84,128393,6,0,B|140:92|104:84|104:84,1,70,4|0,0:0|0:0,0:0:0:0:
40,120,128785,1,8,0:0:0:0:
40,120,128982,2,0,P|32:184|44:260,1,140
112,296,129570,1,8,0:0:0:0:
112,296,129766,2,0,L|188:308,1,70,0|2,0:0|0:0,0:0:0:0:
252,276,130158,1,0,0:0:0:0:
220,208,130354,2,0,P|216:284|220:356,2,140,8|0|8,0:0|0:0|0:0,0:0:0:0:
252,136,131335,1,0,0:0:0:0:
328,112,131531,6,0,P|364:104|404:104,1,70,2|0,0:0|0:0,0:0:0:0:
380,184,131923,2,0,P|344:192|304:192,1,70,8|0,0:0|0:0,0:0:0:0:
144,68,132315,2,0,P|180:60|220:60,1,70,0|0,0:0|0:0,0:0:0:0:
252,136,132707,2,0,P|216:144|176:144,1,70,8|0,0:0|0:0,0:0:0:0:
100,140,133099,5,10,0:0:0:0:
100,140,133295,1,8,0:0:0:0:
124,312,133687,1,8,0:0:0:0:
124,312,133884,1,8,0:0:0:0:
272,224,134276,1,8,0:0:0:0:
272,224,134472,1,8,0:0:0:0:
304,156,134668,6,0,P|332:136|372:124,1,70,4|0,0:0|0:0,0:0:0:0:
364,200,135060,2,0,B|356:240|364:272|364:272,1,70,8|0,0:0|0:0,0:0:0:0:
436,296,135452,2,0,B|444:256|436:224|436:224,2,70,0|0|8,0:0|0:0|0:0,0:0:0:0:
372,340,136040,2,0,P|304:352|232:336,1,140
160,320,136629,1,8,0:0:0:0:
160,320,136825,1,0,0:0:0:0:
40,184,137217,5,0,0:0:0:0:
40,184,137413,2,0,P|32:216|28:260,1,70,8|0,0:0|0:0,0:0:0:0:
104,264,137805,2,0,B|120:192|112:120|112:120,1,140,2|8,0:0|0:0,0:0:0:0:
68,60,138393,1,0,0:0:0:0:
144,60,138589,1,0,0:0:0:0:
144,60,138785,2,0,L|224:52,1,70,0|8,0:0|0:0,0:0:0:0:
292,52,139178,1,0,0:0:0:0:
292,52,139374,2,0,P|300:124|300:208,1,140,2|8,0:0|0:0,0:0:0:0:
268,260,139962,1,0,0:0:0:0:
268,260,140354,5,0,0:0:0:0:
196,236,140550,1,8,0:0:0:0:
140,288,140746,1,0,0:0:0:0:
212,312,140942,6,0,P|284:308|364:312,1,140,4|8,0:0|0:0,0:0:0:0:
428,328,141531,2,0,B|460:272|424:216|424:216|456:192,1,140
376,160,142119,1,8,0:0:0:0:
224,188,142511,6,0,L|156:176,1,70,2|0,0:0|0:0,0:0:0:0:
88,212,142903,2,0,B|72:136|88:72|88:72,2,140,8|0|8,0:0|0:0|0:0,0:0:0:0:
120,292,143884,1,0,0:0:0:0:
196,328,144080,6,0,L|276:328,1,70,2|0,0:0|0:0,0:0:0:0:
356,324,144472,2,0,B|364:280|364:244|364:244,1,70,8|0,0:0|0:0,0:0:0:0:
336,172,144864,2,0,L|256:172,1,70
176,168,145256,2,0,B|168:212|168:248|168:248,2,70,8|8|8,0:0|0:0|0:0,0:0:0:0:
224,104,145844,5,8,0:0:0:0:
340,252,146236,1,8,0:0:0:0:
212,380,146629,1,8,0:0:0:0:
96,240,147021,1,4,0:0:0:0:
224,104,147413,5,0,0:0:0:0:
224,104,147609,2,0,L|296:88,1,70,8|0,0:0|0:0,0:0:0:0:
296,168,148001,2,0,L|368:152,1,70
368,232,148393,2,0,L|440:216,1,70,8|0,0:0|0:0,0:0:0:0:
280,268,148785,6,0,L|288:340,1,70
196,240,149178,2,0,L|204:312,1,70,8|0,0:0|0:0,0:0:0:0:
112,212,149570,2,0,L|120:284,2,70,0|8|8,0:0|0:0|0:0,0:0:0:0:
160,136,150158,1,0,0:0:0:0:
256,192,150354,12,0,153491,0:0:0:0:
256,120,153884,5,8,0:0:0:0:
380,252,154276,2,0,P|392:284|400:320,1,70
328,344,154668,2,0,P|296:356|260:364,1,70,8|0,0:0|0:0,0:0:0:0:
244,288,155060,2,0,P|232:256|224:220,1,70
296,196,155452,2,0,P|328:184|364:176,1,70,8|0,0:0|0:0,0:0:0:0:
256,120,155844,2,0,P|224:132|188:140,1,70
112,176,156236,2,0,P|124:208|132:244,1,70,8|0,0:0|0:0,0:0:0:0:
256,192,156629,12,0,159766,0:0:0:0:
256,120,160158,5,4,0:0:0:0:
368,228,160550,1,0,0:0:0:0:
428,276,160746,1,0,0:0:0:0:
356,300,160942,1,8,0:0:0:0:
208,260,161335,2,0,B|136:264|68:284|68:284,2,140,0|8|0,1:0|0:0|0:0,0:0:0:0:
288,224,162315,1,0,0:0:0:0:
244,148,162511,1,8,0:0:0:0:
292,76,162707,1,0,0:0:0:0:
376,100,162903,6,0,B|396:168|392:252,2,140,0|8|0,1:0|0:0|0:0,0:0:0:0:
312,56,163884,1,0,0:0:0:0:
312,56,164080,1,8,0:0:0:0:
160,92,164472,2,0,B|128:72|128:72|88:104|16:88,2,140,0|8|0,1:0|0:0|0:0,0:0:0:0:
228,132,165452,1,0,0:0:0:0:
264,200,165648,1,8,0:0:0:0:
240,276,165844,6,0,P|184:320|120:304,1,140,0|0,1:0|0:0,0:0:0:0:
72,240,166433,1,8,0:0:0:0:
264,200,166825,2,0,L|344:188,1,70,0|0,0:0|0:0,0:0:0:0:
392,132,167217,2,0,B|400:96|388:60|388:60,1,70,8|0,0:0|0:0,0:0:0:0:
412,216,167609,2,0,B|404:252|416:288|416:288,1,70,0|0,1:0|0:0,0:0:0:0:
368,356,168001,2,0,L|220:372,1,140,8|0,0:0|0:0,0:0:0:0:
148,336,168589,1,0,0:0:0:0:
148,336,168785,1,8,0:0:0:0:
268,220,169178,6,0,P|280:184|284:152,1,70,0|0,1:0|0:0,0:0:0:0:
260,72,169570,2,0,P|224:60|192:56,1,70,8|0,0:0|0:0,0:0:0:0:
120,96,169962,2,0,P|108:132|104:164,1,70
124,244,170354,2,0,P|160:256|192:260,1,70,8|0,0:0|0:0,0:0:0:0:
268,220,170746,5,8,0:0:0:0:
268,220,170942,1,8,0:0:0:0:
408,156,171335,2,0,P|440:216|404:280,2,140,8|8|4,0:0|0:0|0:0,0:0:0:0:
256,316,184864,5,0,1:0:0:0:
256,316,185060,1,0,1:0:0:0:
360,264,185648,2,0,B|384:196|360:112|360:112,2,140
104,312,188001,5,0,0:0:0:0:
104,312,188197,1,0,0:0:0:0:
64,204,188785,2,0,B|132:176|204:188|204:188,2,140
296,360,191138,5,0,1:0:0:0:
440,300,191531,1,0,1:0:0:0:
412,148,191923,1,0,1:0:0:0:
312,268,192316,1,0,1:0:0:0:
180,192,192707,5,0,1:0:0:0:
272,68,193099,1,0,1:0:0:0:
412,148,193491,1,0,1:0:0:0:
312,268,193884,1,0,1:0:0:0:
312,268,194080,1,0,1:0:0:0:
248,324,194276,6,8,B|208:332|164:324|164:324,1,70
136,240,194668,2,8,B|176:232|220:240|220:240,1,70
312,268,195060,2,8,B|297:266|341:274|381:266,1,70
348,144,195452,2,8,B|362:145|318:137|278:145,1,70
200,128,195844,5,8,0:0:0:0:
200,128,196040,1,8,0:0:0:0:
108,312,196433,1,8,0:0:0:0:
108,312,196629,1,8,0:0:0:0:
328,304,197021,2,8,L|364:312,3,35
328,304,197413,6,0,B|316:232|332:160|332:160,1,140,4|8,0:0|0:0,0:0:0:0:
376,100,198001,1,0,0:0:0:0:
320,48,198197,2,0,B|284:36|248:36|248:36,1,70
180,68,198589,2,0,P|144:72|108:68,1,70,8|0,0:0|0:0,0:0:0:0:
80,152,198982,2,0,P|116:148|152:152,1,70
220,180,199374,2,0,B|260:188|304:180|304:180,2,70,8|0|0,0:0|0:0|0:0,0:0:0:0:
184,248,199962,1,0,0:0:0:0:
184,248,200158,1,8,0:0:0:0:
300,348,200550,6,0,P|368:336|440:336,1,140,0|8,0:0|0:0,0:0:0:0:
492,280,201138,1,0,0:0:0:0:
492,280,201335,2,0,P|496:244|492:208,1,70
416,140,201727,2,0,P|412:173|416:209,1,70,8|0,0:0|0:0,0:0:0:0:
328,200,202119,2,0,B|332:268|328:340|328:340,2,140,0|8|0,0:0|0:0|0:0,0:0:0:0:
344,120,203099,1,0,0:0:0:0:
344,120,203295,1,8,0:0:0:0:
200,72,203687,6,0,L|128:56,1,70,4|0,0:0|0:0,0:0:0:0:
60,88,204080,1,8,0:0:0:0:
116,140,204276,2,0,P|120:212|112:280,1,140
152,344,204864,1,8,0:0:0:0:
224,316,205060,2,0,P|296:304|372:312,1,140
436,332,205648,2,0,B|460:280|408:236|444:176,1,140,8|0,0:0|0:0,0:0:0:0:
464,124,206236,1,0,0:0:0:0:
416,64,206433,1,8,0:0:0:0:
264,148,206825,6,0,L|192:156,1,70
248,236,207217,1,8,0:0:0:0:
248,236,207413,2,0,L|320:228,1,70
348,156,207805,2,0,P|352:120|344:88,1,70,0|8,0:0|0:0,0:0:0:0:
248,236,208197,2,0,P|244:272|252:304,2,70,0|8|8,0:0|0:0|0:0,0:0:0:0:
168,272,208785,1,8,0:0:0:0:
168,272,208982,2,0,B|96:284|24:272|24:272,1,140
48,192,209570,2,0,L|40:120,2,70,8|8|4,0:0|0:0|0:0,0:0:0:0:
256,148,210354,6,0,L|264:220,2,70,8|0|0,0:0|0:0|0:0,0:0:0:0:
280,76,210942,1,0,0:0:0:0:
280,76,211138,2,0,P|316:64|364:68,1,70,8|0,0:0|0:0,0:0:0:0:
416,100,211531,2,0,P|428:172|416:248,1,140,0|8,0:0|0:0,0:0:0:0:
360,288,212119,1,0,0:0:0:0:
360,288,212315,2,0,L|288:296,1,70
312,216,212707,2,0,L|240:224,1,70,8|0,0:0|0:0,0:0:0:0:
172,256,213099,6,0,P|152:184|160:108,2,140,0|8|0,0:0|0:0|0:0,0:0:0:0:
220,316,214080,2,0,L|288:340,2,70,0|8|0,0:0|0:0|0:0,0:0:0:0:
144,328,214668,2,0,P|76:344|0:340,1,140,0|8,0:0|0:0,0:0:0:0:
40,272,215256,2,0,P|76:204|72:128,1,140
56,68,215844,1,8,0:0:0:0:
132,88,216040,1,0,0:0:0:0:
132,88,216236,6,0,L|212:84,1,70,4|0,0:0|0:0,0:0:0:0:
184,160,216629,1,8,0:0:0:0:
260,144,216825,2,0,P|340:148|408:140,1,140
480,192,217413,1,8,0:0:0:0:
480,192,217609,1,0,0:0:0:0:
416,240,217805,2,0,B|376:240|356:272|356:272,1,70
276,272,218197,2,0,P|204:284|136:272,2,140,8|0|8,0:0|0:0|0:0,0:0:0:0:
336,212,219178,1,0,0:0:0:0:
332,128,219374,6,0,P|336:88|328:52,1,70
252,88,219766,1,8,0:0:0:0:
252,88,219962,2,0,P|248:128|256:164,1,70
272,232,220354,2,0,P|277:261|273:301,1,70,0|8,0:0|0:0,0:0:0:0:
196,336,220746,2,0,P|190:306|194:266,2,70,0|8|8,0:0|0:0|0:0,0:0:0:0:
276,368,221334,1,0,0:0:0:0:
352,336,221531,6,0,L|492:328,1,140,8|0,0:0|0:0,0:0:0:0:
444,252,222119,2,0,L|304:260,1,140,8|4,0:0|0:0,0:0:0:0:
120,256,222903,6,0,L|108:324,1,70,8|0,0:0|0:0,0:0:0:0:
196,308,223295,2,0,L|208:240,2,70,0|0|8,0:0|0:0|0:0,0:0:0:0:
152,184,223884,1,0,0:0:0:0:
152,184,224080,2,0,B|220:176|300:184|300:184,1,140,0|8,0:0|0:0,0:0:0:0:
356,144,224668,1,0,0:0:0:0:
416,192,224864,2,0,B|432:232|432:272|432:272,2,70,0|0|8,0:0|0:0|0:0,0:0:0:0:
324,72,225648,6,0,P|288:60|248:52,1,70
260,132,226040,2,0,P|228:125|192:113,1,70,8|0,0:0|0:0,0:0:0:0:
192,196,226433,2,0,P|156:184|116:176,2,70,0|0|8,0:0|0:0|0:0,0:0:0:0:
248,248,227021,1,0,0:0:0:0:
248,248,227217,2,0,P|256:324|244:388,2,140,0|8|0,0:0|0:0|0:0,0:0:0:0:
176,272,228197,1,0,0:0:0:0:
108,304,228393,1,8,0:0:0:0:
320,220,228785,6,0,L|388:196,1,70,4|0,0:0|0:0,0:0:0:0:
452,236,229178,1,8,0:0:0:0:
448,160,229374,2,0,P|452:80|444:16,1,140
372,48,229962,1,8,0:0:0:0:
272,164,230354,5,0,0:0:0:0:
272,164,230550,1,0,0:0:0:0:
232,228,230746,2,0,P|268:280|348:264,2,140,8|0|8,0:0|0:0|0:0,0:0:0:0:
156,228,231727,1,0,0:0:0:0:
92,188,231923,6,0,P|88:152|92:112,1,70
8,132,232315,1,8,0:0:0:0:
16,216,232511,2,0,P|24:292|16:360,1,140
92,348,233099,2,0,L|168:340,1,70,8|0,0:0|0:0,0:0:0:0:
228,304,233491,2,0,L|297:311,2,70,0|8|8,0:0|0:0|0:0,0:0:0:0:
160,264,234080,6,0,P|152:188|168:112,1,140,8|0,0:0|0:0,0:0:0:0:
224,80,234668,2,0,L|296:80,2,70,8|8|4,0:0|0:0|0:0,0:0:0:0:
340,180,235452,6,0,L|416:168,1,70,8|0,0:0|0:0,0:0:0:0:
404,256,235844,2,0,L|328:268,2,70,0|0|8,0:0|0:0|0:0,0:0:0:0:
472,220,236433,1,0,0:0:0:0:
484,144,236629,2,0,B|488:104|480:68|480:68,1,70
412,40,237021,2,0,P|340:28|276:44,1,140,8|0,0:0|0:0,0:0:0:0:
228,104,237609,1,0,0:0:0:0:
228,104,237805,1,8,0:0:0:0:
212,256,238197,6,0,P|204:296|200:336,1,70
296,236,238589,2,0,P|292:276|284:316,1,70,8|0,0:0|0:0,0:0:0:0:
380,216,238982,2,0,P|372:250|368:296,2,70,0|0|8,0:0|0:0|0:0,0:0:0:0:
324,156,239570,1,0,0:0:0:0:
324,156,239766,6,0,P|320:120|313:86,1,70
240,184,240158,2,0,P|232:152|229:114,1,70,8|0,0:0|0:0,0:0:0:0:
156,212,240550,2,0,P|152:180|145:142,2,70,0|0|8,0:0|0:0|0:0,0:0:0:0:
176,296,241138,1,0,0:0:0:0:
256,348,241334,6,0,P|332:352|404:344,1,140,4|8,0:0|0:0,0:0:0:0:
392,268,241923,2,0,P|316:264|244:272,1,140
184,308,242511,1,8,0:0:0:0:
112,280,242707,1,0,0:0:0:0:
80,208,242903,6,0,P|64:136|84:68,2,140,0|8|0,0:0|0:0|0:0,0:0:0:0:
156,216,243884,1,0,0:0:0:0:
156,216,244080,1,8,0:0:0:0:
256,56,244472,5,0,0:0:0:0:
300,120,244668,2,0,L|376:136,1,70,0|8,0:0|0:0,0:0:0:0:
212,120,245060,1,0,0:0:0:0:
212,120,245256,2,0,L|136:136,2,70,0|0|8,0:0|0:0|0:0,0:0:0:0:
256,188,245844,2,0,L|256:264,2,70,0|8|8,0:0|0:0|0:0,0:0:0:0:
328,308,246629,6,0,P|256:348|180:304,1,175
