osu file format v12

[General]
AudioFilename: anesthesia.mp3
AudioLeadIn: 0
PreviewTime: 52119
Countdown: 0
SampleSet: Soft
StackLeniency: 0.7
Mode: 0
LetterboxInBreaks: 1
WidescreenStoryboard: 0

[Editor]
Bookmarks: 125648
DistanceSpacing: 1.2
BeatDivisor: 4
GridSize: 4

[Metadata]
Title:anesthesia
TitleUnicode:anesthesia
Artist:Chata
ArtistUnicode:茶太
Creator:hoLysoup
Version:Anesthesia
Source:
Tags:Azure 而立 さよなら20代 jiritsu sayonara
BeatmapID:216690
BeatmapSetID:77093

[Difficulty]
HPDrainRate:7
CircleSize:4
OverallDifficulty:7
ApproachRate:8
SliderMultiplier:1.6
SliderTickRate:1

[Events]
//Background and Video events
0,0,"BG.jpg",0,0
//Break Periods
2,78397,80585
2,172319,184114
//Storyboard Layer 0 (Background)
//Storyboard Layer 1 (Fail)
//Storyboard Layer 2 (Pass)
//Storyboard Layer 3 (Foreground)
//Storyboard Sound Samples
//Background Colour Transformations
3,100,163,162,255

[TimingPoints]
1335,392.156862745098,4,2,1,80,1,0
13295,-100,4,2,1,20,0,0
14864,-100,4,2,1,60,0,0
17021,-100,4,2,1,40,0,0
17119,-100,4,2,1,50,0,0
39864,-100,4,2,1,45,0,0
40256,-100,4,2,1,60,0,0
40550,-100,4,2,1,60,0,0
50746,-100,4,2,1,40,0,0
51138,-100,4,2,1,50,0,0
53099,-100,4,2,2,60,0,1
53197,-100,4,2,1,60,0,1
64864,-100,4,2,1,40,0,1
65256,-100,4,2,1,50,0,1
65648,-100,4,2,1,60,0,1
77217,-200,4,2,1,60,0,1
77805,-100,4,2,1,50,0,1
78197,-100,4,2,1,5,0,0
81236,-200,4,2,1,5,0,0
83589,-100,4,2,1,50,0,0
84374,-100,4,2,2,40,0,0
84570,-100,4,2,1,40,0,0
109570,-100,4,2,2,50,0,0
109668,-100,4,2,1,50,0,0
121236,-100,4,2,1,52,0,0
122119,-100,4,2,2,60,0,1
122217,-100,4,2,1,60,0,1
133589,-100,4,2,1,45,0,1
134570,-100,4,2,1,60,0,1
144962,-100,4,2,1,45,0,1
145550,-100,4,2,1,60,0,1
147217,-100,4,2,1,55,0,0
158295,-100,4,2,1,45,0,0
158491,-100,4,2,1,55,0,0
158687,-100,4,2,1,45,0,0
159374,-100,4,2,1,55,0,0
184766,-200,4,2,1,20,0,0
185452,-200,4,2,1,50,0,0
190256,-100,4,2,1,50,0,0
191138,-100,4,2,1,43,0,0
192707,-100,4,2,1,45,0,0
194276,-100,4,2,1,47,0,0
194570,-100,4,2,1,49,0,0
194962,-100,4,2,1,51,0,0
195354,-100,4,2,1,53,0,0
195550,-133.333333333333,4,2,1,53,0,0
196236,-100,4,2,1,53,0,0
197413,-100,4,2,1,60,0,1
208884,-100,4,2,1,45,0,1
209570,-100,4,2,1,40,0,1
209962,-100,4,2,1,60,0,1
222413,-100,4,2,1,60,0,0
222511,-100,4,2,1,60,0,1
233982,-100,4,2,1,45,0,1
234962,-100,4,2,1,60,0,1
244227,-100,4,2,1,45,0,1
244423,-100,4,2,1,60,0,1
246531,-200,4,2,1,60,0,1
247609,-200,4,2,1,20,0,0

[Colours]
Combo1 : 244,132,132
Combo2 : 172,251,202
Combo3 : 175,210,254
Combo4 : 185,208,192

[HitObjects]
256,80,14864,1,0,0:0:0:0:
256,80,15060,1,2,0:0:0:0:
172,324,15452,6,0,P|164:288|172:240,1,80
248,200,15844,1,0,0:0:0:0:
256,288,16040,1,0,0:0:0:0:
172,324,16236,2,0,L|80:332,1,80
88,164,16629,1,0,0:0:0:0:
88,164,16825,6,0,L|180:156,1,80
232,96,17217,1,0,0:0:0:0:
316,116,17413,2,0,P|352:124|395:122,2,80
168,160,18001,1,0,0:0:0:0:
232,228,18197,2,0,P|232:268|224:320,1,80
124,320,18589,6,0,P|92:328|44:320,1,80
84,228,18982,1,0,0:0:0:0:
84,228,19178,2,0,P|116:220|164:228,1,80
240,280,19570,1,0,0:0:0:0:
332,288,19766,1,0,0:0:0:0:
360,200,19962,2,0,P|314:192|282:200,1,80
240,280,20354,5,0,0:0:0:0:
240,280,20550,2,0,L|244:360,1,80
460,304,20942,2,0,L|456:224,1,80
424,140,21335,1,0,0:0:0:0:
256,304,21727,6,0,B|216:316|172:320|172:320,1,80
92,292,22119,1,0,0:0:0:0:
92,292,22315,2,0,B|72:232|108:192|88:132,1,160
124,40,22903,1,0,0:0:0:0:
192,116,23099,1,0,0:0:0:0:
288,72,23295,6,0,B|328:72|376:68,1,80
424,184,23687,1,0,0:0:0:0:
424,184,23884,2,0,B|348:180|248:192|248:192,1,160
192,116,24472,1,0,0:0:0:0:
116,168,24668,1,0,0:0:0:0:
152,248,24864,2,0,B|172:284|152:328|152:328,1,80
64,336,25256,1,0,0:0:0:0:
64,336,25452,2,0,B|130:330|157:366|227:357,1,160
296,304,26040,1,0,0:0:0:0:
236,64,26433,5,0,0:0:0:0:
208,140,26629,1,0,0:0:0:0:
268,192,26825,1,0,0:0:0:0:
296,116,27021,1,0,0:0:0:0:
296,116,27413,6,0,P|332:100|372:100,1,80
352,184,27805,1,0,0:0:0:0:
352,184,28001,2,0,P|344:224|352:268,1,80,8|0,0:0|0:0,0:0:0:0:
428,304,28393,2,0,P|436:264|428:220,1,80
352,184,28785,1,8,0:0:0:0:
256,228,28982,1,0,0:0:0:0:
160,184,29178,5,0,0:0:0:0:
160,184,29374,2,0,P|120:192|80:184,1,80,0|8,0:0|0:0,0:0:0:0:
24,104,29766,2,0,P|64:96|104:104,1,80
82,185,30158,2,0,L|84:264,1,80,0|8,0:0|0:0,0:0:0:0:
256,228,30550,2,0,L|251:147,1,80
312,88,30942,1,0,0:0:0:0:
352,172,31138,5,8,0:0:0:0:
352,172,31335,2,0,P|396:180|432:180,1,80
336,328,31727,2,0,P|292:320|256:320,1,80,0|8,0:0|0:0,0:0:0:0:
156,328,32119,1,0,0:0:0:0:
156,328,32315,2,0,P|152:288|156:248,1,80,0|0,0:0|0:0,0:0:0:0:
60,244,32707,2,0,P|72:200|96:168,1,80,8|0,0:0|0:0,0:0:0:0:
172,120,33099,1,0,0:0:0:0:
228,200,33295,1,0,0:0:0:0:
208,36,33491,1,8,0:0:0:0:
76,132,33687,1,0,0:0:0:0:
304,52,34080,5,0,0:0:0:0:
304,52,34178,1,0,0:0:0:0:
304,52,34276,2,0,L|384:56,1,80,8|0,0:0|0:0,0:0:0:0:
464,108,34668,1,0,0:0:0:0:
380,148,34864,2,0,P|376:188|380:228,2,80,0|8|0,0:0|0:0|0:0,0:0:0:0:
383,55,35452,1,0,0:0:0:0:
156,176,35844,2,0,L|76:184,1,80,8|0,0:0|0:0,0:0:0:0:
64,272,36236,1,0,0:0:0:0:
152,264,36433,2,0,P|156:304|148:344,2,80,0|8|0,0:0|0:0|0:0,0:0:0:0:
156,176,37021,1,0,0:0:0:0:
364,32,37413,6,0,P|356:72|360:120,1,80,8|0,0:0|0:0,0:0:0:0:
400,200,37805,1,0,0:0:0:0:
320,252,38001,2,0,B|280:268|244:260|244:260,1,80
156,176,38393,5,8,0:0:0:0:
256,76,38589,1,8,0:0:0:0:
356,176,38785,1,0,0:0:0:0:
256,76,38982,6,0,B|268:152|240:160|256:264,1,160,2|0,0:0|0:0,0:0:0:0:
280,344,39570,1,8,0:0:0:0:
172,364,39766,1,8,0:0:0:0:
148,256,39962,1,8,0:0:0:0:
148,256,40060,1,8,0:0:0:0:
148,256,40158,1,8,0:0:0:0:
256,236,40354,1,8,0:0:0:0:
280,344,40550,6,0,P|360:340|440:324,1,160,4|0,0:0|0:0,0:0:0:0:
452,244,41138,2,0,L|436:80,1,160,0|0,0:0|0:0,0:0:0:0:
436,84,41727,1,8,0:0:0:0:
316,40,41923,1,0,0:0:0:0:
212,88,42119,6,0,P|168:96|124:96,2,80
300,128,42707,2,0,L|308:216,1,80
396,236,43099,2,0,L|376:320,1,80,0|8,0:0|0:0,0:0:0:0:
288,368,43491,1,0,0:0:0:0:
288,368,43687,2,0,P|244:376|204:368,1,80
64,320,44080,2,0,P|108:312|148:320,1,80
216,288,44472,5,0,0:0:0:0:
296,136,44668,1,0,0:0:0:0:
216,136,44864,1,8,0:0:0:0:
296,288,45060,1,0,0:0:0:0:
256,212,45256,6,0,L|172:212,1,80
136,100,45648,1,0,0:0:0:0:
92,176,45844,2,0,L|8:176,1,80
136,100,46236,1,8,0:0:0:0:
136,100,46433,2,0,L|220:100,1,80,8|0,0:0|0:0,0:0:0:0:
324,56,46825,6,0,P|348:136|320:208,1,160,4|0,0:0|0:0,0:0:0:0:
189,205,47413,2,0,P|164:136|188:56,1,160,0|8,0:0|0:0,0:0:0:0:
256,108,48001,1,8,0:0:0:0:
388,224,48393,6,0,P|384:304|320:344,1,160
190,343,48982,2,0,P|128:304|124:224,1,160,0|8,0:0|0:0,0:0:0:0:
256,196,49570,1,8,0:0:0:0:
88,76,49962,6,0,P|80:120|84:160,1,80,0|0,0:0|0:0,0:0:0:0:
256,196,50354,2,0,P|264:152|261:117,1,80,8|0,0:0|0:0,0:0:0:0:
188,256,50746,2,8,P|180:300|182:334,1,80
424,308,51138,1,8,0:0:0:0:
424,308,51335,2,8,P|432:264|428:224,2,80
88,308,52119,5,8,0:0:0:0:
88,308,52315,1,8,0:0:0:0:
256,80,52707,1,8,0:0:0:0:
256,80,52903,1,8,0:0:0:0:
256,168,53099,6,0,L|256:276,1,80,4|0,0:0|0:0,0:0:0:0:
208,352,53491,1,8,0:0:0:0:
176,248,53687,1,0,0:0:0:0:
100,308,53884,2,0,P|60:316|20:312,2,80,2|0|8,0:0|0:0|0:0,0:0:0:0:
176,248,54472,1,0,0:0:0:0:
104,184,54668,2,0,P|92:144|92:100,1,80,2|0,0:0|0:0,0:0:0:0:
156,36,55060,1,8,0:0:0:0:
236,88,55256,2,0,P|248:128|248:172,1,80,0|2,0:0|0:0,0:0:0:0:
328,220,55648,1,0,0:0:0:0:
336,124,55844,1,8,0:0:0:0:
136,148,56236,6,0,P|128:192|128:232,1,80,2|0,0:0|0:0,0:0:0:0:
263,300,56629,2,0,P|228:300|184:292,1,80,8|0,0:0|0:0,0:0:0:0:
335,240,57021,2,0,P|343:196|343:156,2,80,2|0|8,0:0|0:0|0:0,0:0:0:0:
208,88,57609,1,0,0:0:0:0:
208,88,57805,6,0,P|243:88|287:96,1,80,2|0,0:0|0:0,0:0:0:0:
136,148,58197,2,0,P|96:156|56:152,1,80,8|0,0:0|0:0,0:0:0:0:
116,64,58589,1,2,0:0:0:0:
116,64,58785,1,0,0:0:0:0:
224,184,58982,1,8,0:0:0:0:
224,184,59178,1,0,0:0:0:0:
100,272,59374,6,0,P|96:316|100:360,1,80,4|0,0:0|0:0,0:0:0:0:
184,380,59766,2,0,L|268:372,1,80,8|0,0:0|0:0,0:0:0:0:
320,264,60158,1,2,0:0:0:0:
224,184,60354,1,0,0:0:0:0:
224,184,60550,2,0,L|140:192,1,80,8|0,0:0|0:0,0:0:0:0:
228,280,60942,5,2,0:0:0:0:
320,264,61138,1,0,0:0:0:0:
324,168,61334,2,0,P|332:128|332:80,2,80,8|0|2,0:0|0:0|0:0,0:0:0:0:
236,60,61923,2,0,L|156:52,1,80,8|8,0:0|0:0,0:0:0:0:
80,116,62315,1,0,0:0:0:0:
80,116,62413,1,0,0:0:0:0:
80,116,62511,6,0,P|72:156|72:204,1,80,4|0,0:0|0:0,0:0:0:0:
243,198,62903,1,8,0:0:0:0:
243,198,63099,2,0,B|256:200|208:192|164:200,1,80,0|2,0:0|0:0,0:0:0:0:
108,301,63491,1,0,0:0:0:0:
108,301,63687,2,0,B|96:300|144:308|188:300,1,80,8|0,0:0|0:0,0:0:0:0:
272,352,64080,1,4,0:0:0:0:
324,264,64276,1,8,0:0:0:0:
412,328,64472,1,8,0:0:0:0:
428,204,64668,5,8,0:0:0:0:
424,180,64766,1,8,0:0:0:0:
416,156,64864,1,10,0:0:0:0:
404,136,64962,1,8,0:0:0:0:
388,120,65060,1,8,0:0:0:0:
368,108,65158,1,8,0:0:0:0:
344,104,65256,2,8,B|300:112|260:104|260:104,1,80
148,64,65648,6,0,P|112:92|100:128,1,80,4|0,0:0|0:0,0:0:0:0:
148,320,66040,2,0,P|112:292|100:256,1,80,8|0,0:0|0:0,0:0:0:0:
192,240,66433,1,2,0:0:0:0:
192,240,66629,2,0,L|272:240,1,80,0|8,0:0|0:0,0:0:0:0:
376,276,67021,5,0,0:0:0:0:
376,276,67217,2,0,P|388:232|392:192,1,80,2|0,0:0|0:0,0:0:0:0:
380,92,67609,2,0,L|300:92,1,80,8|0,0:0|0:0,0:0:0:0:
144,172,68001,1,2,0:0:0:0:
228,40,68197,1,0,0:0:0:0:
140,72,68393,1,8,0:0:0:0:
224,128,68589,1,0,0:0:0:0:
224,128,68785,6,0,L|304:128,1,80,2|0,0:0|0:0,0:0:0:0:
280,220,69178,2,0,L|360:220,1,80,8|0,0:0|0:0,0:0:0:0:
408,284,69570,1,2,0:0:0:0:
440,132,69766,2,0,L|360:132,1,80,0|8,0:0|0:0,0:0:0:0:
280,220,70158,1,0,0:0:0:0:
220,48,70354,6,0,B|176:48|144:72|144:72,1,80,2|0,0:0|0:0,0:0:0:0:
120,224,70746,2,0,B|96:192|96:148|96:148,1,80,8|0,0:0|0:0,0:0:0:0:
204,244,71138,2,0,B|248:244|280:220|280:220,2,80,2|0|8,0:0|0:0|0:0,0:0:0:0:
288,56,71727,1,8,0:0:0:0:
296,64,71825,1,8,0:0:0:0:
304,72,71923,6,0,B|328:104|328:148|328:148|328:148,1,80,4|0,0:0|0:0,0:0:0:0:
316,264,72315,1,8,0:0:0:0:
204,244,72511,2,0,B|181:213|181:169|181:169,1,80,0|2,0:0|0:0,0:0:0:0:
316,264,72903,2,0,L|408:256,1,80,0|8,0:0|0:0,0:0:0:0:
492,244,73295,5,0,0:0:0:0:
492,244,73393,1,8,0:0:0:0:
492,244,73491,2,0,P|496:200|488:164,1,80,2|0,0:0|0:0,0:0:0:0:
384,144,73884,2,0,L|292:152,1,80,8|0,0:0|0:0,0:0:0:0:
212,184,74276,1,2,0:0:0:0:
124,128,74472,1,0,0:0:0:0:
220,88,74668,1,8,0:0:0:0:
136,232,74864,1,0,0:0:0:0:
136,232,74962,1,0,0:0:0:0:
136,232,75060,6,0,P|128:276|128:312,1,80,4|0,0:0|0:0,0:0:0:0:
256,348,75452,1,8,0:0:0:0:
384,312,75648,2,0,P|384:276|376:232,1,80,0|2,0:0|0:0,0:0:0:0:
296,132,76040,1,0,0:0:0:0:
296,132,76236,2,0,P|256:124|219:133,1,80,8|0,0:0|0:0,0:0:0:0:
256,308,76629,5,8,0:0:0:0:
256,308,76825,1,8,0:0:0:0:
256,40,77217,2,0,B|256:120,1,80,2|0,0:0|0:0,0:0:0:0:
256,200,77805,1,2,0:0:0:0:
256,208,78001,1,0,0:0:0:0:
256,216,78197,1,0,0:0:0:0:
256,52,81335,6,0,L|256:144,1,80
204,84,82119,2,0,L|224:168,1,80
156,124,82903,2,0,L|204:196,1,80
372,300,83687,5,8,0:0:0:0:
372,300,83884,1,8,0:0:0:0:
424,196,84080,1,8,0:0:0:0:
424,196,84276,1,8,0:0:0:0:
372,84,84472,5,12,0:0:0:0:
372,84,84668,2,0,P|336:56|304:48,2,80,0|8|0,0:0|0:0|0:0,0:0:0:0:
304,156,85256,1,8,0:0:0:0:
208,156,85452,1,0,0:0:0:0:
140,84,85648,1,8,0:0:0:0:
140,84,85844,2,0,P|176:56|208:48,2,80,0|8|0,0:0|0:0|0:0,0:0:0:0:
64,144,86433,5,8,0:0:0:0:
84,240,86629,1,0,0:0:0:0:
84,240,86825,2,0,B|96:280|80:320|80:320,1,80,8|0,0:0|0:0,0:0:0:0:
176,316,87217,2,0,B|164:276|180:236|180:236,1,80,8|0,0:0|0:0,0:0:0:0:
316,344,87609,6,0,L|400:336,1,80,8|0,0:0|0:0,0:0:0:0:
468,272,88001,1,8,0:0:0:0:
380,236,88197,2,0,L|296:244,2,80,0|8|0,0:0|0:0|0:0,0:0:0:0:
468,272,88785,1,8,0:0:0:0:
456,164,88982,1,0,0:0:0:0:
360,112,89178,6,0,L|272:108,1,80,8|0,0:0|0:0,0:0:0:0:
152,272,89570,2,0,L|240:276,1,80,8|0,0:0|0:0,0:0:0:0:
188,188,89962,2,0,P|184:144|192:108,2,80,8|0|8,0:0|0:0|0:0,0:0:0:0:
280,212,90550,1,0,0:0:0:0:
280,212,90746,6,0,L|359:208,1,80,8|0,0:0|0:0,0:0:0:0:
440,156,91138,1,8,0:0:0:0:
352,112,91335,1,0,0:0:0:0:
440,156,91531,1,8,0:0:0:0:
440,252,91727,1,0,0:0:0:0:
440,252,91923,2,0,B|444:292|436:332|436:332,1,80,8|0,0:0|0:0,0:0:0:0:
252,212,92315,6,0,B|248:172|256:132|256:132,2,80,8|0|8,0:0|0:0|0:0,0:0:0:0:
276,300,92903,1,0,0:0:0:0:
276,300,93099,2,0,L|192:312,1,80,8|0,0:0|0:0,0:0:0:0:
112,328,93491,2,0,P|104:288|104:248,1,80,8|0,0:0|0:0,0:0:0:0:
176,80,93884,2,0,P|144:128|184:224,1,160,8|8,0:0|0:0,0:0:0:0:
336,218,94472,2,0,P|368:128|336:80,1,160
256,144,95060,1,8,0:0:0:0:
256,144,95452,6,0,P|244:184|242:222,1,80,8|0,0:0|0:0,0:0:0:0:
324,296,95844,2,0,P|336:256|337:217,1,80,8|0,0:0|0:0,0:0:0:0:
256,144,96236,1,0,0:0:0:0:
320,60,96433,1,8,0:0:0:0:
256,144,96629,1,0,0:0:0:0:
192,60,96825,1,8,0:0:0:0:
256,144,97021,6,0,P|260:184|256:228,1,80,4|0,0:0|0:0,0:0:0:0:
88,244,97413,2,0,P|84:204|88:160,2,80,8|0|8,0:0|0:0|0:0,0:0:0:0:
104,332,98001,1,0,0:0:0:0:
192,316,98197,1,8,0:0:0:0:
176,228,98393,6,0,L|256:216,1,80,0|8,0:0|0:0,0:0:0:0:
304,116,98785,2,0,L|224:128,1,80,0|8,0:0|0:0,0:0:0:0:
264,304,99178,1,0,0:0:0:0:
264,304,99374,2,0,L|344:292,1,80,8|0,0:0|0:0,0:0:0:0:
408,232,99766,1,8,0:0:0:0:
408,232,99962,1,0,0:0:0:0:
256,56,100158,6,0,B|244:112|260:176|260:176,1,120,8|0,0:0|0:0,0:0:0:0:
260,176,100550,2,0,L|344:168,2,80,8|0|8,0:0|0:0|0:0,0:0:0:0:
208,256,101138,1,0,0:0:0:0:
304,268,101335,2,0,L|383:261,1,80,8|0,0:0|0:0,0:0:0:0:
376,72,101727,2,0,L|296:78,1,80,8|0,0:0|0:0,0:0:0:0:
212,52,102119,5,8,0:0:0:0:
192,136,102315,1,0,0:0:0:0:
172,220,102511,1,8,0:0:0:0:
120,80,102707,1,0,0:0:0:0:
192,136,102903,1,8,0:0:0:0:
100,164,103099,5,0,0:0:0:0:
100,164,103197,1,8,0:0:0:0:
100,164,103295,2,0,L|20:172,1,80,8|0,0:0|0:0,0:0:0:0:
172,220,103687,1,8,0:0:0:0:
80,252,103884,2,0,P|76:292|80:336,2,80,0|8|0,0:0|0:0|0:0,0:0:0:0:
120,80,104472,1,8,0:0:0:0:
172,220,104668,1,0,0:0:0:0:
260,208,104864,6,0,L|348:204,1,80,8|0,0:0|0:0,0:0:0:0:
428,188,105256,1,8,0:0:0:0:
428,188,105452,2,0,P|432:144|424:104,2,80,0|8|0,0:0|0:0|0:0,0:0:0:0:
368,280,106040,2,0,L|284:296,1,80,8|0,0:0|0:0,0:0:0:0:
188,296,106433,2,0,B|164:240|172:184|172:184,1,80,8|0,0:0|0:0,0:0:0:0:
112,112,106825,5,8,0:0:0:0:
200,100,107021,1,0,0:0:0:0:
288,84,107217,1,8,0:0:0:0:
376,72,107413,1,8,0:0:0:0:
376,72,107609,1,8,0:0:0:0:
344,232,107805,5,0,0:0:0:0:
344,232,108001,2,0,P|348:192|340:144,1,80,12|0,0:0|0:0,0:0:0:0:
236,64,108393,1,8,0:0:0:0:
168,192,108589,1,8,0:0:0:0:
168,204,108687,1,8,0:0:0:0:
168,216,108785,2,8,P|164:260|168:300,1,80
256,360,109178,1,8,0:0:0:0:
344,295,109374,1,8,0:0:0:0:
344,295,109472,1,8,0:0:0:0:
344,295,109570,6,0,P|348:212|340:136,1,160,4|8,0:0|0:0,0:0:0:0:
344,48,110158,2,0,B|260:32|176:48|176:48,1,160
184,46,110746,1,8,0:0:0:0:
56,136,110942,5,0,0:0:0:0:
56,136,111138,2,0,P|48:180|48:216,2,80,8|0|8,0:0|0:0|0:0,0:0:0:0:
152,212,111727,1,0,0:0:0:0:
164,216,111825,1,0,0:0:0:0:
176,220,111923,2,0,L|256:212,1,80,8|0,0:0|0:0,0:0:0:0:
312,144,112315,1,8,0:0:0:0:
364,72,112511,1,0,0:0:0:0:
312,144,112707,6,0,L|232:136,1,80,8|0,0:0|0:0,0:0:0:0:
104,184,113099,2,0,B|104:182|108:142|132:110,2,80,8|0|8,0:0|0:0|0:0,0:0:0:0:
124,288,113687,1,0,0:0:0:0:
228,288,113884,1,8,0:0:0:0:
200,184,114080,1,0,0:0:0:0:
200,184,114178,1,0,0:0:0:0:
200,184,114276,6,0,L|280:176,1,80,8|0,0:0|0:0,0:0:0:0:
428,116,114668,1,8,0:0:0:0:
344,112,114864,1,0,0:0:0:0:
432,204,115060,2,0,P|436:248|432:288,2,80,8|0|8,0:0|0:0|0:0,0:0:0:0:
200,184,115648,5,0,0:0:0:0:
200,184,115746,1,0,0:0:0:0:
200,184,115844,2,0,P|196:140|200:100,2,80,4|0|8,0:0|0:0|0:0,0:0:0:0:
288,340,116433,1,0,0:0:0:0:
356,280,116629,1,8,0:0:0:0:
312,200,116825,1,0,0:0:0:0:
244,260,117021,1,8,0:0:0:0:
364,288,117217,1,0,0:0:0:0:
364,288,117315,1,0,0:0:0:0:
364,288,117413,6,0,P|404:292|448:288,1,80,4|0,0:0|0:0,0:0:0:0:
435,103,117805,1,8,0:0:0:0:
435,103,118001,2,0,P|396:100|356:104,1,80,0|8,0:0|0:0,0:0:0:0:
196,116,118393,1,0,0:0:0:0:
272,44,118589,1,8,0:0:0:0:
284,212,118785,1,0,0:0:0:0:
276,220,118884,1,0,0:0:0:0:
268,228,118982,6,0,P|228:240|188:236,1,80,4|0,0:0|0:0,0:0:0:0:
220,120,119374,2,0,P|260:108|300:112,1,80,8|0,0:0|0:0,0:0:0:0:
392,340,119766,2,0,P|352:352|312:348,1,80,8|0,0:0|0:0,0:0:0:0:
360,244,120158,2,0,P|400:232|440:236,2,80,8|0|4,0:0|0:0|0:0,0:0:0:0:
360,244,120746,5,8,0:0:0:0:
256,212,120942,1,8,0:0:0:0:
152,176,121138,1,0,0:0:0:0:
256,44,121334,5,8,0:0:0:0:
256,56,121433,1,8,0:0:0:0:
256,68,121531,1,8,0:0:0:0:
256,80,121629,1,8,0:0:0:0:
256,92,121727,1,8,0:0:0:0:
256,212,121923,1,8,0:0:0:0:
256,348,122119,6,0,P|216:356|172:348,1,80,4|0,0:0|0:0,0:0:0:0:
108,284,122511,1,8,0:0:0:0:
200,256,122707,1,0,0:0:0:0:
256,348,122903,2,0,L|340:340,2,80,2|0|8,0:0|0:0|0:0,0:0:0:0:
108,284,123491,1,0,0:0:0:0:
268,199,123687,6,0,L|348:192,1,80,2|0,0:0|0:0,0:0:0:0:
444,212,124080,1,8,0:0:0:0:
408,120,124276,1,0,0:0:0:0:
408,120,124472,2,0,P|412:68|404:36,1,80,2|0,0:0|0:0,0:0:0:0:
224,40,124864,2,0,P|220:92|228:124,1,80,8|0,0:0|0:0,0:0:0:0:
268,200,125256,6,0,L|188:207,1,80,2|0,0:0|0:0,0:0:0:0:
96,224,125648,1,8,0:0:0:0:
120,312,125844,2,0,L|200:305,1,80,0|2,0:0|0:0,0:0:0:0:
392,312,126236,1,0,0:0:0:0:
392,312,126433,2,0,L|312:305,1,80,8|0,0:0|0:0,0:0:0:0:
256,228,126825,6,0,P|252:184|256:148,1,80,2|0,0:0|0:0,0:0:0:0:
344,112,127217,1,8,0:0:0:0:
344,200,127413,1,0,0:0:0:0:
256,228,127609,2,0,L|172:240,1,80,2|0,0:0|0:0,0:0:0:0:
76,252,128001,2,0,P|72:292|88:340,1,80,8|0,0:0|0:0,0:0:0:0:
120,176,128393,6,0,P|124:136|108:88,1,80,4|0,0:0|0:0,0:0:0:0:
176,24,128785,1,8,0:0:0:0:
248,88,128982,2,0,L|332:84,1,80,0|2,0:0|0:0,0:0:0:0:
372,180,129374,1,0,0:0:0:0:
372,180,129570,2,0,L|288:184,1,80,8|0,0:0|0:0,0:0:0:0:
204,220,129962,1,2,0:0:0:0:
292,276,130158,1,0,0:0:0:0:
292,183,130354,1,8,0:0:0:0:
207,316,130550,2,0,L|128:320,1,80,0|2,0:0|0:0,0:0:0:0:
292,183,130942,2,0,P|296:140|288:104,1,80,0|8,0:0|0:0,0:0:0:0:
192,48,131335,5,0,0:0:0:0:
192,48,131433,1,0,0:0:0:0:
192,48,131531,2,0,P|188:91|196:127,1,80,4|0,0:0|0:0,0:0:0:0:
204,220,131923,2,0,L|120:224,1,80,8|0,0:0|0:0,0:0:0:0:
292,184,132315,2,0,L|376:180,1,80,2|0,0:0|0:0,0:0:0:0:
348,336,132707,2,0,L|264:340,1,80,8|0,0:0|0:0,0:0:0:0:
120,292,133099,5,8,0:0:0:0:
292,260,133295,1,8,0:0:0:0:
168,120,133491,1,8,0:0:0:0:
184,216,133687,5,8,0:0:0:0:
204,212,133785,1,8,0:0:0:0:
224,204,133884,1,8,0:0:0:0:
240,192,133982,1,8,0:0:0:0:
252,176,134080,1,8,0:0:0:0:
260,160,134178,1,8,0:0:0:0:
264,140,134276,2,8,P|268:96|264:60,1,80,10|8,0:0|0:0,0:0:0:0:
52,44,134668,6,0,P|48:88|52:124,1,80,4|0,0:0|0:0,0:0:0:0:
116,196,135060,2,0,L|204:188,1,80,8|0,0:0|0:0,0:0:0:0:
156,280,135452,1,2,0:0:0:0:
156,280,135648,2,0,L|68:288,1,80,0|8,0:0|0:0,0:0:0:0:
244,176,136040,1,0,0:0:0:0:
252,268,136236,6,0,P|256:304|252:348,1,80,2|0,0:0|0:0,0:0:0:0:
160,376,136629,1,8,0:0:0:0:
156,280,136825,2,0,P|152:244|156:200,1,80,0|2,0:0|0:0,0:0:0:0:
256,56,137217,1,0,0:0:0:0:
256,232,137413,1,8,0:0:0:0:
172,100,137609,1,0,0:0:0:0:
256,144,137805,6,0,L|344:140,1,80,2|0,0:0|0:0,0:0:0:0:
392,292,138197,2,0,L|304:296,1,80,8|0,0:0|0:0,0:0:0:0:
256,232,138589,1,2,0:0:0:0:
432,192,138785,2,0,P|436:144|432:108,1,80,0|8,0:0|0:0,0:0:0:0:
344,80,139178,1,0,0:0:0:0:
240,240,139374,6,0,P|236:288|240:324,1,80,2|0,0:0|0:0,0:0:0:0:
92,264,139766,2,0,P|96:216|92:180,1,80,8|0,0:0|0:0,0:0:0:0:
188,80,140158,2,0,P|184:128|188:164,2,80,2|0|8,0:0|0:0|0:0,0:0:0:0:
324,80,140746,5,0,0:0:0:0:
324,80,140844,1,8,0:0:0:0:
324,80,140942,2,0,P|328:128|324:164,1,80,4|0,0:0|0:0,0:0:0:0:
324,292,141335,1,8,0:0:0:0:
324,292,141531,2,0,L|240:296,1,80,0|2,0:0|0:0,0:0:0:0:
176,168,141923,1,0,0:0:0:0:
176,168,142119,2,0,L|260:164,1,80,8|0,0:0|0:0,0:0:0:0:
168,256,142511,2,0,L|88:260,1,80,2|0,0:0|0:0,0:0:0:0:
84,168,142903,6,0,P|80:128|84:80,1,80,8|0,0:0|0:0,0:0:0:0:
164,40,143295,1,2,0:0:0:0:
260,40,143491,1,0,0:0:0:0:
332,120,143687,2,0,P|334:159|330:199,1,80,8|0,0:0|0:0,0:0:0:0:
260,264,144080,5,4,0:0:0:0:
244,168,144276,1,0,0:0:0:0:
332,120,144472,2,0,L|412:116,1,80,8|0,0:0|0:0,0:0:0:0:
411,116,144766,1,8,0:0:0:0:
411,116,144864,1,8,0:0:0:0:
340,263,145060,5,8,0:0:0:0:
320,264,145158,1,8,0:0:0:0:
301,265,145256,1,8,0:0:0:0:
281,265,145354,1,8,0:0:0:0:
261,266,145452,1,8,0:0:0:0:
164,104,145648,1,8,0:0:0:0:
128,192,145844,2,0,L|208:188,1,80,8|0,0:0|0:0,0:0:0:0:
392,192,146236,5,8,0:0:0:0:
256,356,146629,1,8,0:0:0:0:
128,192,147021,1,4,0:0:0:0:
360,56,147413,5,0,0:0:0:0:
360,56,147609,2,0,P|368:96|368:136,1,80,8|0,0:0|0:0,0:0:0:0:
280,232,148001,2,0,P|272:192|272:152,1,80
376,224,148393,2,0,P|384:264|384:304,1,80,8|0,0:0|0:0,0:0:0:0:
292,324,148785,6,0,L|208:332,2,80,0|0|8,0:0|0:0|0:0,0:0:0:0:
304,172,149374,2,0,L|224:179,1,80
140,228,149766,1,0,0:0:0:0:
136,132,149962,1,8,0:0:0:0:
224,178,150158,1,0,0:0:0:0:
220,84,150354,6,0,B|300:76|384:80|384:80,1,160,0|8,0:0|0:0,0:0:0:0:
384,328,151138,1,0,0:0:0:0:
356,240,151335,1,0,0:0:0:0:
292,300,151531,1,8,0:0:0:0:
292,300,151923,6,8,B|212:308|128:304|128:304,1,160,8|8,0:0|0:0,0:0:0:0:
108,48,152707,5,8,0:0:0:0:
76,128,152903,1,0,0:0:0:0:
144,184,153099,1,8,0:0:0:0:
168,104,153295,2,0,P|244:96|328:104,1,160,8|0,0:0|0:0,0:0:0:0:
326,103,153884,1,8,0:0:0:0:
384,320,154276,6,0,L|300:328,1,80,0|0,0:0|0:0,0:0:0:0:
212,352,154668,2,0,L|136:316,1,80,8|0,0:0|0:0,0:0:0:0:
48,288,155060,2,0,P|40:204|48:124,2,160,0|8|0,0:0|0:0|0:0,0:0:0:0:
112,360,156040,1,8,0:0:0:0:
112,360,156236,1,8,0:0:0:0:
372,316,156629,6,0,P|376:232|372:148,1,160,8|8,0:0|0:0,0:0:0:0:
452,112,157217,1,0,0:0:0:0:
368,60,157413,2,0,P|328:56|288:60,1,80,8|8,0:0|0:0,0:0:0:0:
200,104,157805,1,8,0:0:0:0:
256,176,158001,1,8,0:0:0:0:
256,188,158099,1,8,0:0:0:0:
256,200,158197,2,0,L|256:284,2,80,8|8|8,0:0|0:0|0:0,0:0:0:0:
120,110,158785,5,8,0:0:0:0:
107,112,158883,1,8,0:0:0:0:
94,118,158981,1,8,0:0:0:0:
84,126,159079,1,8,0:0:0:0:
75,136,159177,1,8,0:0:0:0:
68,147,159275,1,8,0:0:0:0:
64,160,159374,2,8,P|56:202|60:238,1,80
124,340,159766,6,0,P|84:347|44:343,1,80,2|8,0:0|0:0,0:0:0:0:
200,288,160158,2,0,P|239:280|279:284,1,80,12|0,0:0|0:0,0:0:0:0:
360,328,160550,2,0,P|398:331|438:324,2,80,0|8|8,0:0|0:0|0:0,0:0:0:0:
280,284,161138,2,0,P|272:244|276:205,1,80,0|8,0:0|0:0,0:0:0:0:
352,156,161531,1,0,0:0:0:0:
352,156,161727,2,0,P|391:148|430:152,1,80,8|0,0:0|0:0,0:0:0:0:
264,120,162119,2,0,P|224:127|185:123,1,80,0|8,0:0|0:0,0:0:0:0:
84,140,162511,1,8,0:0:0:0:
96,232,162707,1,0,0:0:0:0:
112,320,162903,6,0,P|192:332|272:320,1,160,8|8,0:0|0:0,0:0:0:0:
340,284,163491,1,0,0:0:0:0:
264,160,163687,2,0,P|260:198|268:238,1,80,0|8,0:0|0:0,0:0:0:0:
340,284,164080,1,8,0:0:0:0:
424,236,164276,1,0,0:0:0:0:
496,184,164472,6,0,P|499:145|491:105,1,80,8|0,0:0|0:0,0:0:0:0:
400,80,164864,2,0,L|316:84,1,80,8|0,0:0|0:0,0:0:0:0:
268,164,165256,1,0,0:0:0:0:
268,164,165452,2,0,L|184:168,2,80,8|8|8,0:0|0:0|0:0,0:0:0:0:
344,204,166040,6,0,P|347:242|339:282,1,80,0|0,0:0|0:0,0:0:0:0:
248,328,166433,2,0,P|244:289|252:249,1,80,8|0,0:0|0:0,0:0:0:0:
272,84,166825,2,0,P|275:122|267:162,1,80,0|8,0:0|0:0,0:0:0:0:
176,208,167218,2,0,P|172:169|180:129,1,80,8|0,0:0|0:0,0:0:0:0:
272,84,167609,6,0,L|356:80,1,80
400,232,168001,1,8,0:0:0:0:
400,232,168197,2,0,L|316:236,1,80
160,296,168589,2,0,L|244:292,2,80,8|8|0,0:0|0:0|0:0,0:0:0:0:
52,320,169178,6,0,P|44:280|44:240,1,80,8|0,0:0|0:0,0:0:0:0:
60,88,169570,2,0,L|148:80,1,80,8|0,0:0|0:0,0:0:0:0:
300,88,169962,2,0,P|308:128|308:168,1,80,0|8,0:0|0:0,0:0:0:0:
292,320,170354,2,0,L|204:328,1,80,8|0,0:0|0:0,0:0:0:0:
124,276,170746,5,8,0:0:0:0:
124,276,170942,1,8,0:0:0:0:
256,96,171335,5,8,0:0:0:0:
388,276,171727,1,8,0:0:0:0:
124,276,172119,1,4,0:0:0:0:
256,192,184864,5,8,0:0:0:0:
256,192,185060,1,8,0:0:0:0:
68,176,185648,2,0,B|40:228|80:280|80:280|60:320,2,120
144,116,187217,1,0,0:0:0:0:
256,336,188001,5,0,0:0:0:0:
256,336,188197,1,0,0:0:0:0:
416,220,188785,2,0,B|432:168|416:124|416:124|424:96,2,120
256,340,190354,1,0,0:0:0:0:
256,340,190550,2,0,L|336:336,1,80
416,184,190942,1,0,0:0:0:0:
408,176,191040,1,0,0:0:0:0:
400,168,191138,6,0,B|372:144|328:132|328:132,1,80,12|0,0:0|0:0,0:0:0:0:
196,206,191531,2,0,B|196:208|208:164|232:136,2,80,8|0|8,0:0|0:0|0:0,0:0:0:0:
232,300,192119,1,0,0:0:0:0:
232,300,192315,2,0,P|192:308|148:304,1,80,8|0,0:0|0:0,0:0:0:0:
300,228,192707,6,0,B|328:256|336:300|336:300,1,80,8|0,0:0|0:0,0:0:0:0:
460,272,193099,1,8,0:0:0:0:
396,192,193295,1,0,0:0:0:0:
388,184,193393,1,0,0:0:0:0:
380,176,193491,2,0,P|372:132|380:88,1,80,8|0,0:0|0:0,0:0:0:0:
272,36,193884,2,0,P|280:80|272:124,1,80,8|8,0:0|0:0,0:0:0:0:
184,168,194276,5,8,0:0:0:0:
160,76,194472,1,8,0:0:0:0:
184,168,194668,1,8,0:0:0:0:
68,184,194864,1,8,0:0:0:0:
184,168,195060,1,8,0:0:0:0:
116,312,195256,1,8,0:0:0:0:
184,168,195452,1,8,0:0:0:0:
256,336,195648,6,8,B|244:280|268:272|256:216,1,120.000004577637
256,40,196433,5,8,0:0:0:0:
256,40,196629,1,8,0:0:0:0:
108,96,197021,1,8,0:0:0:0:
104,104,197119,1,8,0:0:0:0:
100,112,197217,1,8,0:0:0:0:
96,120,197315,1,8,0:0:0:0:
92,128,197413,2,0,L|92:228,1,80,4|0,0:0|0:0,0:0:0:0:
256,336,197805,5,8,0:0:0:0:
256,248,198001,1,0,0:0:0:0:
180,292,198197,1,2,0:0:0:0:
332,204,198393,1,0,0:0:0:0:
180,112,198589,1,8,0:0:0:0:
256,248,198785,1,0,0:0:0:0:
256,156,198982,5,2,0:0:0:0:
180,204,199178,1,0,0:0:0:0:
332,204,199374,1,8,0:0:0:0:
256,156,199570,1,0,0:0:0:0:
256,156,199766,2,0,P|252:116|256:76,1,80,2|8,0:0|0:0,0:0:0:0:
356,40,200158,2,0,P|360:80|356:120,1,80,8|0,0:0|0:0,0:0:0:0:
332,284,200550,6,0,P|328:244|332:204,1,80,2|0,0:0|0:0,0:0:0:0:
428,212,200942,2,0,P|432:252|428:292,1,80,8|0,0:0|0:0,0:0:0:0:
376,364,201335,1,2,0:0:0:0:
256,256,201531,1,0,0:0:0:0:
136,364,201727,1,8,0:0:0:0:
136,364,201923,1,0,0:0:0:0:
52,320,202119,6,0,P|48:280|52:236,1,80,2|0,0:0|0:0,0:0:0:0:
104,160,202511,2,0,P|107:120|103:80,2,80,8|0|2,0:0|0:0|0:0,0:0:0:0:
164,236,203099,1,0,0:0:0:0:
220,116,203295,1,8,0:0:0:0:
280,192,203491,1,8,0:0:0:0:
288,204,203589,1,8,0:0:0:0:
300,216,203687,6,0,P|340:224|384:212,1,80,4|0,0:0|0:0,0:0:0:0:
464,176,204080,1,8,0:0:0:0:
488,272,204276,2,0,P|496:309|488:349,1,80,0|2,0:0|0:0,0:0:0:0:
400,308,204668,1,0,0:0:0:0:
376,216,204864,2,0,P|367:178|375:138,1,80,8|0,0:0|0:0,0:0:0:0:
448,76,205256,1,2,0:0:0:0:
352,44,205452,5,0,0:0:0:0:
352,44,205648,2,0,L|264:40,1,80,8|0,0:0|0:0,0:0:0:0:
136,92,206040,1,2,0:0:0:0:
196,152,206236,2,0,L|284:156,1,80,0|8,0:0|0:0,0:0:0:0:
344,232,206629,5,0,0:0:0:0:
328,232,206727,1,8,0:0:0:0:
316,232,206825,2,0,L|228:228,1,80,2|0,0:0|0:0,0:0:0:0:
160,340,207217,2,0,L|248:344,1,80,8|0,0:0|0:0,0:0:0:0:
324,316,207609,1,2,0:0:0:0:
256,164,207805,2,0,L|256:80,2,80,0|8|0,0:0|0:0|0:0,0:0:0:0:
256,164,208295,1,8,0:0:0:0:
256,164,208393,1,10,0:0:0:0:
236,328,208589,5,8,0:0:0:0:
160,240,208785,1,8,0:0:0:0:
72,332,208982,1,8,0:0:0:0:
56,320,209080,1,8,0:0:0:0:
44,304,209178,1,8,0:0:0:0:
36,288,209276,1,8,0:0:0:0:
32,268,209374,1,8,0:0:0:0:
32,248,209472,1,8,0:0:0:0:
36,228,209570,2,8,B|40:184|68:168|68:168,1,80
184,125,209962,6,0,P|176:96|184:48,1,80,4|0,0:0|0:0,0:0:0:0:
328,48,210354,2,0,P|336:96|324:132,1,80,8|0,0:0|0:0,0:0:0:0:
256,164,210746,1,2,0:0:0:0:
256,84,210942,1,0,0:0:0:0:
328,48,211138,2,0,L|408:44,1,80,8|0,0:0|0:0,0:0:0:0:
404,200,211531,2,0,L|324:204,1,80,2|0,0:0|0:0,0:0:0:0:
256,164,211923,5,8,0:0:0:0:
256,244,212119,1,0,0:0:0:0:
184,204,212315,2,0,L|104:200,1,80,2|8,0:0|0:0,0:0:0:0:
108,356,212707,2,0,L|188:360,1,80,8|0,0:0|0:0,0:0:0:0:
404,356,213099,2,0,L|324:360,1,80,2|0,0:0|0:0,0:0:0:0:
252,320,213491,5,8,0:0:0:0:
240,184,213687,1,0,0:0:0:0:
304,248,213884,1,2,0:0:0:0:
292,112,214080,2,0,L|372:108,1,80,0|8,0:0|0:0,0:0:0:0:
392,224,214472,1,0,0:0:0:0:
304,248,214668,6,0,L|224:252,1,80,2|0,0:0|0:0,0:0:0:0:
148,224,215060,1,8,0:0:0:0:
136,68,215256,2,0,L|216:64,1,80,0|2,0:0|0:0,0:0:0:0:
368,68,215648,1,0,0:0:0:0:
216,152,215844,1,8,0:0:0:0:
292,112,216040,1,0,0:0:0:0:
304,124,216138,1,8,0:0:0:0:
316,136,216236,6,0,P|324:176|320:228,1,80,4|0,0:0|0:0,0:0:0:0:
312,304,216629,1,8,0:0:0:0:
244,248,216825,1,0,0:0:0:0:
322,214,217021,2,0,L|408:212,1,80,2|0,0:0|0:0,0:0:0:0:
392,300,217413,2,0,L|306:302,1,80,8|0,0:0|0:0,0:0:0:0:
120,300,217805,2,0,L|205:302,1,80,2|0,0:0|0:0,0:0:0:0:
189,214,218197,2,0,L|104:212,1,80,8|0,0:0|0:0,0:0:0:0:
40,156,218589,5,2,0:0:0:0:
120,300,218785,1,0,0:0:0:0:
272,260,218982,1,8,0:0:0:0:
208,100,219178,1,8,0:0:0:0:
200,108,219276,1,8,0:0:0:0:
192,116,219374,6,0,P|184:156|188:196,1,80,2|0,0:0|0:0,0:0:0:0:
272,260,219766,1,8,0:0:0:0:
280,172,219962,1,0,0:0:0:0:
187,194,220158,2,0,L|104:200,1,80,2|0,0:0|0:0,0:0:0:0:
272,260,220550,2,0,L|355:254,1,80,8|0,0:0|0:0,0:0:0:0:
180,288,220942,1,4,0:0:0:0:
351,254,221138,1,0,0:0:0:0:
264,352,221334,1,8,0:0:0:0:
272,104,221531,6,0,B|252:168|292:184|272:264,1,160,2|0,0:0|0:0,0:0:0:0:
180,288,222119,2,0,L|92:288,1,80,8|8,0:0|0:0,0:0:0:0:
104,112,222511,2,0,L|192:112,1,80,4|0,0:0|0:0,0:0:0:0:
288,36,222903,5,8,0:0:0:0:
328,144,223099,1,0,0:0:0:0:
392,60,223296,2,0,P|432:52|472:56,2,80,2|0|8,0:0|0:0|0:0,0:0:0:0:
328,144,223884,1,0,0:0:0:0:
440,228,224080,2,0,P|444:188|440:148,2,80,2|0|8,0:0|0:0|0:0,0:0:0:0:
388,324,224668,1,0,0:0:0:0:
328,248,224864,1,2,0:0:0:0:
268,316,225060,1,0,0:0:0:0:
220,224,225256,2,0,L|136:220,1,80,8|0,0:0|0:0,0:0:0:0:
256,136,225648,6,0,P|264:92|264:52,1,80,2|0,0:0|0:0,0:0:0:0:
304,216,226040,2,0,P|332:184|348:148,1,80,8|0,0:0|0:0,0:0:0:0:
168,232,226433,2,0,P|160:276|160:316,1,80,2|0,0:0|0:0,0:0:0:0:
120,152,226825,2,0,P|92:184|76:220,1,80,8|0,0:0|0:0,0:0:0:0:
240,320,227217,6,0,P|205:320|161:312,1,80,2|0,0:0|0:0,0:0:0:0:
220,224,227609,2,0,P|260:224|300:233,1,80,8|0,0:0|0:0,0:0:0:0:
400,336,228001,1,2,0:0:0:0:
456,212,228197,1,0,0:0:0:0:
298,232,228393,1,8,0:0:0:0:
396,128,228589,1,0,0:0:0:0:
404,120,228687,1,0,0:0:0:0:
412,112,228786,6,0,P|416:68|412:24,1,80,4|0,0:0|0:0,0:0:0:0:
196,72,229178,1,8,0:0:0:0:
196,72,229374,2,0,P|192:116|196:160,1,80,0|2,0:0|0:0,0:0:0:0:
236,240,229766,1,0,0:0:0:0:
320,196,229962,2,0,L|404:188,1,80,8|0,0:0|0:0,0:0:0:0:
240,144,230354,5,2,0:0:0:0:
144,172,230550,1,0,0:0:0:0:
148,272,230746,2,0,P|140:312|140:360,2,80,8|0|2,0:0|0:0|0:0,0:0:0:0:
240,144,231334,1,0,0:0:0:0:
320,332,231531,1,8,0:0:0:0:
432,268,231727,1,0,0:0:0:0:
432,268,231825,1,0,0:0:0:0:
432,268,231923,6,0,P|440:228|440:180,1,80,4|0,0:0|0:0,0:0:0:0:
404,83,232315,1,8,0:0:0:0:
404,83,232511,2,0,B|416:84|368:76|324:84,1,80,0|2,0:0|0:0,0:0:0:0:
269,186,232903,1,0,0:0:0:0:
269,186,233099,2,0,B|256:184|304:192|348:184,1,80,8|0,0:0|0:0,0:0:0:0:
240,32,233492,5,4,0:0:0:0:
188,120,233688,1,8,0:0:0:0:
100,56,233884,1,8,0:0:0:0:
84,180,234080,5,8,0:0:0:0:
88,204,234178,1,8,0:0:0:0:
96,228,234276,1,10,0:0:0:0:
108,248,234374,1,8,0:0:0:0:
124,264,234472,1,8,0:0:0:0:
144,276,234570,1,8,0:0:0:0:
168,280,234668,2,8,B|212:272|252:280|252:280,1,80
376,324,235060,6,0,P|400:292|416:248,1,80,4|0,0:0|0:0,0:0:0:0:
376,60,235452,2,0,P|400:92|416:136,1,80,8|0,0:0|0:0,0:0:0:0:
380,220,235845,1,2,0:0:0:0:
320,144,236041,2,0,L|240:144,1,80,0|8,0:0|0:0,0:0:0:0:
136,108,236433,1,0,0:0:0:0:
136,108,236531,1,0,0:0:0:0:
136,108,236629,6,0,P|124:152|120:192,1,80,2|0,0:0|0:0,0:0:0:0:
132,292,237021,2,0,L|212:292,1,80,8|0,0:0|0:0,0:0:0:0:
320,144,237413,1,2,0:0:0:0:
212,204,237609,1,0,0:0:0:0:
308,276,237805,1,8,0:0:0:0:
232,48,238001,1,0,0:0:0:0:
232,48,238099,1,0,0:0:0:0:
232,48,238197,6,0,L|152:48,1,80,2|0,0:0|0:0,0:0:0:0:
89,194,238589,2,0,B|92:200|72:160|88:116,1,80,8|0,0:0|0:0,0:0:0:0:
228,276,238982,1,2,0:0:0:0:
89,194,239178,1,0,0:0:0:0:
192,84,239374,1,8,0:0:0:0:
312,168,239570,1,0,0:0:0:0:
312,168,239668,1,8,0:0:0:0:
312,168,239766,6,0,B|336:200|336:244|336:244,1,80,2|0,0:0|0:0,0:0:0:0:
404,312,240158,2,0,B|372:336|328:336,1,80,8|0,0:0|0:0,0:0:0:0:
424,220,240550,2,0,B|468:220|500:244|500:244,2,80,2|0|8,0:0|0:0|0:0,0:0:0:0:
224,328,241139,1,8,0:0:0:0:
216,320,241237,1,8,0:0:0:0:
208,312,241335,6,0,B|184:280|184:236|184:236|184:236,1,80,4|0,0:0|0:0,0:0:0:0:
196,120,241727,1,8,0:0:0:0:
308,140,241923,2,0,B|331:171|332:216|332:216,2,80,0|2|0,0:0|0:0|0:0,0:0:0:0:
196,120,242511,2,0,P|152:116|112:128,1,80,8|0,0:0|0:0,0:0:0:0:
120,272,242903,6,0,P|164:276|204:264,1,80,2|0,0:0|0:0,0:0:0:0:
244,192,243295,1,8,0:0:0:0:
160,192,243491,1,0,0:0:0:0:
284,264,243687,2,0,P|288:299|288:344,2,80,2|0|8,0:0|0:0|0:0,0:0:0:0:
340,192,244276,1,0,0:0:0:0:
348,184,244374,1,8,0:0:0:0:
356,176,244472,6,0,P|360:136|356:92,1,80,4|0,0:0|0:0,0:0:0:0:
256,56,244864,1,8,0:0:0:0:
155,96,245060,2,8,P|152:136|156:176,1,80,0|0,0:0|0:0,0:0:0:0:
220,288,245452,1,0,0:0:0:0:
220,288,245550,1,0,0:0:0:0:
220,288,245648,2,0,P|257:297|297:289,1,80,8|0,0:0|0:0,0:0:0:0:
256,88,246041,5,8,0:0:0:0:
256,88,246237,1,8,0:0:0:0:
256,88,246629,6,0,B|240:168|272:196|256:288,1,200
