osu file format v9

[General]
AudioFilename: anesthesia.mp3
AudioLeadIn: 0
PreviewTime: 52710
Countdown: 0
SampleSet: Soft
StackLeniency: 0.7
Mode: 0
LetterboxInBreaks: 1

[Editor]
DistanceSpacing: 1.2
BeatDivisor: 4
GridSize: 8

[Metadata]
Title:anesthesia
Artist:Chata
Creator:Mystica
Version:Insane
Source:
Tags:

[Difficulty]
HPDrainRate:7
CircleSize:4
OverallDifficulty:7
ApproachRate:8
SliderMultiplier:1.6
SliderTickRate:1

[Events]
//Background and Video events
0,0,"bg.jpg"
//Break Periods
2,78400,82940
2,172518,184117
//Storyboard Layer 0 (Background)
//Storyboard Layer 1 (Fail)
//Storyboard Layer 2 (Pass)
//Storyboard Layer 3 (Foreground)
//Storyboard Sound Samples
//Background Colour Transformations
3,100,163,162,255

[TimingPoints]
14671,392.156862745098,4,2,1,50,1,0
27808,-100,4,2,1,5,0,0
28004,-100,4,2,1,50,0,0
52710,-100,4,2,1,50,0,1
65553,-100,4,2,1,50,0,0
65651,-100,4,2,1,50,0,1
78200,-100,4,2,1,50,0,0
121729,-100,4,2,1,50,0,1
134474,-100,4,2,1,50,0,0
134670,-100,4,2,1,50,0,1
147808,-142.857142857143,4,2,1,50,0,0
184867,-142.857142857143,4,2,1,30,0,0
191141,-100,4,2,1,50,0,0
197023,-100,4,2,1,50,0,1
209769,-100,4,2,1,50,0,0
209867,-100,4,2,1,50,0,1
234867,-100,4,2,1,50,0,0
235063,-100,4,2,1,50,0,1
247023,-100,4,2,1,5,0,1
247220,-100,4,2,1,50,0,1
247612,-100,4,2,1,50,0,0

[Colours]
Combo1 : 128,64,64
Combo2 : 255,128,255
Combo3 : 128,0,255

[HitObjects]
128,96,14867,1,0
128,96,15063,2,0,B|208:48|296:104,1,160,2|8
208,168,15651,1,0
208,168,15847,1,0
208,168,16043,2,0,B|288:224|368:160,1,160,8|0
296,96,16631,5,0
200,72,16827,1,0
112,112,17023,2,0,B|24:168|56:264,1,160,8|0
144,208,17612,2,0,B|240:208|248:320,1,160,8|0
344,304,18200,1,0
304,216,18396,1,0
424,56,18592,5,8
360,136,18788,1,0
264,120,18984,2,0,B|240:72|176:72,1,80,0|8
112,96,19376,2,0,B|144:144|208:120,1,80
112,192,19769,2,0,B|80:216|72:264,1,80,0|8
144,320,20161,5,0
240,312,20357,1,0
328,272,20553,1,8
400,208,20749,1,0
448,128,20945,1,8
464,32,21141,1,0
368,48,21337,1,8
296,112,21533,1,0
184,272,21729,6,0,B|136:344|40:344,1,160,4|8
72,248,22318,1,0
104,160,22514,1,0
184,112,22710,1,8
240,192,22906,1,0
176,264,23102,1,8
272,280,23298,2,0,B|360:248,1,80,0|8
408,152,23690,6,0,B|320:184,1,80,8|0
336,80,24082,1,8
248,112,24278,1,8
224,208,24474,1,0
152,144,24671,1,0
56,160,24867,2,0,B|24:200|24:248,1,80,8|0
80,312,25259,2,0,B|112:272|112:240,1,80,0|8
192,296,25651,5,0
200,200,25847,1,8
280,152,26043,1,0
272,248,26239,1,8
352,200,26435,2,0,B|384:152|368:112,1,80,8|0
328,40,26827,2,0,B|304:80|320:128,1,80,0|8
224,104,27220,5,0
136,136,27416,1,0
72,208,27612,1,8
48,304,27808,1,0
256,344,28004,2,0,B|352:336|360:240,1,160,10|0
248,152,28592,2,8,B|272:56|376:40,1,160
488,96,29180,5,0
424,176,29376,1,0
464,264,29572,2,0,B|440:288|384:296,1,80,8|0
336,216,29965,2,0,B|296:232|272:280,1,80,0|8
200,328,30357,1,0
112,288,30553,1,0
184,232,30749,1,8
184,232,30945,1,0
184,232,31141,6,8,B|208:184|264:176,1,80
336,176,31533,1,0
392,96,31729,1,8
296,88,31925,1,0
216,40,32121,1,0
136,96,32318,2,0,B|96:120|80:168,1,80,8|0
128,248,32710,2,0,B|168:216|176:176,1,80,0|8
240,248,33102,5,0
320,312,33298,1,8
336,216,33494,1,0
392,136,33690,2,0,B|408:88|400:48,1,80,0|8
312,32,34082,1,8
184,120,34278,2,0,B|104:88|24:144,1,160,4|8
64,280,34867,5,0
168,280,35063,1,0
232,208,35259,1,8
168,280,35455,2,0,B|136:240|136:200,1,80,0|8
72,136,35847,2,0,B|112:104|168:112,1,80,0|8
240,136,36239,6,0,B|296:120|312:80,1,80,0|0
392,48,36631,1,8
464,112,36827,1,0
488,208,37023,1,0
496,304,37220,1,8
360,256,37416,6,0,B|288:224|184:240,1,160,0|8
240,328,38004,2,0,B|184:336|152:320,1,80,0|10
72,288,38396,1,10
80,200,38592,1,0
96,104,38788,1,0
80,200,38984,5,10
168,160,39180,1,0
264,136,39376,1,10
360,136,39572,1,0
456,160,39769,2,0,B|480:192|480:240,1,80,10|0
416,304,40161,2,0,B|392:272|392:224,1,80,10|0
232,312,40553,6,0,B|160:352|64:320,1,160,4|10
80,232,41141,1,0
168,208,41337,1,0
96,144,41533,1,0
192,128,41729,1,10
264,192,41925,1,0
296,104,42121,6,0,B|376:48,1,80,0|0
456,88,42514,2,0,B|384:136,1,80,10|0
368,224,42906,2,0,B|280:168,1,80
304,280,43298,2,0,B|376:328,1,80,10|0
456,88,43690,5,0
432,176,43886,1,0
352,120,44082,1,10
256,96,44278,1,0
288,184,44474,1,0
192,176,44671,1,0
104,128,44867,1,10
64,40,45063,1,0
160,48,45259,6,0,B|208:64|208:112,1,80
136,168,45651,2,0,B|144:216|208:224,1,80,0|10
280,248,46043,2,0,B|320:280|312:336,1,80
376,224,46435,2,0,B|360:176|384:128,1,80,10|0
472,32,46827,6,0,B|504:80|488:128,1,80,4|0
472,200,47220,1,10
416,280,47416,1,0
328,328,47612,2,0,B|280:344|224:328,1,80,0|0
248,248,48004,2,0,B|200:240|144:264,1,80,10|0
112,336,48396,5,0
64,256,48592,1,0
72,160,48788,2,0,B|128:176|136:216,1,80,10|0
208,272,49180,2,0,B|192:216|248:184,1,80
304,256,49572,1,10
368,184,49769,1,0
432,56,49965,5,0
352,104,50161,1,0
256,72,50357,2,0,B|216:56|168:64,1,80,10|0
208,152,50749,2,0,B|144:160|120:136,1,80,10|0
80,56,51141,1,10
80,56,51337,1,10
256,288,51729,5,10
256,288,51925,1,10
256,32,52318,5,10
416,176,52710,5,0
416,80,52906,1,10
416,176,53102,1,12
336,128,53298,6,10,B|296:104|248:104,1,80,0|10
192,176,53690,1,0
120,112,53886,1,0
24,112,54082,1,0
80,192,54278,2,0,B|128:216|128:264,1,80,10|0
88,344,54671,2,0,B|72:304|96:256,1,80
176,304,55063,5,10
176,304,55259,1,0
216,216,55455,1,0
288,272,55651,1,0
368,320,55847,2,0,B|416:304|432:256,1,80,10|0
296,56,56239,6,0,B|256:64|232:112,1,80,4|0
304,144,56631,1,10
384,88,56827,1,0
296,56,57023,2,0,B|216:40,1,80,0|0
216,136,57416,2,0,B|176:160|128:152,1,80,10|0
48,128,57808,6,0,B|16:176|24:224,1,80,0|0
80,280,58200,1,10
152,216,58396,1,0
152,120,58592,2,0,B|200:112|224:160,1,80
256,240,58984,2,0,B|264:296|336:296,1,80,10|0
464,48,59376,5,4
408,136,59572,1,0
352,56,59769,1,10
256,48,59965,1,0
184,112,60161,2,0,B|280:136,1,80
312,208,60553,2,0,B|312:296,1,80,10|0
224,248,60945,5,0
128,248,61141,1,0
72,176,61337,1,10
80,80,61533,1,0
168,112,61729,1,0
72,176,61925,1,0
72,272,62121,1,10
168,328,62318,1,0
376,224,62514,6,0,B|464:224,1,80,4|0
304,152,62906,2,0,B|216:152,1,80,10|0
376,64,63298,2,0,B|472:64,1,80
448,160,63690,2,0,B|448:240,1,80,10|0
352,288,64082,5,0
264,312,64278,1,10
176,288,64474,1,10
72,240,64671,5,0
72,232,64769,1,0
72,224,64867,1,2
72,216,64965,1,0
72,208,65063,1,2
72,200,65161,1,0
72,192,65259,1,2
72,184,65357,1,0
72,176,65455,2,0,B|144:128|224:184,1,160,6|0
184,272,66043,6,0,B|240:296|288:256,1,80,10|0
344,224,66435,1,0
384,136,66631,1,0
344,48,66827,1,10
312,136,67023,1,0
280,224,67220,2,0,B|200:224,1,80
144,144,67612,2,0,B|232:144,1,80,10|0
184,56,68004,6,0,B|88:56,1,80
56,144,68396,1,10
48,240,68592,1,0
280,344,68788,1,4
176,344,68984,1,0
144,256,69180,1,10
232,192,69376,1,0
320,256,69572,5,0
360,344,69769,2,0,B|432:280|400:192,1,160,10|10
352,120,70357,1,10
272,72,70553,1,0
264,168,70749,1,10
352,120,70945,1,0
352,216,71141,5,0
272,264,71337,1,0
176,272,71533,1,10
88,232,71729,1,0
248,96,71925,6,0,B|280:56|280:8,1,80,4|0
360,80,72318,2,0,B|400:40|456:40,1,80,10|0
488,120,72710,1,0
480,216,72906,1,0
400,160,73102,1,10
360,80,73298,1,0
272,56,73494,6,0,B|224:56|192:96,1,80
272,152,73886,2,0,B|296:192|344:192,1,80,10|0
256,248,74278,2,0,B|216:280|208:328,1,80
152,232,74671,2,0,B|176:192|152:144,1,80,10|0
392,64,75063,5,4
304,32,75259,1,0
232,96,75455,1,10
320,128,75651,1,0
224,184,75847,1,0
224,280,76043,1,0
312,320,76239,5,10
352,232,76435,1,0
440,272,76631,2,0,B|480:240|480:192,1,80
456,112,77023,1,10
256,320,77612,5,10
256,320,78004,1,0
256,320,78200,1,4
400,136,83690,5,0
400,136,83788,1,0
400,136,83886,1,0
400,136,83984,1,0
400,136,84082,1,0
400,136,84180,1,0
400,136,84278,1,0
400,136,84376,1,0
400,136,84474,2,0,B|328:80|224:144,1,160,8|0
328,208,85063,6,0,B|248:256|176:208,1,160,8|8
120,136,85651,2,0,B|64:192,1,80
136,256,86043,2,0,B|136:304|184:328,1,80,8|0
232,248,86435,2,0,B|272:216|272:168,1,80,0|8
232,96,86827,2,0,B|192:128|200:176,1,80
296,160,87220,2,0,B|328:112|320:72,1,80,8|0
408,304,87612,5,0
456,224,87808,1,0
360,224,88004,1,8
408,304,88200,1,8
312,304,88396,2,0,B|256:296|240:256,1,80,8|0
304,192,88788,2,0,B|272:168|224:176,1,80,0|0
160,240,89180,6,0,B|80:200,1,80,0|8
80,112,89572,2,0,B|160:152,1,80,8|0
216,72,89965,1,0
304,112,90161,1,0
216,72,90357,1,0
304,112,90553,1,8
176,320,90749,6,0,B|104:256|160:160,1,160,8|4
176,320,91337,1,0
272,304,91533,1,0
176,320,91729,1,8
224,240,91925,1,8
320,240,92121,1,0
368,328,92318,5,8
416,248,92514,2,0,B|456:208|464:168,1,80
376,136,92906,2,0,B|408:96|448:80,1,80,8|8
344,56,93298,1,0
248,64,93494,1,0
176,128,93690,1,0
152,224,93886,6,0,B|120:312,1,80,8|0
216,288,94278,2,0,B|216:376,1,80,8|0
312,368,94671,2,0,B|312:280,1,80
384,224,95063,2,0,B|424:304,1,80,0|8
472,216,95455,5,0
472,120,95651,1,0
400,56,95847,1,8
400,152,96043,1,0
160,72,96239,2,0,B|112:96|96:144,1,80,10|0
192,168,96631,2,0,B|160:208|168:248,1,80,10|0
264,248,97023,6,0,B|256:296|280:328,1,80,4|0
368,360,97416,2,0,B|368:304|336:272,1,80
392,200,97808,1,0
320,144,98004,1,8
296,240,98200,2,0,B|240:248|208:232,1,80,0|8
208,128,98592,6,0,B|160:120|112:136,1,80
64,208,98984,1,0
40,304,99180,1,8
128,272,99376,2,0,B|184:248|192:208,1,80,0|8
168,128,99769,2,0,B|216:112|264:136,1,80,8|0
400,192,100161,6,0,B|440:176|472:136,1,80,4|0
304,88,100553,1,0
400,72,100749,1,8
464,144,100945,1,0
464,240,101141,1,8
368,240,101337,2,0,B|304:296,1,80
264,208,101729,2,0,B|192:272,1,80,0|8
240,168,102121,6,0,B|312:104,1,80,8|0
216,72,102514,2,0,B|296:8|288:8,1,80,0|0
352,80,102906,1,0
280,144,103102,1,8
184,176,103298,2,0,B|104:208|16:200,1,160,8|0
320,232,103886,1,0
224,232,104082,2,0,B|264:200|272:168,1,80,8|0
200,104,104474,2,0,B|232:56|296:56,1,80,8|8
360,80,104867,1,0
344,160,105063,1,0
248,152,105259,1,0
208,240,105455,1,8
304,248,105651,5,0
384,296,105847,1,8
416,208,106043,2,0,B|448:176|456:128,1,80
352,72,106435,2,0,B|304:104|304:152,1,80,8|0
368,208,106827,2,0,B|344:248|296:264,1,80,0|8
208,256,107220,1,0
128,200,107416,1,8
216,160,107612,5,8
208,256,107808,1,8
120,296,108004,2,0,B|64:280|48:224,1,80,4|0
104,168,108396,2,0,B|88:120|40:120,1,80,8|0
120,56,108788,1,0
216,40,108984,1,0
192,136,109180,1,0
224,224,109376,1,8
312,344,109572,6,0,B|392:384|480:368,1,160,4|10
408,288,110161,1,0
464,216,110357,2,0,B|472:160|448:128,1,80
376,192,110749,2,0,B|344:152|288:160,1,80,10|0
288,256,111141,5,0
192,240,111337,1,0
128,312,111533,2,0,B|80:320|40:288,1,80,10|0
104,216,111925,1,0
80,120,112121,1,0
168,152,112318,2,0,B|216:112|208:56,1,80,10|0
352,48,112710,6,0,B|408:40|448:56,1,80,4|0
384,136,113102,2,0,B|368:184|392:224,1,80,10|0
304,272,113494,2,0,B|320:232|296:184,1,80
384,136,113886,1,10
464,200,114082,1,0
432,288,114278,5,0
344,320,114474,1,0
248,304,114671,1,10
168,248,114867,2,0,B|88:192|64:112,1,160
144,64,115455,1,10
216,128,115651,1,0
384,208,115847,5,4
320,120,116043,1,0
272,208,116239,2,0,B|248:248|208:272,1,80,10|0
144,200,116631,2,0,B|96:232|80:280,1,80
24,192,117023,1,10
24,192,117220,1,0
64,104,117416,6,0,B|112:80|152:80,1,80
224,128,117808,1,10
224,128,118004,1,0
296,192,118200,2,0,B|352:160|360:104,1,80
336,40,118592,2,0,B|392:32|424:56,1,80,10|0
456,136,118984,2,0,B|424:216,1,80
240,320,119376,6,0,B|280:232,1,80,10|0
264,168,119769,2,0,B|216:272,1,80,10|0
136,256,120161,1,10
136,256,120357,1,10
64,80,120749,5,10
64,80,120945,1,10
256,112,121337,5,0
256,304,121729,5,4
256,208,121925,1,10
256,304,122121,1,0
336,248,122318,1,0
336,248,122514,1,10
336,248,122710,1,0
336,248,122906,6,0,B|408:192|424:112,1,160,0|10
328,144,123494,2,0,B|312:96|256:88,1,80,0|0
240,184,123886,2,0,B|200:160|152:184,1,80,0|10
200,264,124278,1,0
120,320,124474,1,0
56,248,124671,2,0,B|32:192|48:160,1,80,0|10
80,80,125063,1,0
224,152,125259,6,0,B|248:200|232:248|232:248,1,80,0|0
192,312,125651,1,10
280,344,125847,1,0
328,264,126043,2,0,B|376:240|432:232,1,80,0|0
488,280,126435,2,0,B|496:240|488:192,1,80,10|0
432,128,126827,1,0
360,72,127023,1,0
296,144,127220,5,10
368,208,127416,1,0
280,256,127612,2,0,B|232:296|192:288,1,80
208,192,128004,2,0,B|176:144|136:152,1,80,10|0
400,40,128396,5,0
304,64,128592,1,0
208,72,128788,1,10
256,160,128984,1,0
304,240,129180,2,0,B|248:256|240:304,1,80
328,336,129572,1,10
304,240,129769,1,0
232,304,129965,5,0
128,288,130161,1,0
48,232,130357,2,0,B|64:176|120:168,1,80,10|0
184,224,130749,2,0,B|264:184|288:104,1,160,0|10
144,160,131337,5,0
240,152,131533,1,0
328,184,131729,1,0
408,128,131925,2,0,B|456:168|456:216,1,80,10|0
416,280,132318,5,0
336,336,132514,1,0
416,280,132710,1,10
336,336,132906,1,0
248,296,133102,1,10
216,208,133298,1,0
280,136,133494,1,10
368,96,133690,5,10
368,104,133788,1,0
368,112,133886,1,10
368,120,133984,1,0
368,128,134082,1,10
368,136,134180,1,0
368,144,134278,1,10
368,152,134376,1,0
368,160,134474,2,0,B|296:216|216:160|216:160,1,160,14|0
144,104,135063,6,0,B|104:72|48:120,1,80,10|0
104,192,135455,1,0
104,288,135651,1,0
184,240,135847,2,0,B|272:240,1,80,10|0
320,160,136239,2,0,B|224:160,1,80
288,240,136631,5,10
360,304,136827,1,0
424,232,137023,2,0,B|472:160|464:72,1,160,0|10
376,48,137612,1,0
192,136,137808,6,0,B|152:152|128:200,1,80,0|0
240,224,138200,1,10
336,200,138396,1,0
304,296,138592,2,0,B|256:336|216:336,1,80,10|10
144,312,138984,1,0
64,256,139180,1,0
96,168,139376,5,10
176,224,139572,1,0
256,280,139769,2,0,B|296:240|296:208,1,80,0|10
240,136,140161,2,0,B|280:80|312:88,1,80,0|0
216,48,140553,1,10
136,96,140749,1,0
64,264,140945,6,0,B|32:304|48:360,1,80,4|0
136,312,141337,1,10
224,280,141533,1,0
320,304,141729,2,0,B|352:248|336:208,1,80
280,152,142121,2,0,B|280:96|312:64,1,80,10|0
400,72,142514,5,0
464,144,142710,1,0
488,240,142906,1,10
496,336,143102,1,0
408,304,143298,2,0,B|352:296|352:248,1,80
352,160,143690,2,0,B|400:176|400:232,1,80,10|0
304,192,144082,6,0,B|248:168|248:120,1,80
216,224,144474,2,0,B|200:272|160:280,1,80,10|0
80,232,144867,1,0
56,136,145063,1,0
104,56,145259,1,10
200,56,145455,1,0
256,136,145651,1,10
256,136,145847,1,10
256,328,146239,5,10
424,232,146631,5,0
328,232,146827,2,0,B|288:200|248:240|216:272|168:224,1,160,4|0
160,96,147808,6,0,B|104:136|88:192,1,111.999997329712
128,200,148396,2,0,B|112:240|112:264,1,55.999998664856
152,264,148788,2,0,B|144:304|152:320,1,55.999998664856
192,296,149180,2,0,B|208:264|200:232,1,55.999998664856
176,208,149572,2,0,B|184:168|208:152,1,55.999998664856
248,152,149965,1,0
256,192,150161,12,0,153494
416,72,154082,6,0,B|432:144|416:192,1,111.999997329712
376,168,154670,2,0,B|352:216|368:240,1,55.999998664856
400,248,155063,2,0,B|400:288|376:312,1,55.999998664856
352,272,155455,2,0,B|320:256|288:272,1,55.999998664856
304,312,155847,2,0,B|256:320|248:296,1,55.999998664856
256,256,156239,1,0
256,192,156435,12,0,159769
128,72,160357,6,0,B|176:48|224:96|256:64,1,111.999997329712
264,40,160945,2,0,B|304:40|320:64,1,55.999998664856
304,104,161337,2,0,B|328:128|328:160,1,55.999998664856
288,176,161729,2,0,B|280:208|296:240,1,55.999998664856
336,232,162121,2,0,B|352:272|336:296,1,55.999998664856
296,296,162514,1,0
256,192,162710,12,0,166043
384,296,166631,6,0,B|336:264|272:272,1,111.999997329712
256,312,167220,2,0,B|216:304|208:280,1,55.999998664856
216,240,167612,2,0,B|184:232|160:248,1,55.999998664856
144,288,168004,2,0,B|112:256|120:224,1,55.999998664856
160,216,168396,2,0,B|160:176|136:160,1,55.999998664856
96,152,168788,1,0
256,192,168984,12,0,172318
104,80,184867,5,0
104,80,185063,1,0
232,56,185651,2,0,B|304:48|360:64,1,111.999997329712,8|0
352,152,186435,1,0
304,224,186827,1,0
256,152,187220,2,0,B|192:128|144:160,1,111.999997329712,8|0
112,240,188004,5,0
112,240,188200,1,0
232,304,188788,2,0,B|272:248|256:200,1,111.999997329712,8|0
328,144,189572,2,0,B|368:192,1,55.999998664856
400,160,189965,2,0,B|456:192,1,55.999998664856
448,232,190357,2,0,B|416:288|344:296,1,111.999997329712,8|0
168,320,191141,5,0
96,256,191337,1,0
184,216,191533,2,0,B|176:168|136:144|136:144,1,80,10|0
56,104,191925,1,0
136,48,192121,1,0
224,96,192318,2,0,B|272:112|312:96,1,80,10|0
368,32,192710,5,0
448,88,192906,1,0
376,152,193102,2,0,B|352:192|352:240,1,80,10|0
448,232,193494,2,0,B|440:280|400:312,1,80
312,304,193886,2,0,B|240:256|152:272,1,160,10|0
432,40,194474,5,0
392,128,194670,1,10
304,168,194867,1,0
208,152,195063,1,10
264,80,195259,1,0
336,144,195455,1,10
368,232,195651,1,10
168,344,196043,5,10
168,344,196239,1,10
72,176,196631,5,0
264,208,197023,6,0,B|312:184|320:144,1,80,4|10
344,56,197416,1,0
440,72,197612,1,0
456,168,197808,1,10
376,216,198004,2,0,B|344:256|344:296,1,80
248,312,198396,1,0
224,224,198592,6,0,B|176:208|160:168,1,80,10|0
224,104,198984,1,0
136,72,199180,1,0
80,152,199376,2,0,B|56:208|64:240,1,80,10|0
152,272,199769,2,0,B|168:328|216:352,1,80
448,208,200161,5,10
368,264,200357,1,0
288,216,200553,2,0,B|304:168|360:168,1,80
432,120,200945,2,0,B|408:80|360:72|360:72,1,80,10|0
280,104,201337,2,0,B|232:128|224:168,1,80,0|0
216,256,201729,2,0,B|168:288|128:288,1,80,10|0
56,248,202121,5,0
40,152,202318,1,0
112,88,202514,1,10
200,136,202710,2,0,B|240:104|232:56,1,80
320,104,203102,2,0,B|352:56|400:56,1,80,0|10
448,128,203494,1,0
272,272,203690,5,0
296,184,203886,1,0
232,112,204082,1,10
144,64,204278,1,0
64,112,204474,2,0,B|32:160|40:200,1,80
80,272,204867,2,0,B|120:248|120:200,1,80,10|0
208,176,205259,5,0
304,152,205455,1,0
368,80,205651,1,10
464,72,205847,1,0
488,168,206043,2,0,B|472:224|448:256,1,80
368,216,206435,2,0,B|336:256|336:304,1,80,10|0
128,184,206827,5,0
152,272,207023,1,0
232,216,207220,2,0,B|240:160|224:128,1,80,10|0
136,160,207612,2,0,B|128:112|152:64,1,80
240,64,208004,2,0,B|296:40|336:48,1,80,10|0
408,80,208396,1,10
472,152,208592,1,10
488,248,208788,1,0
400,208,208984,5,10
392,208,209082,1,0
384,208,209180,1,10
376,208,209278,1,0
368,208,209376,1,10
360,208,209474,1,0
352,208,209572,1,10
344,208,209670,1,0
336,208,209769,2,0,B|280:136|336:48,1,160,14|0
232,56,210357,5,10
176,136,210553,1,0
104,72,210749,2,0,B|72:104|64:144,1,80
88,232,211141,1,10
160,296,211337,1,0
256,280,211533,1,0
184,216,211729,1,0
280,200,211925,6,0,B|320:144|312:112,1,80,10|0
248,56,212318,2,0,B|296:24|360:32,1,80
416,64,212710,2,0,B|448:112|440:152,1,80,10|0
224,176,213102,2,0,B|224:232|248:272,1,80
304,328,213494,1,10
208,344,213690,1,0
240,256,213886,5,10
240,256,214082,1,10
144,248,214278,1,0
80,176,214474,1,0
176,168,214670,2,0,B|224:120|232:80,1,80,10|0
296,168,215063,2,0,B|312:216|360:240,1,80,0|10
424,288,215455,6,0,B|448:240|432:200,1,80,0|0
488,136,215847,2,0,B|448:112|408:96,1,80,10|0
160,56,216239,1,4
256,64,216435,1,0
200,144,216631,2,0,B|152:160|104:136,1,80,10|0
88,232,217023,1,0
128,320,217220,1,0
192,248,217416,6,0,B|280:216,1,80,10|0
352,272,217808,2,0,B|264:304,1,80,0|0
352,360,218200,2,0,B|432:328,1,80,10|0
472,240,218592,1,0
464,144,218788,1,0
400,72,218984,1,10
352,152,219180,6,0,B|296:120|288:80,1,80
248,16,219572,1,0
208,96,219769,2,0,B|128:152,1,80,10|0
168,232,220161,2,0,B|240:176,1,80,0|0
272,272,220553,1,10
344,208,220749,1,0
440,208,220945,2,0,B|448:264|424:304,1,80,10|10
344,328,221337,5,0
344,328,221533,2,0,B|352:248|264:192,1,160,10|0
224,280,222121,1,0
224,280,222318,2,0,B|184:240|192:200,1,80,10|0
56,32,222710,1,0
152,56,222906,6,0,B|120:96|120:144,1,80,10|0
120,224,223298,1,0
160,312,223494,1,0
224,240,223690,2,0,B|264:208|272:168,1,80,10|0
272,80,224082,2,0,B|328:80|352:120,1,80,0|0
392,192,224474,1,10
368,288,224670,1,0
280,328,224867,5,0
184,336,225063,1,0
224,248,225259,2,0,B|192:208|136:208,1,80,10|0
0,120,225651,1,0
40,208,225847,1,0
96,136,226043,2,0,B|88:88|120:56,1,80,10|0
192,120,226435,5,0
280,168,226631,1,0
272,72,226827,2,0,B|328:56|360:56,1,80,10|0
392,144,227220,2,0,B|368:192|384:232,1,80
472,208,227612,2,0,B|488:248|480:296,1,80,10|0
392,320,228004,5,0
296,336,228200,1,0
328,248,228396,1,10
232,264,228592,1,0
72,232,228788,2,0,B|32:200|32:152,1,80
128,152,229180,2,0,B|120:104|88:72,1,80,10|0
192,72,229572,6,0,B|216:32|264:16,1,80
328,80,229965,1,10
264,152,230161,1,0
272,248,230357,2,0,B|336:256|368:208,1,80,0|0
392,144,230749,2,0,B|336:160|320:200,1,80,10|0
416,232,231141,2,0,B|456:256|472:304,1,80
376,320,231533,2,0,B|336:336|288:336,1,80,10|0
248,256,231925,5,0
168,312,232121,1,0
144,216,232318,2,0,B|96:208|72:168,1,80,10|0
160,128,232710,2,0,B|192:88|192:48,1,80
256,128,233102,2,0,B|256:176|288:208,1,80,10|10
352,136,233494,1,10
256,136,233690,1,10
192,208,233886,1,0
128,280,234082,5,10
136,280,234180,1,0
144,280,234278,1,10
152,280,234376,1,0
160,280,234474,1,10
168,280,234572,1,0
176,280,234670,1,10
184,280,234769,1,0
192,280,234867,2,0,B|248:208|192:128,1,160,14|0
288,120,235455,6,0,B|368:72,1,80,10|0
448,112,235847,2,0,B|360:168,1,80,0|0
416,248,236239,1,10
344,304,236435,1,0
312,216,236631,2,0,B|264:192|216:208,1,80
144,232,237023,2,0,B|184:256|232:248,1,80,10|0
160,328,237416,5,0
72,288,237612,1,0
48,192,237808,2,0,B|96:184|136:184,1,80,10|0
336,232,238200,2,0,B|360:184|352:144,1,80,0|0
272,128,238592,1,10
232,56,238788,1,0
328,56,238984,2,0,B|384:48|400:0,1,80,10|10
408,112,239376,5,0
360,200,239572,1,0
264,176,239769,2,0,B|232:144|192:128,1,80,10|0
136,56,240161,2,0,B|80:88|80:144,1,80,0|10
160,176,240553,2,0,B|152:224|104:240,1,80
40,296,240945,2,0,B|80:336|128:328,1,80,10|0
376,232,241337,5,0
296,288,241533,1,0
376,232,241729,1,10
440,160,241925,1,0
472,72,242121,2,0,B|416:64|384:80,1,80
312,32,242514,2,0,B|296:80|320:120,1,80,10|0
408,104,242906,6,0,B|432:152|424:192,1,80,0|0
336,200,243298,1,10
400,272,243494,1,0
304,288,243690,2,0,B|256:312|208:312,1,80
232,216,244082,2,0,B|160:232|144:256,1,80,10|0
80,296,244474,5,0
32,216,244670,1,0
48,120,244867,1,10
120,56,245063,1,0
160,144,245259,2,0,B|208:120|224:72,1,80
264,176,245651,2,0,B|288:224|320:240,1,80,10|0
376,160,246043,2,0,B|432:160|464:192,1,80,10|10
256,344,246631,5,10
200,160,247023,1,0
256,80,247220,1,10
312,160,247416,2,0,B|248:232,1,80,2|4
