osu file format v9

[General]
AudioFilename: Afraid.mp3
AudioLeadIn: 0
PreviewTime: 68488
Countdown: 0
SampleSet: Soft
StackLeniency: 0.7
Mode: 0
LetterboxInBreaks: 1

[Editor]
DistanceSpacing: 1.2
BeatDivisor: 4
GridSize: 8

[Metadata]
Title:afraid
Artist:Chata
Creator:Disoy
Version:Hard
Source:Koumajou Densetsu II: Stranger's Requiem
Tags:TTTTTTTTTTTT

[Difficulty]
HPDrainRate:5
CircleSize:4
OverallDifficulty:5
ApproachRate:7
SliderMultiplier:1.3
SliderTickRate:1

[Events]
//Background and Video events
Video,0,"Afraid.avi"
0,0,"Afraid.jpg"
//Break Periods
//Storyboard Layer 0 (Background)
//Storyboard Layer 1 (Fail)
//Storyboard Layer 2 (Pass)
//Storyboard Layer 3 (Foreground)
//Storyboard Sound Samples
//Background Colour Transformations
3,100,163,162,255

[TimingPoints]
11155,333.333333333333,4,2,2,60,1,0
12488,-100,4,1,1,60,0,0
12821,-100,4,1,2,60,0,0
12988,-100,4,2,1,50,0,0
13155,-100,4,1,2,70,0,0
13321,-100,4,1,1,65,0,0
13655,-100,4,1,2,60,0,0
13821,-100,4,1,1,70,0,0
13988,-100,4,1,2,75,0,0
14155,-100,4,1,1,70,0,0
14321,-100,4,1,2,75,0,0
14655,-100,4,1,1,70,0,0
15155,-100,4,2,1,50,0,0
15488,-100,4,1,1,60,0,0
15655,-100,4,2,1,50,0,0
15821,-100,4,1,1,60,0,0
16155,-100,4,2,1,60,0,0
16321,-100,4,1,1,60,0,0
16655,-100,4,1,1,60,0,0
16988,-100,4,1,1,60,0,0
17155,-100,4,1,1,60,0,0
17488,-100,4,1,1,60,0,0
17821,-100,4,2,1,50,0,0
17988,-100,4,1,2,60,0,0
18155,-100,4,1,1,70,0,0
18321,-100,4,2,1,70,0,0
18821,-100,4,1,1,60,0,0
19155,-100,4,2,1,60,0,0
19321,-100,4,1,1,60,0,0
19488,-100,4,2,1,60,0,0
19821,-100,4,2,1,60,0,0
20154,-100,4,1,1,60,0,0
20488,-100,4,2,1,50,0,0
20654,-100,4,1,2,70,0,0
20821,-100,4,2,1,60,0,0
21154,-100,4,1,1,60,0,0
21488,-100,4,2,1,60,0,0
21654,-100,4,2,1,50,0,0
22154,-100,4,1,1,20,0,0
22488,-100,4,1,1,60,0,0
22738,-100,4,1,2,70,0,0
22988,-100,4,1,1,70,0,0
23154,-100,4,2,1,50,0,0
23321,-100,4,1,1,50,0,0
32988,-100,4,1,2,60,0,0
33321,-100,4,2,1,50,0,0
33488,-100,4,1,1,50,0,0
33821,-100,4,1,1,50,0,0
34321,-100,4,2,1,55,0,0
35154,-100,4,1,1,50,0,0
35321,-100,4,2,1,55,0,0
37821,-100,4,1,1,50,0,0
37988,-100,4,2,1,55,0,0
39154,-100,4,1,1,50,0,0
39488,-100,4,2,1,55,0,0
40488,-100,4,1,1,50,0,0
40821,-100,4,2,1,55,0,0
41821,-100,4,1,1,50,0,0
42154,-100,4,2,1,55,0,0
43154,-100,4,1,1,50,0,0
43488,-100,4,2,1,55,0,0
43821,-100,4,2,1,20,0,0
44154,-100,4,1,1,40,0,0
44488,-100,4,2,1,40,0,0
44821,-100,4,1,1,40,0,0
54904,-100,4,1,2,50,0,0
55154,-100,4,2,1,50,0,0
55488,-100,4,1,2,75,0,0
55654,-100,4,2,1,50,0,0
55821,-100,4,1,1,50,0,0
57821,-100,4,2,1,50,0,0
57988,-100,4,1,2,70,0,0
58321,-100,4,2,1,50,0,0
58488,-100,4,1,1,50,0,0
60654,-100,4,1,2,70,0,0
60821,-100,4,1,1,60,0,0
60988,-100,4,2,1,50,0,0
61154,-100,4,1,1,50,0,0
65821,-100,4,2,1,40,0,0
67154,-100,4,2,1,40,0,0
67988,-100,4,1,1,50,0,0
68488,-100,4,2,1,50,0,1
68821,-100,4,1,1,60,0,1
68988,-100,4,1,1,50,0,1
69488,-100,4,1,1,60,0,1
69654,-100,4,1,1,40,0,1
70154,-100,4,1,1,60,0,1
70821,-100,4,1,1,60,0,1
71154,-100,4,1,1,40,0,1
71488,-100,4,1,1,60,0,1
71654,-100,4,1,1,40,0,1
72154,-100,4,1,1,60,0,1
72321,-100,4,1,1,40,0,1
72821,-100,4,1,1,60,0,1
73488,-100,4,1,1,60,0,1
73821,-100,4,2,1,40,0,1
73988,-100,4,1,1,40,0,1
74154,-100,4,1,1,60,0,1
74321,-100,4,1,1,40,0,1
74821,-100,4,1,1,60,0,1
74988,-100,4,1,1,40,0,1
75488,-100,4,1,1,60,0,1
75654,-100,4,1,1,40,0,1
76154,-100,4,1,1,60,0,1
76488,-100,4,2,1,40,0,1
76571,-100,4,1,2,60,0,1
76821,-100,4,1,1,60,0,1
76904,-100,4,1,2,60,0,1
76988,-100,4,2,1,40,0,1
77654,-100,4,1,1,60,0,1
77821,-100,4,1,2,60,0,1
78154,-100,4,1,1,60,0,1
78654,-100,4,1,2,60,0,1
78821,-100,4,1,1,60,0,1
79071,-100,4,1,1,60,0,0
79154,-100,4,2,1,50,0,1
79488,-100,4,1,1,60,0,1
79654,-100,4,1,1,40,0,1
80154,-100,4,1,1,60,0,1
80321,-100,4,1,1,40,0,1
80821,-100,4,1,1,60,0,1
81154,-100,4,1,1,40,0,1
81488,-100,4,1,1,60,0,1
81821,-100,4,1,1,40,0,1
82154,-100,4,1,1,60,0,1
82488,-100,4,1,1,40,0,1
82821,-100,4,1,1,60,0,1
83154,-100,4,1,1,40,0,1
83488,-100,4,1,1,60,0,1
83654,-100,4,1,1,40,0,1
84154,-100,4,1,1,60,0,1
84488,-100,4,2,1,40,0,1
84821,-100,4,1,1,60,0,1
85154,-100,4,1,1,40,0,1
85321,-100,4,1,2,60,0,1
85488,-100,4,1,1,60,0,1
85654,-100,4,1,2,60,0,1
85821,-100,4,1,1,40,0,1
86154,-100,4,1,1,60,0,1
86488,-100,4,1,1,40,0,1
86654,-100,4,1,2,60,0,1
86821,-100,4,1,1,60,0,1
86988,-100,4,1,2,60,0,1
87154,-100,4,1,1,40,0,1
87488,-100,4,1,1,60,0,1
87654,-100,4,1,1,40,0,1
88154,-100,4,1,1,60,0,1
88321,-100,4,1,2,60,0,1
88488,-100,4,1,1,40,0,1
88821,-100,4,1,1,60,0,1
88988,-100,4,1,1,40,0,1
89321,-100,4,1,2,60,0,1
89488,-100,4,1,1,60,0,1
89821,-100,4,1,1,40,0,1
90154,-100,4,1,1,60,0,1
90321,-100,4,1,1,40,0,1
90821,-100,4,1,1,60,0,1
90988,-100,4,1,2,60,0,1
91154,-100,4,1,1,40,0,1
91488,-100,4,1,1,60,0,1
91988,-100,4,1,2,60,0,1
92154,-100,4,1,1,60,0,1
92321,-100,4,1,2,60,0,1
92488,-100,4,2,1,40,0,1
92654,-100,4,1,2,60,0,1
92821,-100,4,1,1,60,0,1
92988,-100,4,2,1,40,0,1
93154,-100,4,1,1,40,0,1
93321,-100,4,1,2,60,0,1
93488,-100,4,1,1,60,0,1
93821,-100,4,1,2,40,0,1
93988,-100,4,1,1,50,0,1
94321,-100,4,1,2,60,0,1
94488,-100,4,1,1,60,0,1
94821,-100,4,1,1,60,0,1
94988,-100,4,1,2,60,0,1
95488,-100,4,1,2,60,0,1
95821,-100,4,1,1,60,0,1
95988,-100,4,1,1,60,0,1
96321,-100,4,2,1,45,0,0
96488,-100,4,1,2,20,0,0
97821,-100,4,2,1,50,0,0
97988,-100,4,1,2,60,0,0
98154,-100,4,1,1,60,0,0
98488,-100,4,1,1,50,0,0
98821,-100,4,1,1,60,0,0
99154,-100,4,1,1,50,0,0
99488,-100,4,1,1,60,0,0
99654,-100,4,1,1,50,0,0
99821,-100,4,1,1,60,0,0
100154,-100,4,1,1,60,0,0
100488,-100,4,2,1,50,0,0
100821,-100,4,1,1,60,0,0
101154,-100,4,1,1,50,0,0
101488,-100,4,1,1,70,0,0
101821,-100,4,1,1,50,0,0
102154,-100,4,1,1,60,0,0
102321,-100,4,1,1,50,0,0
102488,-100,4,1,1,60,0,0
102821,-100,4,1,1,60,0,0
103154,-100,4,2,1,50,0,0
103488,-100,4,1,1,60,0,0
103821,-100,4,1,1,50,0,0
104154,-100,4,1,1,70,0,0
104488,-100,4,1,1,50,0,0
104821,-100,4,1,1,70,0,0
104988,-100,4,1,1,50,0,0
105154,-100,4,1,1,70,0,0
105321,-100,4,1,1,50,0,0
105488,-100,4,1,1,70,0,0
105821,-100,4,2,1,50,0,0
106154,-100,4,1,1,60,0,0
106321,-100,4,2,1,50,0,0
106488,-100,4,1,1,50,0,0
106988,-100,4,1,1,60,0,0
107154,-100,4,1,1,50,0,0
107488,-100,4,1,1,60,0,0
107654,-100,4,1,1,50,0,0
107821,-100,4,1,1,60,0,0
107988,-100,4,1,2,60,0,0
108488,-100,4,2,1,40,0,0
108821,-100,4,1,1,50,0,0
116488,-100,4,2,1,40,0,0
116654,-100,4,1,2,60,0,0
116821,-100,4,1,1,60,0,0
117154,-100,4,1,2,60,0,0
117488,-100,4,1,1,60,0,0
117821,-100,4,1,1,50,0,0
118488,-100,4,1,1,60,0,0
118654,-100,4,1,2,60,0,0
118821,-100,4,1,1,60,0,0
118988,-100,4,2,1,50,0,0
124488,-100,4,1,1,50,0,0

[Colours]
Combo1 : 128,128,128
Combo2 : 64,0,128
Combo3 : 128,128,192
Combo4 : 0,0,160

[HitObjects]
256,88,11155,1,0
256,104,11488,1,0
256,120,11821,1,0
256,136,12155,1,0
112,192,12488,6,0,B|128:264|208:296,1,130,8|2
272,296,12988,2,0,B|320:320|336:344,1,65,4|4
400,344,13321,2,0,B|408:296|368:272,1,65,8|0
328,232,13655,6,0,B|352:208|408:208,1,65
464,200,13988,1,4
432,128,14155,1,8
356,143,14321,2,0,B|328:88|248:56,1,130,4|8
184,80,14821,5,0
72,192,15155,2,0,B|112:168|168:200|216:152,1,130,4|8
272,136,15655,2,0,B|280:176|264:216,1,65,4|0
208,256,15988,2,0,B|240:280|280:280,1,65,0|8
336,248,16321,2,0,B|384:304|464:328,1,130,0|8
384,192,16988,6,0,B|432:168|448:128,1,65,8|0
368,112,17321,2,0,B|336:96|320:56,1,65,8|0
184,136,17821,2,0,B|240:136|264:96,1,65,4|0
245,117,18155,1,8
245,117,18321,1,4
248,200,18488,5,8
248,200,18821,2,0,B|280:280,1,65,8|0
320,320,19155,2,0,B|352:296|344:240,1,65,0|8
320,320,19488,6,8,B|376:296|400:224|400:192,1,130,8|8
296,104,20154,2,0,B|272:136|232:144,1,65,8|0
176,176,20488,2,0,B|136:176|96:208,1,65,4|0
114,194,20821,1,8
296,104,21154,2,8,B|336:152|416:160,1,130
256,176,21654,6,0,B|256:192|256:192|264:200|264:200|248:200|248:200|264:208|264:208|248:208|248:208|256:216|256:216|256:344,1,195,4|0
112,256,22488,2,0,B|152:280,4,32.5,8|8|8|4|4
72,184,22988,1,8
152,168,23154,6,0,B|144:128|96:96|48:112,1,130,4|8
152,168,23821,1,0
216,208,23988,1,0
216,128,24154,1,8
368,80,24488,6,0,B|320:128|328:208,1,130,0|8
168,200,25154,2,0,B|144:240|104:256,2,65,0|0|8
192,128,25654,1,0
192,112,25738,1,0
192,96,25821,2,0,B|176:176|256:224,1,130,0|8
392,192,26488,6,0,B|360:216|328:224,1,65
334,222,26821,1,8
176,224,27154,2,0,B|128:224|96:248,1,65
176,224,27488,2,0,B|96:208|64:128,2,130,8|0|8
304,312,28488,6,0,B|344:328|400:320|424:256,1,130,4|8
264,248,29154,1,0
304,312,29321,1,0
224,312,29488,1,8
288,168,29821,6,0,B|336:192|344:240,1,65
264,248,30154,2,0,B|200:216|208:136,1,130,8|0
207,140,30821,1,8
288,168,30988,5,0
296,176,31071,1,0
304,184,31154,2,0,B|392:184,1,65
448,184,31488,1,8
208,216,31821,6,0,B|120:216,1,65
64,216,32155,1,8
304,248,32488,6,0,B|392:248,1,65
448,248,32822,1,8
408,184,32988,5,4
400,176,33071,1,4
392,168,33154,2,0,B|360:144|368:88,1,65,4|8
366,110,33488,2,0,B|376:160|352:208|304:224,1,130,8|4
146,274,34321,6,0,B|136:224|160:176|208:160,1,130,0|0
272,168,34821,1,2
312,240,34988,2,0,B|352:208|344:176,1,65,0|4
344,112,35321,2,0,B|376:72|448:72|472:128,1,130
344,112,35988,5,0
331,190,36154,1,2
283,254,36321,2,0,B|235:286|171:278|147:254,1,130
99,214,36821,1,2
171,190,36988,2,0,B|163:158|115:142,1,65
51,150,37321,2,0,B|51:102|99:62|155:70,1,130
216,56,37821,6,0,B|200:80|200:136,1,65,4|0
216,192,38154,2,0,B|248:264|304:288,2,130,2|0|2
264,128,38988,2,0,B|232:104|192:104,1,65,0|4
320,184,39488,6,0,B|304:232|240:248|200:232,1,130,2|0
64,176,40154,1,2
168,288,40488,6,0,B|184:336|248:352|288:336,1,130,4|2
424,280,41154,1,0
376,216,41321,1,0
352,144,41488,2,0,B|320:144|280:208|312:256,2,130,2|4|2
424,120,42321,5,0
352,144,42488,1,0
256,240,42821,2,0,B|216:272|184:272,1,65,2|0
256,240,43154,2,0,B|248:288|192:336|160:336,1,130,2|2
96,328,43654,2,0,B|96:312|96:312|112:304|112:304|80:304|80:304|112:296|112:296|80:296|80:296|96:288|96:288|96:224,1,195,8|0
72,88,44488,6,0,B|120:64|160:112|224:80,1,130,4|8
256,32,44988,2,0,B|288:64|288:136|240:160,1,130
176,168,45488,1,8
232,224,45654,1,0
176,168,45821,2,0,B|136:184|112:232|120:288,1,130,0|8
264,312,46321,6,0,B|304:296|328:248|320:192,1,130
288,136,46821,1,8
288,136,46988,1,0
288,136,47154,2,0,B|248:152|200:152|160:112,1,130,0|8
112,64,47654,5,0
136,136,47821,2,0,B|158:172|167:219|134:266,1,130,0|8
88,320,48321,1,0
160,296,48488,2,0,B|200:282|248:284|286:326,3,130,0|8|0|8
280,320,49654,1,0
360,320,49821,6,0,B|360:280|320:248,1,65
416,248,50154,2,0,B|440:192|408:112,1,130,8|0
411,121,50821,1,8
336,128,50988,1,0
264,104,51154,1,0
264,104,51488,2,0,B|248:168|168:192,1,130,8|0
96,184,51988,5,0
104,264,52154,2,0,B|144:312|176:320,1,65,8|0
216,272,52488,2,0,B|280:248|344:272,1,130,0|8
448,160,53154,6,0,B|384:136|320:160,1,130,0|8
256,208,53654,1,0
192,160,53821,2,0,B|128:136|64:160,1,130,0|8
256,208,54488,6,8,B|256:256,4,32.5
328,232,54988,1,4
408,232,55154,2,0,B|400:184|360:152|312:152,1,130,4|4
256,104,55654,1,4
193,152,55821,2,0,B|152:152|112:184|104:232,2,130,0|8|0
103,232,56821,6,0,B|112:280|144:304,1,65,8|0
184,232,57154,2,0,B|224:280|208:336|168:352,1,130,0|8
272,216,57821,2,0,B|240:192|240:136,1,65,4|4
320,152,58154,2,0,B|360:160|392:160,2,65,2|4|8
256,64,58821,6,0,B|216:112|128:112,1,130,8|0
139,111,59488,1,8
72,256,59821,1,0
144,240,59988,1,0
208,200,60154,1,8
248,136,60321,2,0,B|280:152|328:184|368:224,1,130,0|4
312,280,60821,6,0,B|352:304|392:296,1,65,8|4
424,240,61154,2,0,B|416:200|440:144|488:128,1,130,0|8
432,64,61654,2,0,B|384:72|352:64,1,65
367,66,62154,1,8
296,48,62321,6,0,B|280:88|240:120,1,65
288,176,62654,2,0,B|256:224|256:248,1,65,0|8
104,232,63154,2,0,B|176:176|184:112,1,130,0|8
208,56,63654,2,0,B|248:72|256:112,1,65
256,176,63988,2,0,B|288:176|320:144,2,65,0|8|0
280,248,64488,2,0,B|248:248|216:280,2,65,0|0|8
424,192,65154,6,0,B|416:120|336:80,2,130,0|8|8
344,192,66043,2,8,B|352:240|400:272,1,86.6666666666667
256,272,66488,2,8,B|256:368,1,86.6666666666667
168,192,66932,2,8,B|160:240|112:272,1,86.6666666666667,8|4
256,192,67988,5,8
256,192,68154,1,0
152,80,68488,6,0,B|200:104|264:104|304:96,1,130,4|8
352,80,68988,1,0
352,80,69321,2,0,B|400:160,1,65,0|8
282,251,69654,6,0,B|256:192,1,65
192,152,69988,2,0,B|160:200|120:208,1,65,0|8
146,197,70488,1,0
248,80,70821,2,0,B|288:112|296:168|256:208,2,130,8|0|8
208,144,71654,1,0
288,136,71821,2,0,B|328:144|360:128,1,65
408,192,72154,2,0,B|440:216|448:256,1,65,8|0
368,264,72488,6,0,B|336:304|264:312|232:296,1,130,0|8
144,120,73154,2,0,B|176:80|248:72|280:88,1,130,0|8
336,104,73654,1,0
416,96,73821,2,0,B|416:144|384:176,1,65
328,184,74154,2,0,B|296:224|288:264,1,65,8|0
295,239,74654,1,0
208,320,74821,6,0,B|192:280|160:264,1,65,8|0
88,264,75154,2,0,B|56:200|80:128,1,130,0|8
120,72,75654,1,0
192,48,75821,1,0
184,128,75988,2,0,B|232:160|272:144,1,65,0|8
184,128,76488,6,0,B|224:184|240:248,1,130,4|8
239,244,76904,1,4
239,244,76988,1,4
384,296,77321,2,0,B|400:224,1,65
328,200,77654,2,0,B|344:112,1,65
296,72,77988,5,4
216,88,78154,1,0
152,136,78321,1,8
64,104,78488,5,8
152,136,78654,1,4
216,200,78821,2,0,B|248:240|248:272,1,65,8|0
336,280,79154,6,0,B|344:240|384:192|424:176,1,130,4|8
400,104,79654,2,0,B|360:96|336:72,1,65
264,72,79988,2,0,B|232:72|192:88,1,65,0|8
264,72,80321,2,0,B|216:96|192:168|216:208,1,130
280,208,80821,2,0,B|264:248|224:256,1,65,8|0
280,208,81154,2,0,B|304:256|344:288|400:304,1,130,0|8
216,304,81821,6,0,B|200:272|168:248,1,65
96,240,82154,1,8
200,120,82488,6,0,B|166:107|126:111,1,65
68,155,82821,1,8
68,155,83154,5,0
136,104,83321,1,0
224,80,83488,1,8
320,80,83654,2,0,B|392:80,1,65
432,168,83988,2,0,B|368:168,1,65,0|8
256,272,84488,5,0
256,272,84821,1,8
112,216,85154,1,0
112,216,85321,2,0,B|40:216,2,65,2|8|2
200,144,85821,5,0
200,144,86154,1,8
344,200,86487,1,0
344,200,86654,2,0,B|416:200,2,65,2|8|2
264,200,87154,6,0,B|248:248|272:280,1,65
336,296,87488,2,0,B|320:336|280:344,1,65,8|0
336,296,87821,2,0,B|264:328|208:296,1,130,0|8
144,256,88321,1,2
144,256,88488,2,0,B|120:216|80:192|24:192,1,130
36,192,88988,5,8
120,152,89154,1,0
208,128,89321,1,4
296,128,89488,1,8
296,128,89821,2,0,B|368:176,1,65
320,280,90154,6,0,B|256:240,1,65,8|0
216,304,90488,2,0,B|184:280|120:272|80:280,1,130,0|8
91,278,90988,2,0,B|112:240|144:224,1,65,2|0
208,200,91321,2,0,B|256:176|264:144,1,65,0|8
336,176,91654,2,0,B|336:120|296:88|248:80,1,130,0|2
184,88,92154,1,8
168,96,92238,1,8
152,104,92321,1,4
80,80,92488,6,0,B|56:112|56:160,2,65,4|4|8
134,195,92988,2,0,B|136:224|112:256,2,65,4|8|4
216,184,93488,6,0,B|256:152|288:144|352:152,1,130,8|2
400,104,93988,1,0
464,144,94154,1,8
448,224,94321,1,4
368,224,94488,2,0,B|320:232|296:272|296:272|296:336,1,130,0|8
376,304,94988,1,4
376,304,95154,1,4
264,184,95488,6,0,B|264:144|264:144|248:96|192:80,1,130,4|8
184,160,95988,1,0
312,256,96321,1,8
344,280,96404,1,8
376,304,96488,1,4
256,320,97821,6,0,B|312:320|328:288,1,65,4|0
272,240,98154,2,0,B|304:224|304:224|360:216|392:272,1,130,8|0
384,260,98821,1,8
256,144,99154,6,0,B|200:88,1,65,8|0
136,128,99488,2,0,B|128:80|152:56,2,65,8|0|8
136,128,100154,1,8
32,248,100488,6,0,B|80:296|144:304|168:296,1,130,4|8
304,264,101154,2,0,B|232:264,1,65
304,264,101488,1,8
440,192,101821,2,0,B|360:192,1,65,8|0
328,128,102154,2,0,B|400:96,2,65,8|0|8
328,128,102821,1,8
176,88,103154,6,0,B|144:112|80:104|48:64,1,130,4|8
176,176,103821,2,0,B|232:168|248:192,1,65,8|0
200,248,104154,1,8
176,176,104321,2,0,B|144:192|128:224,1,65,0|8
264,304,104821,2,0,B|304:320|352:320,1,65,8|0
408,320,105154,2,0,B|464:312|496:288,2,65,8|0|8
408,320,105821,1,4
336,184,106154,5,8
280,136,106321,1,0
352,112,106488,1,0
304,168,106654,2,0,B|240:208|176:192,1,130
120,144,107154,2,0,B|160:104|216:120,1,97.5
248,104,107488,2,0,B|240:64,4,32.5,8|8|8|8|8
264,184,107988,5,4
312,248,108154,2,0,B|344:272|400:288|448:272,1,130,2|4
336,152,108821,2,0,B|320:120|280:104,1,65,8|0
184,224,109321,2,0,B|200:256|240:272,2,65,0|8|0
256,192,109821,2,0,B|240:144|176:136|144:152,1,130,0|8
40,264,110488,2,0,B|40:336,2,65,0|0|8
48,184,110988,1,0
64,152,111071,1,0
64,112,111154,2,0,B|48:80|48:80|104:104|160:56,1,130,0|8
138,72,111821,5,0
296,96,112154,1,8
224,56,112321,1,0
224,136,112488,2,0,B|256:192|312:176|336:216,1,130,0|8
224,136,113154,1,0
136,264,113488,2,0,B|112:232|120:200,1,65,8|0
200,208,113821,6,0,B|224:232|224:280|216:320|176:328,1,130,4|8
189,323,114488,1,0
240,264,114654,1,0
304,224,114821,1,8
376,200,114988,2,0,B|432:208|464:184,1,65
440,196,115488,1,8
360,64,115821,2,0,B|304:56|272:80,1,65
360,64,116154,6,0,B|344:112|296:152|264:152,1,130,8|4
200,128,116654,1,2
144,72,116821,1,8
168,144,116988,1,0
184,216,117154,2,0,B|184:272|168:296,2,65,4|2|8
336,280,117821,6,0,B|328:272|328:216,2,65,0|0|8
408,240,118321,2,0,B|432:272,4,32.5,0|0|0|0|0
456,176,118821,2,0,B|464:128|464:104,1,65,8|0
256,192,119154,12,4,124488
