osu file format v9

[General]
AudioFilename: Afraid.mp3
AudioLeadIn: 0
PreviewTime: 68488
Countdown: 0
SampleSet: Soft
StackLeniency: 0.7
Mode: 0
LetterboxInBreaks: 1

[Editor]
DistanceSpacing: 1.2
BeatDivisor: 4
GridSize: 8

[Metadata]
Title:afraid
Artist:Chata
Creator:Disoy
Version:Dis
Source:Koumajou Densetsu II: Stranger's Requiem
Tags:TTTTTTTTTTTT

[Difficulty]
HPDrainRate:5
CircleSize:4
OverallDifficulty:7
ApproachRate:8
SliderMultiplier:1.6
SliderTickRate:1

[Events]
//Background and Video events
Video,0,"Afraid.avi"
0,0,"Afraid.jpg"
//Break Periods
//Storyboard Layer 0 (Background)
//Storyboard Layer 1 (Fail)
//Storyboard Layer 2 (Pass)
//Storyboard Layer 3 (Foreground)
//Storyboard Sound Samples
//Background Colour Transformations
3,100,163,162,255

[TimingPoints]
11155,333.333333333333,4,2,2,60,1,0
12488,-100,4,1,1,60,0,0
12655,-100,4,1,2,60,0,0
12988,-100,4,2,1,50,0,0
13321,-100,4,1,1,65,0,0
13571,-100,4,1,2,60,0,0
13821,-100,4,1,1,70,0,0
13988,-100,4,1,2,75,0,0
14155,-100,4,1,1,70,0,0
14321,-100,4,1,2,75,0,0
14488,-100,4,1,1,70,0,0
15155,-100,4,2,1,50,0,0
15238,-100,4,1,2,60,0,0
15488,-100,4,1,1,60,0,0
15571,-100,4,1,2,60,0,0
15655,-100,4,2,1,50,0,0
15821,-100,4,1,1,60,0,0
16155,-100,4,2,1,60,0,0
16321,-100,4,1,1,60,0,0
16488,-100,4,1,1,60,0,0
16655,-100,4,1,2,60,0,0
16988,-100,4,1,1,60,0,0
17155,-100,4,1,1,60,0,0
17321,-100,4,2,1,60,0,0
17488,-100,4,1,1,60,0,0
17821,-100,4,2,1,50,0,0
17905,-100,4,1,2,60,0,0
18155,-100,4,1,1,70,0,0
18238,-100,4,1,2,60,0,0
18321,-100,4,2,1,50,0,0
18655,-100,4,2,1,70,0,0
18821,-100,4,1,1,60,0,0
19155,-100,4,2,1,60,0,0
19321,-100,4,1,1,60,0,0
19488,-100,4,2,1,60,0,0
19654,-100,4,1,2,70,0,0
19821,-100,4,2,1,60,0,0
19988,-100,4,1,1,60,0,0
20488,-100,4,2,1,50,0,0
20571,-100,4,1,2,70,0,0
20821,-100,4,2,1,60,0,0
20904,-100,4,1,2,70,0,0
20988,-100,4,2,1,50,0,0
21154,-100,4,1,1,60,0,0
21488,-100,4,2,1,60,0,0
21654,-200,4,2,1,50,0,0
21988,-200,4,1,1,20,0,0
22321,-200,4,1,1,70,0,0
22488,-100,4,1,1,60,0,0
22738,-100,4,1,2,70,0,0
22904,-100,4,1,1,70,0,0
23154,-100,4,2,1,50,0,0
23321,-100,4,1,1,50,0,0
32988,-100,4,1,2,60,0,0
33321,-100,4,2,1,50,0,0
33488,-100,4,1,1,50,0,0
33821,-100,4,1,1,50,0,0
33988,-100,4,2,1,55,0,0
35154,-100,4,1,1,50,0,0
35321,-100,4,2,1,55,0,0
36488,-100,4,1,1,50,0,0
36654,-100,4,2,1,55,0,0
37821,-100,4,1,1,50,0,0
37988,-100,4,2,1,55,0,0
39154,-100,4,1,1,50,0,0
39321,-100,4,2,1,55,0,0
40488,-100,4,1,1,50,0,0
40654,-100,4,2,1,55,0,0
41821,-100,4,1,1,50,0,0
41988,-100,4,2,1,55,0,0
43154,-100,4,1,1,50,0,0
43488,-100,4,2,1,55,0,0
43821,-100,4,2,1,20,0,0
44154,-100,4,1,1,40,0,0
44488,-100,4,2,1,40,0,0
44821,-100,4,1,1,40,0,0
49821,-200,4,1,1,40,0,0
50321,-100,4,1,1,40,0,0
54904,-100,4,1,2,50,0,0
55154,-100,4,2,1,50,0,0
55488,-100,4,1,2,75,0,0
55654,-100,4,2,1,50,0,0
55821,-100,4,1,1,50,0,0
57821,-100,4,2,1,50,0,0
57904,-100,4,1,2,70,0,0
58321,-100,4,2,1,50,0,0
58488,-100,4,1,1,50,0,0
60488,-100,4,2,1,50,0,0
60571,-100,4,1,2,70,0,0
60821,-100,4,1,1,60,0,0
60988,-100,4,2,1,50,0,0
61154,-100,4,1,1,50,0,0
65821,-100,4,2,1,40,0,0
65988,-100,4,1,1,40,0,0
67099,-200,4,2,1,40,0,0
67988,-100,4,1,1,50,0,0
68488,-100,4,2,1,50,0,1
68659,-100,4,1,1,40,0,1
68821,-100,4,1,1,60,0,1
68988,-100,4,1,1,50,0,1
69488,-100,4,1,1,60,0,1
69654,-100,4,1,1,40,0,1
70154,-100,4,1,1,60,0,1
70321,-100,4,1,1,40,0,1
70821,-100,4,1,1,60,0,1
70988,-100,4,1,1,40,0,1
71488,-100,4,1,1,60,0,1
71654,-100,4,1,1,40,0,1
72154,-100,4,1,1,60,0,1
72321,-100,4,1,1,40,0,1
72821,-100,4,1,1,60,0,1
72988,-100,4,1,1,40,0,1
73488,-100,4,1,1,60,0,1
73821,-100,4,2,1,40,0,1
73988,-100,4,1,1,40,0,1
74154,-100,4,1,1,60,0,1
74321,-100,4,1,1,40,0,1
74821,-100,4,1,1,60,0,1
74988,-100,4,1,1,40,0,1
75488,-100,4,1,1,60,0,1
75654,-100,4,1,1,40,0,1
76154,-100,4,1,1,60,0,1
76321,-100,4,1,1,40,0,1
76488,-100,4,2,1,40,0,1
76571,-100,4,1,2,60,0,1
76821,-100,4,1,1,60,0,1
76904,-100,4,1,2,60,0,1
76988,-100,4,2,1,40,0,1
77154,-100,4,1,1,60,0,1
77654,-100,4,1,1,60,0,1
77821,-100,4,1,2,60,0,1
78154,-100,4,1,1,60,0,1
78654,-100,4,1,2,60,0,1
78821,-100,4,1,1,60,0,1
79071,-100,4,1,1,60,0,0
79154,-100,4,2,1,50,0,1
79488,-100,4,1,1,60,0,1
79654,-100,4,1,1,40,0,1
80154,-100,4,1,1,60,0,1
80321,-100,4,1,1,40,0,1
80821,-100,4,1,1,60,0,1
81154,-100,4,1,1,40,0,1
81488,-100,4,1,1,60,0,1
81654,-100,4,1,1,40,0,1
82154,-100,4,1,1,60,0,1
82321,-100,4,1,1,40,0,1
82821,-100,4,1,1,60,0,1
82988,-100,4,1,1,40,0,1
83488,-100,4,1,1,60,0,1
83654,-100,4,1,1,40,0,1
84154,-100,4,1,1,60,0,1
84321,-100,4,1,1,40,0,1
84488,-100,4,2,1,40,0,1
84654,-100,4,1,1,40,0,1
84821,-100,4,1,1,60,0,1
84988,-100,4,1,1,40,0,1
85321,-100,4,1,2,60,0,1
85488,-100,4,1,1,60,0,1
85654,-100,4,1,2,60,0,1
85821,-100,4,1,1,40,0,1
86154,-100,4,1,1,60,0,1
86321,-100,4,1,1,40,0,1
86654,-100,4,1,2,60,0,1
86821,-100,4,1,1,60,0,1
86988,-100,4,1,2,60,0,1
87154,-100,4,1,1,40,0,1
87488,-100,4,1,1,60,0,1
87654,-100,4,1,1,40,0,1
87988,-100,4,1,2,60,0,1
88154,-100,4,1,1,60,0,1
88321,-100,4,1,2,60,0,1
88488,-100,4,1,1,40,0,1
88821,-100,4,1,1,60,0,1
88988,-100,4,1,1,40,0,1
89321,-100,4,1,2,60,0,1
89488,-100,4,1,1,60,0,1
89654,-100,4,1,2,60,0,1
89821,-100,4,1,1,40,0,1
90154,-100,4,1,1,60,0,1
90321,-100,4,1,1,40,0,1
90654,-100,4,1,2,60,0,1
90821,-100,4,1,1,60,0,1
90988,-100,4,1,2,60,0,1
91154,-100,4,1,1,40,0,1
91488,-100,4,1,1,60,0,1
91988,-100,4,1,2,60,0,1
92154,-100,4,1,1,60,0,1
92321,-100,4,1,2,60,0,1
92488,-100,4,2,1,40,0,1
92571,-100,4,1,2,60,0,1
92821,-100,4,1,1,60,0,1
92904,-100,4,1,2,60,0,1
92988,-100,4,2,1,40,0,1
93154,-100,4,1,1,40,0,1
93321,-100,4,1,2,60,0,1
93488,-100,4,1,1,60,0,1
93738,-100,4,1,2,40,0,1
93988,-100,4,1,1,50,0,1
94238,-100,4,1,2,60,0,1
94488,-100,4,1,1,60,0,1
94821,-100,4,1,1,60,0,1
94988,-100,4,1,2,60,0,1
95321,-100,4,1,1,60,0,1
95488,-100,4,1,2,60,0,1
95821,-100,4,1,1,60,0,1
95988,-100,4,1,1,60,0,1
96238,-100,4,1,2,60,0,1
96321,-100,4,2,1,45,0,0
96488,-100,4,1,2,20,0,0
97821,-100,4,2,1,50,0,0
97904,-100,4,1,2,60,0,0
98154,-100,4,1,1,60,0,0
98321,-100,4,2,1,50,0,0
98488,-100,4,1,1,50,0,0
98821,-100,4,1,1,60,0,0
99154,-100,4,1,1,50,0,0
99488,-100,4,1,1,60,0,0
99654,-100,4,1,1,50,0,0
99821,-100,4,1,1,60,0,0
99988,-100,4,1,1,50,0,0
100154,-100,4,1,1,60,0,0
100321,-100,4,1,1,50,0,0
100488,-100,4,2,1,50,0,0
100571,-100,4,1,2,60,0,0
100821,-100,4,1,1,60,0,0
100988,-100,4,2,1,50,0,0
101154,-100,4,1,1,50,0,0
101488,-100,4,1,1,70,0,0
101821,-100,4,1,1,50,0,0
102154,-100,4,1,1,60,0,0
102321,-100,4,1,1,50,0,0
102488,-100,4,1,1,60,0,0
102654,-100,4,1,1,50,0,0
102821,-100,4,1,1,60,0,0
102988,-100,4,1,1,50,0,0
103154,-100,4,2,1,50,0,0
103238,-100,4,1,2,60,0,0
103488,-100,4,1,1,60,0,0
103654,-100,4,2,1,50,0,0
103821,-100,4,1,1,50,0,0
104154,-100,4,1,1,70,0,0
104488,-100,4,1,1,50,0,0
104821,-100,4,1,1,70,0,0
104988,-100,4,1,1,50,0,0
105154,-100,4,1,1,70,0,0
105321,-100,4,1,1,50,0,0
105488,-100,4,1,1,70,0,0
105654,-100,4,1,1,50,0,0
105821,-100,4,2,1,50,0,0
105904,-100,4,1,2,60,0,0
106154,-100,4,1,1,60,0,0
106321,-100,4,2,1,50,0,0
106488,-100,4,1,1,50,0,0
106821,-100,4,1,1,60,0,0
107154,-100,4,1,1,50,0,0
107488,-100,4,1,1,60,0,0
107654,-100,4,1,1,50,0,0
107821,-100,4,1,1,60,0,0
108071,-100,4,1,2,60,0,0
108488,-100,4,2,1,40,0,0
108654,-100,4,1,1,50,0,0
116488,-100,4,2,1,40,0,0
116571,-100,4,1,2,60,0,0
116821,-100,4,1,1,60,0,0
117238,-100,4,1,2,60,0,0
117488,-100,4,1,1,60,0,0
117821,-100,4,1,1,50,0,0
118488,-100,4,1,1,60,0,0
118654,-100,4,1,2,60,0,0
118821,-100,4,1,1,60,0,0
118988,-100,4,2,1,50,0,0
124488,-100,4,1,1,50,0,0

[Colours]
Combo1 : 128,128,128
Combo2 : 99,33,222
Combo3 : 128,128,192
Combo4 : 0,0,160

[HitObjects]
256,48,11155,1,0
72,192,11488,1,0
256,336,11821,1,0
440,192,12155,1,0
320,152,12488,6,0,B|288:176|240:176,1,80,8|2
224,176,12738,1,4
208,168,12821,1,4
139,188,12988,2,0,B|112:136|176:80|232:96,1,160,4|8
224,176,13488,2,0,B|248:232,2,40,8|2|4
139,188,13821,5,8
256,304,13988,1,2
372,188,14155,1,8
256,304,14321,1,4
312,96,14488,6,0,B|348:25,1,80,8|0
152,25,14821,2,0,B|188:97,1,80,8|0
48,152,15155,5,4
56,160,15238,1,2
64,168,15321,1,4
176,192,15488,1,8
192,208,15571,1,2
208,224,15655,1,4
328,208,15821,6,0,B|368:248|456:216|456:128,1,160,0|8
376,144,16321,1,0
328,208,16488,1,8
312,192,16571,1,8
296,176,16655,1,2
280,160,16738,1,2
264,144,16821,1,4
248,128,16905,1,4
232,112,16988,2,0,B|144:112,1,80,8|0
56,240,17321,38,0,B|152:240,1,80,8|0
256,288,17655,1,0
168,192,17821,1,4
160,184,17905,1,2
152,176,17988,2,0,B|120:144|48:144,1,80,4|8
79,145,18238,1,0
79,145,18321,2,0,B|136:104|208:96|256:120,1,160,4|8
296,64,18821,6,0,B|320:120|288:160,1,80
168,152,19155,2,0,B|144:96|176:56,1,80,8|0
384,112,19488,6,0,B|360:152|304:160,1,80,8|2
288,168,19738,1,4
256,168,19821,2,0,B|208:192|192:240,1,80,8|0
336,264,20154,5,0
200,304,20321,1,0
336,344,20488,2,0,B|280:320,2,40,4|2|4
424,272,20821,1,8
416,256,20904,1,2
408,240,20988,1,4
440,152,21154,5,0
368,88,21321,2,0,B|280:88,1,80,0|8
216,144,21654,2,0,B|200:144|200:144|192:136|192:136|192:152|192:152|184:136|184:136|184:152|184:152|176:136|176:136|176:152|176:152|168:144|168:144|128:144,1,160
72,208,22488,1,8
88,216,22571,1,8
104,224,22654,1,8
120,232,22738,1,2
136,240,22821,1,2
152,248,22904,1,8
168,256,22988,2,0,B|208:248|208:248|240:216,1,80,8|4
368,208,23321,6,0,B|328:216|328:216|296:248,1,80,0|8
376,304,23654,2,0,B|424:312|488:272|504:216,1,160
440,152,24154,2,0,B|400:112|344:112,1,80,8|0
296,56,24488,5,0
296,56,24654,1,0
224,88,24821,2,0,B|224:176,1,80,8|0
176,232,25154,1,0
176,232,25321,1,0
104,192,25488,2,0,B|104:88,1,80,8|0
136,88,25738,1,0
168,64,25821,6,0,B|168:168,1,80,8|0
264,152,26154,2,0,B|240:208|200:232,1,80,8|0
288,288,26488,2,0,B|216:328|160:304,1,120,0|0
144,296,26821,1,8
64,344,26988,1,0
0,272,27154,2,0,B|16:232|62:222,1,80,0|0
168,208,27488,5,8
72,152,27654,1,0
120,256,27821,1,0
144,144,27988,2,0,B|192:112|264:136|304:96,1,160,0|8
400,56,28488,6,0,B|416:104|400:144,1,80,4|0
368,200,28821,1,8
368,200,28988,1,0
480,192,29154,2,0,B|463:239|425:261,1,80
366,285,29488,1,8
366,285,29654,1,0
416,336,29821,6,0,B|384:376|336:368|280:336|304:272,1,160,0|8
264,224,30321,1,0
192,248,30488,1,0
144,184,30654,1,0
192,120,30821,1,8
272,144,30988,1,0
272,144,31071,1,0
272,144,31154,2,0,B|376:144,2,80,0|0|8
144,184,31654,5,8
128,200,31738,1,8
112,216,31821,2,0,B|16:216,2,80,0|0|8
176,288,32321,5,0
280,296,32488,1,0
392,272,32654,1,0
488,200,32821,1,8
480,192,32904,1,8
472,184,32988,1,2
464,176,33071,1,2
456,168,33154,1,4
448,160,33238,1,4
440,152,33321,2,0,B|360:152,1,80,8|8
288,48,33821,6,0,B|248:80|232:128,1,80,4|0
272,184,34154,2,0,B|312:152|328:104,1,80,2|0
288,48,34488,2,0,B|216:48|160:88|136:128,1,160,0|2
80,160,34988,1,0
152,184,35154,1,4
152,264,35321,1,0
80,288,35488,1,2
32,224,35654,2,0,B|216:224,1,160
256,168,36154,5,2
416,112,36321,1,0
352,176,36488,6,0,B|344:248|304:264,1,80,4|0
424,240,36821,2,0,B|384:264|336:272,1,80,2|0
280,336,37154,1,0
208,280,37321,2,0,B|248:256|296:248,2,80,0|2|0
208,280,37821,5,4
56,240,37988,1,0
144,208,38154,2,0,B|176:160|216:152,1,80,2|0
224,64,38488,5,0
312,176,38654,1,0
376,48,38821,1,2
256,128,38988,2,0,B|200:168|200:200,1,80,0|4
188,258,39321,1,0
264,320,39488,5,2
188,258,39655,1,0
168,352,39821,1,0
188,258,39988,1,0
264,320,40155,2,0,B|352:320|432:264,1,160,2|4
360,200,40655,2,0,B|392:152|384:112,1,80,0|2
328,48,40988,5,0
385,125,41155,1,0
432,40,41321,1,0
385,125,41488,2,0,B|312:160|216:144,1,160,2|4
256,240,41988,2,0,B|200:208|200:160,1,80,0|2
152,280,42321,5,0
256,240,42488,1,0
152,280,42655,2,0,B|56:280,2,80,0|2|0
240,320,43155,6,0,B|304:344|376:304|392:240,1,160,2|2
464,184,43655,2,0,B|448:184|448:184|440:176|440:176|432:168|432:168|424:176|424:176|416:184|416:184|424:192|424:192|432:200|432:200|440:192|440:192|440:184|440:184|432:176|432:176|424:184|424:184|432:192|432:192|432:184|312:184,1,240,8|0
224,64,44488,6,0,B|176:120|176:184|184:224,1,160,4|8
224,280,44988,2,0,B|256:240|256:200,1,80,0|0
120,264,45321,2,0,B|88:304|88:344,1,80,0|8
168,336,45655,2,0,B|216:368|264:352,1,80,0|0
304,304,45988,2,0,B|328:352,2,40,0|0|8
272,232,46321,5,0
304,304,46488,1,0
352,240,46655,1,0
304,304,46821,2,0,B|248:328|192:288|200:224,1,160,8|0
272,232,47321,5,0
272,232,47488,2,0,B|288:168|360:152|408:184,1,160
304,304,47988,2,0,B|240:328|192:320,1,80,0|8
144,240,48321,5,0
226,321,48488,1,0
128,336,48655,1,0
226,321,48821,2,0,B|272:288|288:208|280:176,1,160,8|0
224,120,49321,2,0,B|240:80|288:48,1,80,0|8
344,24,49655,1,0
408,72,49821,6,0,B|368:112|320:96,1,80,0|8
224,120,50321,1,0
328,168,50488,1,0
208,200,50655,1,0
328,168,50821,2,0,B|368:208,2,40,8|0|0
272,232,51155,6,0,B|248:296|152:288|136:208,1,160,0|8
208,200,51655,1,0
144,152,51821,2,0,B|64:80,2,80,0|0|8
216,120,52321,1,0
280,168,52488,2,0,B|344:152|416:160|472:192,1,160,0|8
400,248,52988,6,0,B|448:248|488:296,1,80
400,336,53321,2,0,B|352:336|320:280,1,80,0|8
256,240,53655,1,0
168,272,53821,1,0
184,176,53988,1,0
96,208,54155,2,0,B|80:208|80:208|72:216|72:216|72:200|72:200|64:208|64:208|88:208|88:208|-8:208,1,160,10|0
184,176,54655,6,8,B|144:184,2,40
200,144,54905,2,4,B|184:96,2,40
216,168,55155,2,0,B|264:200|320:192,1,80,4|8
320,184,55405,1,8
344,168,55488,1,4
376,160,55571,1,0
408,168,55654,2,0,B|480:240,1,80
472,72,55988,6,0,B|504:160,1,80,0|8
464,224,56321,1,0
512,288,56488,2,0,B|480:328|416:336|360:312,1,160,0|8
328,208,56988,1,0
256,288,57154,1,0
364,313,57321,1,0
432,232,57488,6,0,B|456:192|448:144,1,80,8|0
384,104,57821,1,4
368,96,57905,1,0
352,88,57988,1,4
336,80,58071,1,4
320,72,58155,2,0,B|224:72,1,80,2|4
128,144,58488,6,0,B|224:144,2,80,8|0|8
392,192,58988,6,0,B|296:192,2,80,8|0|0
72,256,59488,6,0,B|168:256,1,80,8|0
264,192,59821,1,0
264,320,59988,1,0
192,216,60155,1,0
312,256,60321,1,0
192,296,60488,1,4
192,296,60571,1,4
192,296,60655,1,4
192,296,60738,1,2
192,296,60821,6,0,B|152:336|104:336,1,80,8|4
192,216,61155,1,0
264,192,61321,1,0
312,256,61488,1,8
264,320,61655,2,0,B|320:344|368:320|384:280,1,120
400,264,61988,2,0,B|504:264,2,80,0|8|0
312,256,62488,2,0,B|264:192,2,80,0|0|8
312,256,62988,1,0
192,296,63155,6,0,B|144:304|88:224|24:248,2,160,4|8|0
192,216,63988,1,0
256,168,64155,1,8
272,248,64321,1,0
216,184,64488,6,0,B|184:136|184:88,1,80
240,64,64821,2,0,B|208:24|112:40|120:112,1,160,8|0
119,102,65488,1,8
136,264,65821,5,12
216,312,66043,2,8,B|248:264|208:200,1,106.666666666667
352,128,66488,2,8,B|320:176|360:240,2,106.666666666667
256,48,67154,6,0,B|264:56|264:56|248:56|248:56|264:64|264:64|248:64|248:64|264:72|264:72|248:72|248:72|264:80|264:80|256:88|256:88|256:136,1,160,4|0
256,192,67988,2,0,B|256:272,1,80,0|8
464,80,68488,6,0,B|432:120|384:128,1,80,4|0
384,200,68821,2,0,B|328:176|328:128,2,80,8|0|0
440,256,69321,2,0,B|400:288|344:280,1,80,0|8
288,352,69654,5,0
240,200,69821,1,0
136,320,69988,1,0
136,320,70154,2,0,B|40:320,2,80,8|0|0
208,344,70654,5,0
248,280,70821,1,8
176,248,70988,1,0
136,320,71154,2,0,B|96:280|96:232,1,80
176,248,71488,2,0,B|168:192|112:168,1,80,8|0
48,64,71821,5,0
56,208,71988,1,0
176,112,72154,1,8
136,182,72321,6,0,B|176:166|240:182,1,80
376,192,72654,1,0
232,216,72821,1,8
352,240,72988,1,0
248,272,73154,1,0
328,288,73321,1,0
272,352,73488,6,0,B|224:368|152:328|168:248,1,160,8|4
208,200,73988,1,0
165,266,74154,2,0,B|152:320|112:336,1,80,8|0
48,256,74488,2,0,B|61:202|101:186,1,80
216,320,74821,2,0,B|175:358|133:350,1,80,8|0
16,192,75154,2,0,B|56:153|98:161,1,80
160,104,75488,5,8
248,136,75654,2,0,B|352:136,1,80
408,136,75988,1,0
408,136,76154,2,0,B|416:184|368:208,1,80,8|0
288,240,76488,5,4
280,248,76571,1,2
272,256,76654,2,0,B|224:272|184:264,1,80,4|8
176,256,76904,1,4
152,256,76988,2,0,B|96:248|64:272,1,80,4|0
120,336,77321,2,0,B|160:304|184:216|168:176,1,160,0|8
96,48,77821,5,2
240,120,77988,1,4
80,144,78154,1,8
200,32,78321,1,0
104,96,78488,5,0
200,160,78654,1,4
152,56,78821,1,8
128,168,78988,1,0
208,96,79154,2,0,B|256:64|256:64|376:64,1,160,4|8
424,152,79654,6,0,B|376:152|376:152|336:176,1,80
392,256,79988,2,0,B|440:256|440:256|480:232,2,80,0|8|0
296,232,80488,2,0,B|272:272|296:336,1,80
392,256,80821,6,0,B|424:216|416:136|368:96,1,160,8|0
272,48,81321,1,0
379,107,81488,1,8
280,168,81654,1,0
280,168,81821,2,0,B|224:192|168:160|160:120|160:88,1,160,0|8
96,72,82321,6,0,B|64:112|64:144,1,80
144,232,82654,2,0,B|176:192|176:160,1,80,0|8
56,64,82988,6,0,B|24:96|24:96|24:152,1,80
176,248,83321,2,0,B|208:216|208:216|208:160,1,80,0|8
256,96,83654,5,0
344,136,83821,1,0
296,224,83988,1,0
208,184,84154,1,8
296,224,84321,6,0,B|384:224,1,80,0|4
448,264,84654,2,0,B|408:304|368:304,1,80,0|8
304,328,84988,2,0,B|216:328,1,80
160,272,85321,2,0,B|112:304|112:352,2,80,2|8|2
264,224,85821,5,0
304,328,85988,1,0
200,376,86154,1,8
160,272,86321,2,0,B|112:240|112:192,1,80
208,144,86654,2,0,B|256:112|256:64,2,80,2|8|4
264,224,87154,6,0,B|216:256|216:304,1,80
312,304,87488,2,0,B|328:360|384:368,1,80,8|0
408,280,87821,1,0
408,280,87988,2,0,B|512:280,2,80,2|8|4
352,208,88488,5,0
272,144,88654,1,8
264,240,88821,1,8
336,288,88988,5,0
352,120,89154,1,0
200,184,89321,2,0,B|112:184,2,80,2|8|4
104,104,89821,6,0,B|40:120|24:200|72:248,1,160,0|8
152,288,90321,1,0
264,264,90488,1,0
360,328,90654,2,0,B|464:328,2,80,2|8|4
320,224,91154,6,0,B|304:176|184:184|200:264,1,160,0|8
264,264,91654,1,0
240,192,91821,1,0
168,184,91988,2,0,B|80:184,2,80,2|8|4
224,104,92488,5,4
240,88,92571,1,2
256,72,92654,2,0,B|328:48|360:88,1,80,4|8
352,80,92904,1,4
368,88,92988,6,0,B|440:88|448:56,1,80,4|0
448,160,93321,2,0,B|424:200,2,40,2|4|8
336,224,93654,2,0,B|360:176,2,40,8|2|4
240,248,93988,1,8
224,256,94071,1,8
208,256,94154,1,8
192,256,94238,1,4
176,248,94321,2,0,B|80:248,2,80,2|0|0
208,176,94821,5,8
296,104,94988,1,2
192,72,95154,1,4
264,152,95321,2,0,B|304:192|360:184,1,80,8|2
408,104,95654,2,0,B|465:110|489:142,1,80,4|8
440,248,95988,5,0
424,256,96071,1,0
408,264,96154,1,0
392,272,96238,1,4
376,280,96321,2,0,B|296:280,1,80,4|0
96,120,97821,5,4
104,128,97904,1,2
112,136,97988,1,4
120,144,98071,1,4
128,152,98154,2,0,B|176:192|232:184,1,80,8|4
256,128,98488,6,0,B|296:144|312:192,1,80
392,192,98821,2,0,B|392:256|344:312|296:320,1,160,8|0
280,240,99321,1,0
216,192,99488,6,0,B|136:240,1,80,8|0
144,136,99821,2,0,B|72:184,1,80,8|0
72,88,100154,2,0,B|0:136,2,80,8|0|4
88,72,100571,5,2
96,56,100654,1,4
96,40,100738,1,4
88,24,100821,2,0,B|192:24,1,80,8|4
264,32,101154,6,0,B|224:96|176:88,1,80
296,128,101488,2,0,B|248:168|176:176|128:128,1,160,8|0
207,87,101988,1,0
296,128,102154,2,0,B|384:128,1,80,8|0
328,216,102488,2,0,B|232:216,1,80,8|0
192,296,102821,2,0,B|296:296,1,80,8|0
248,216,103154,5,4
224,200,103238,1,2
200,184,103321,1,4
176,200,103404,1,4
152,216,103488,2,0,B|128:248|128:248|64:280,1,80,8|4
8,208,103821,6,0,B|32:176|32:176|96:144,1,80
112,88,104154,2,0,B|152:112|216:120|280:88,1,160,8|0
344,56,104654,1,0
424,88,104821,2,0,B|472:192,1,80,8|0
376,176,105154,2,0,B|416:264,1,80,8|0
320,256,105488,2,0,B|360:344,1,80,8|0
256,320,105821,5,4
240,312,105904,1,2
224,304,105988,1,4
208,296,106071,1,4
192,288,106154,2,0,B|192:192,1,80,8|4
280,168,106488,2,0,B|240:112|176:112|128:136,1,160,0|8
48,160,106988,5,0
120,224,107154,1,0
137,133,107321,2,0,B|152:88|224:72,2,80,0|8|0
272,64,107821,5,8
272,64,107904,1,8
272,64,107988,1,8
272,64,108071,1,2
272,64,108154,1,2
272,64,108238,1,4
272,64,108321,1,4
272,64,108404,1,4
272,64,108488,6,0,B|296:168,1,80,4|0
304,208,108821,1,8
304,208,108988,1,0
208,112,109154,6,0,B|208:216,1,80
208,264,109488,1,8
208,264,109654,1,0
136,152,109821,6,0,B|120:232,1,80
104,304,110154,1,8
104,304,110321,1,0
208,264,110488,5,0
304,208,110654,1,0
408,200,110821,2,0,B|496:200,1,80,8|0
424,280,111154,6,0,B|480:296,2,40
336,328,111488,1,8
336,328,111654,1,0
240,328,111821,2,0,B|144:328,1,80
96,256,112154,6,0,B|200:232,1,80,8|0
144,144,112488,2,0,B|240:176,1,80
248,80,112821,2,0,B|304:144,1,80,8|0
400,152,113154,2,0,B|400:208|336:264|272:240,1,160,0|8
144,144,113821,6,0,B|304:144,1,160,4|8
264,224,114321,1,0
184,264,114488,2,0,B|136:248|112:200,1,80
96,304,114821,2,0,B|80:256|96:208,1,80,8|0
48,160,115154,5,0
48,160,115321,1,0
72,88,115488,2,0,B|96:-8,1,80,8|0
133,227,115821,5,0
133,227,115988,1,0
168,160,116155,2,0,B|206:68,1,80,8|0
256,192,116488,5,4
256,192,116571,1,2
256,192,116654,2,0,B|256:280,1,80,4|8
312,328,116988,1,0
360,264,117154,1,8
360,240,117238,1,2
360,216,117321,2,0,B|360:120,1,80,4|8
432,48,117654,5,0
360,136,117821,1,0
256,192,117988,1,0
144,192,118154,2,0,B|48:192,1,80,8|0
88,272,118488,5,8
104,280,118571,1,8
120,288,118654,1,4
136,296,118738,1,4
152,304,118821,2,0,B|248:304,1,80,8|4
256,192,119154,12,4,124488
