osu file format v9

[General]
AudioFilename: yuujou pop.mp3
AudioLeadIn: 1000
PreviewTime: 903
Countdown: 0
SampleSet: Normal
StackLeniency: 0.7
Mode: 0
LetterboxInBreaks: 1
SkinPreference:taiko

[Editor]
DistanceSpacing: 1
BeatDivisor: 4
GridSize: 8

[Metadata]
Title:Yuujou Pop
Artist:Chata
Creator:aquabluu
Version:Oni
Source:Taiko no Tatsujin
Tags:taikosu dango arken1015 aru-don arien666

[Difficulty]
HPDrainRate:6
CircleSize:5
OverallDifficulty:7
ApproachRate:8
SliderMultiplier:1.4
SliderTickRate:1

[Events]
//Background and Video events
0,0,"pop-bg.png"
//Break Periods
//Storyboard Layer 0 (Background)
//Storyboard Layer 1 (Fail)
//Storyboard Layer 2 (Pass)
//Storyboard Layer 3 (Foreground)
//Storyboard Sound Samples
//Background Colour Transformations
3,100,128,255,255

[TimingPoints]
315,344.827586206897,4,1,1,100,1,0
1695,-100,4,1,1,100,0,1
25143,-100,4,1,1,100,0,0
59626,-100,4,1,1,100,0,1
81350,-100,4,1,1,100,0,0
118936,-100,4,1,1,100,0,1
142384,-100,4,1,1,100,0,0

[HitObjects]
256,304,1694,1,0
120,288,2039,1,2
32,176,2383,2,0,B|32:136,2,35
80,232,2728,1,2
152,112,3073,2,0,B|152:64,2,35
160,184,3418,2,0,B|232:240,1,70,2|0
256,168,3763,2,0,B|256:128,2,35
296,224,4108,1,2
368,224,4280,5,0
408,168,4452,2,0,B|328:168|328:56,1,140,0|2
472,80,5142,2,0,B|432:56,2,35
480,152,5487,2,0,B|512:240|400:272,1,140,2|0
360,288,6004,1,0
344,320,6090,1,0
320,296,6177,1,2
184,320,6521,6,0,B|144:304,2,35
256,320,6866,2,0,B|256:232,2,70,2|0|0
392,288,7556,1,2
472,176,7901,2,0,B|472:128,2,35
432,232,8246,1,2
392,96,8590,1,0
368,232,8935,2,0,B|304:200,1,70,2|0
264,144,9280,2,0,B|264:104,2,35
216,200,9625,1,2
144,200,9797,5,0
96,144,9970,2,0,B|152:144|184:128|184:48,1,140,0|2
48,96,10659,2,0,B|80:64,2,35
24,160,11004,2,2,B|24:248|120:240,1,140
176,272,11521,1,2
192,240,11608,1,2
216,264,11694,1,2
368,256,12039,5,0
424,296,12211,1,2
360,320,12383,1,0
296,288,12556,1,2
296,320,12642,1,0
264,304,12728,2,0,B|232:264|176:256|120:312,1,140,0|2
264,224,13418,2,0,B|296:208,2,35
200,200,13763,1,2
64,160,14108,2,0,B|104:104|200:128,1,140,0|2
256,152,14625,1,0
320,184,14797,2,0,B|368:208,2,35
384,216,15142,1,2
448,248,15315,5,0
416,312,15487,2,0,B|392:344|352:368|312:352|295:334,1,140,0|2
152,328,16177,2,0,B|112:328,2,35
192,272,16521,1,2
288,168,16866,2,0,B|328:168,2,35
248,112,17211,1,2
368,40,17556,5,0
432,56,17728,1,2
480,104,17901,1,0
496,136,17987,1,0
488,168,18073,1,2
456,232,18246,2,4,B|496:272|480:328|416:336,1,140
352,336,18763,2,4,B|288:320|280:264|320:232,1,140
360,176,19280,2,4,B|400:136|384:80|320:72,1,140
256,72,19797,2,4,B|192:88|184:144|224:176,1,140
272,224,20315,1,4
272,224,20659,1,4
256,192,21004,12,0,23763
448,280,24970,5,4
64,280,25315,5,4
256,280,25487,1,4
48,48,26521,5,0
184,24,26866,1,2
320,48,27211,1,0
384,64,27383,1,0
448,80,27556,2,2,B|504:104|504:168|448:184,1,140,2|0
384,168,28073,1,0
320,152,28246,2,2,B|264:176|264:240|320:256,1,140,2|0
384,272,28763,1,0
448,288,28935,1,2
464,48,29280,5,0
328,24,29625,1,2
192,48,29970,1,0
128,64,30142,1,0
64,80,30315,2,2,B|8:104|8:168|64:184,1,140,2|0
128,168,30832,1,0
192,152,31004,1,2
328,112,31349,2,2,B|352:104|352:80,2,35
264,136,31694,1,2
312,184,31866,1,2
380,183,32039,5,0
448,304,32383,1,2
312,304,32728,1,0
256,264,32901,1,0
200,304,33073,2,2,B|144:312|104:280|112:224,1,140,2|0
64,176,33590,1,0
112,128,33763,2,2,B|104:74|144:42|200:48,1,140,2|0
248,96,34280,1,0
296,48,34452,1,2
440,48,34797,6,0,B|496:72|496:128|440:160,1,140,0|2
360,264,35487,2,0,B|384:296|424:272,2,70,0|0|2
232,312,36177,5,0
280,264,36349,1,2
232,216,36521,1,0
184,264,36694,1,2
128,216,36866,2,0,B|72:184|152:160|80:104,1,105,0|2
80,96,37211,1,2
16,64,37383,1,2
80,32,37556,5,0
216,64,37901,1,2
352,32,38246,1,0
288,64,38418,1,0
352,96,38590,2,2,B|392:80|448:80|472:136,1,140,2|0
408,168,39108,1,0
472,200,39280,2,2,B|448:254|392:254|352:238,1,140,2|0
288,272,39797,1,0
352,304,39970,1,2
80,304,40315,5,0
160,192,40659,1,2
80,80,41004,1,0
128,32,41177,1,0
176,80,41349,2,2,B|192:48|232:32|272:48|290:80,1,140,2|0
344,32,41866,1,0
392,80,42039,1,2
456,208,42383,2,2,B|496:200,2,35
440,144,42728,1,2
384,184,42901,1,2
400,248,43073,5,0
288,328,43418,1,2
160,280,43763,1,0
96,256,43935,1,0
96,184,44108,1,2
160,64,44452,1,0
224,96,44625,1,0
224,168,44797,1,2
96,112,45142,1,0
160,136,45315,1,0
160,208,45487,1,2
288,256,45832,6,0,B|304:296|352:288,2,70,0|0|2
344,216,46349,1,0
376,152,46521,1,0
344,88,46694,1,0
304,32,46866,2,0,B|336:8|376:32,1,70,2|0
432,56,47211,6,0,B|472:80|456:128,1,70,0|2
440,184,47556,1,0
456,256,47728,1,0
464,288,47815,1,0
432,280,47901,1,0
360,296,48073,1,0
288,280,48246,1,2
256,296,48332,1,2
256,264,48418,1,2
88,328,48590,5,0
88,192,48763,1,0
88,56,48935,1,0
464,56,49625,6,0,B|464:128,1,70
256,320,50142,6,0,B|256:240,1,70
48,56,50659,6,0,B|48:144,2,70
120,312,51349,5,0
256,312,51521,1,0
384,312,51694,1,0
184,24,52211,6,0,B|328:24,1,140
104,248,52901,6,0,B|8:248,1,70
408,248,53418,6,0,B|478:248,2,70
352,96,54108,5,0
256,192,54280,1,0
160,288,54452,1,0
32,128,54970,6,0,B|160:16,1,140
384,40,55659,6,0,B|440:88,1,70
256,304,56177,6,0,B|328:240,2,70
88,304,56866,5,2
144,264,57039,1,2
88,224,57211,1,2
144,184,57383,1,2
104,128,57556,2,2,B|80:104,2,35
176,128,57901,2,2,B|208:96,2,35
216,184,58246,2,0,B|216:232|272:232,2,70
352,152,58935,6,0,B|400:152,2,35
288,184,59280,1,2
256,320,59625,5,0
120,288,59970,1,2
72,160,60315,2,0,B|72:120,2,35
136,184,60659,1,2
256,112,61004,2,0,B|256:152,2,35
312,72,61349,1,2
368,112,61521,2,0,B|368:160|320:168,2,70
424,152,62039,1,2
464,96,62211,5,0
488,160,62383,2,0,B|504:224|464:272|392:224,1,140,0|2
280,192,63073,2,0,B|240:176,2,35
336,240,63418,1,2
200,248,63763,1,0
168,240,63849,1,0
144,216,63935,1,0
128,152,64108,1,2
120,288,64452,5,0
184,312,64625,2,0,B|176:352|136:352,2,70,0|2|0
256,320,65142,1,0
392,288,65487,1,2
440,160,65832,2,0,B|440:120,2,35
376,184,66177,1,2
256,112,66521,2,0,B|256:152,2,35
200,72,66866,1,2
144,112,67039,2,0,B|144:160|192:168,2,70
88,152,67556,1,2
56,288,67901,6,0,B|88:312|144:304|160:224,1,140,0|2
256,128,68590,1,0
232,64,68763,2,0,B|272:40|304:80,1,70,0|2
368,192,69280,1,2
392,216,69366,1,2
400,248,69452,1,2
416,320,69625,1,2
296,256,69970,6,0,B|336:232,2,35,0|2|2
224,256,70315,1,0
224,256,70401,1,2
224,256,70487,1,2
256,320,70659,5,0
120,280,71004,1,2
32,168,71349,2,0,B|16:128,2,35
96,184,71694,1,2
200,88,72039,2,0,B|216:48,2,35
176,152,72383,1,2
208,216,72556,1,0
280,232,72728,1,0
352,216,72901,1,0
280,184,73073,1,2
352,168,73246,5,0
344,96,73418,2,0,B|416:96|416:160|408:224,1,140,0|2
408,336,74108,1,0
440,320,74194,1,0
464,288,74280,1,0
472,216,74452,1,2
464,80,74797,1,0
440,56,74883,1,0
408,48,74970,1,0
336,40,75142,1,2
200,48,75487,5,0
128,64,75659,1,0
72,112,75832,1,2
40,248,76177,2,4,B|0:288|16:344|80:352,1,140
144,352,76694,2,4,B|208:336|216:280|176:248,1,140
144,184,77211,2,4,B|104:144|120:88|184:80,1,140
248,80,77728,2,4,B|312:96|320:152|280:184,1,140
248,248,78246,1,4
248,248,78590,1,4
256,192,78935,12,0,81349
224,160,82901,5,4
288,224,83073,1,4
288,160,83246,1,4
224,224,83418,1,4
448,48,84452,5,0
480,184,84797,1,2
416,208,84970,2,0,B|368:232,2,35
416,136,85315,1,0
352,168,85487,1,2
288,136,85659,2,0,B|304:96|304:64|264:40|200:64,1,140
152,80,86177,1,2
88,112,86349,2,0,B|56:128,2,35
104,176,86694,2,0,B|88:224|144:240,2,70,0|2|0
176,192,87211,5,0
216,328,87556,1,2
152,296,87728,2,0,B|112:320,2,35
216,264,88073,1,0
288,256,88246,1,2
352,280,88418,1,0
400,328,88590,2,0,B|464:312|480:264|432:208,1,140,0|2
376,208,89108,2,0,B|328:152|352:112|400:96,1,140
456,64,89625,1,2
392,40,89797,1,2
328,64,89970,5,0
192,32,90315,1,2
120,40,90487,2,0,B|88:24,2,35
64,88,90832,1,0
32,152,91004,1,2
40,224,91177,2,0,B|40:280|80:304|136:288,1,140
112,224,91694,1,2
176,200,91866,2,0,B|192:168,2,35
216,256,92211,2,0,B|248:192,2,70,0|2|0
280,280,92728,5,0
352,160,93073,1,2
368,232,93246,2,0,B|376:272,2,35
384,304,93590,1,0
440,264,93763,1,2
488,216,93935,2,0,B|512:248|496:304,2,70
464,152,94452,1,2
464,48,94711,6,0,B|440:80,1,35,0|2
344,112,95056,2,0,B|312:80,1,35,0|2
256,56,95315,1,2
256,56,95401,1,2
256,56,95487,5,0
120,32,95832,1,2
72,80,96004,2,0,B|32:80,2,35
120,128,96349,1,0
176,168,96521,1,2
120,208,96694,2,0,B|64:216|64:296|120:304,1,140
192,320,97211,1,2
264,304,97383,2,0,B|248:264,2,35
336,320,97728,1,0
408,304,97901,1,2
424,168,98246,5,0
360,136,98418,2,0,B|320:112|304:152,1,70,0|2
272,216,98763,1,2
216,176,98935,1,0
200,208,99021,1,0
168,216,99108,1,0
152,144,99280,1,2
128,120,99366,1,2
96,112,99452,1,2
40,152,99625,1,0
24,224,99797,1,2
152,280,100142,5,2
224,280,100315,1,0
256,280,100401,1,0
288,280,100487,1,0
360,280,100659,1,2
256,192,101004,12,0,103418
256,192,103763,12,4,106177
96,328,106521,5,0
256,328,106694,1,0
416,328,106866,1,0
416,64,107556,5,0
256,64,107728,1,0
96,192,108073,5,0
256,192,108246,1,0
416,328,108590,5,0
256,328,108763,1,0
96,328,108935,1,0
416,64,109280,5,0
416,192,109452,1,0
416,328,109625,1,0
96,56,110142,5,0
96,328,110487,1,0
256,328,110832,5,0
256,192,111004,1,0
416,64,111349,5,0
416,192,111521,1,0
416,328,111694,1,0
40,72,112039,5,0
152,192,112211,1,0
256,328,112383,1,0
256,72,112901,5,0
32,328,113246,1,0
256,192,113590,5,0
400,328,113763,1,0
472,72,114108,5,0
360,192,114280,1,0
256,328,114452,1,0
384,256,114797,5,0
320,224,114970,1,0
256,256,115142,1,0
192,224,115315,2,0,B|128:256,1,70,2|0
72,216,115659,2,0,B|32:216,2,35,0|2|2
136,184,116004,1,2
200,152,116177,5,0
120,40,116521,1,2
264,40,116866,1,0
336,40,117039,1,0
408,40,117211,2,0,B|320:160,1,140,2|0
392,152,117728,1,2
464,152,117901,2,0,B|376:288,1,140
320,272,118418,1,0
248,272,118590,1,6
112,304,118935,5,0
24,192,119280,1,2
112,80,119625,1,0
168,128,119797,1,0
224,80,119970,1,2
352,24,120315,6,0,B|400:80,2,70,0|2|0
304,80,120832,1,2
272,144,121004,2,0,B|248:176,2,35
304,208,121349,1,2
400,104,121694,5,0
392,240,122039,2,0,B|368:328|272:288,1,140,2|0
240,344,122556,1,0
208,280,122728,1,2
72,248,123073,1,0
80,280,123159,1,0
112,296,123246,1,0
136,232,123418,1,2
256,168,123763,5,0
192,184,123935,1,0
248,232,124108,1,2
320,240,124280,1,0
352,256,124366,1,0
360,288,124452,1,0
464,192,124797,2,2,B|464:104|352:96,1,140,2|0
376,32,125315,1,0
312,64,125487,1,2
192,136,125832,6,0,B|248:192,1,70,0|2
296,152,126177,2,0,B|232:88,1,70,0|2
192,56,126521,1,0
160,40,126608,1,0
128,48,126694,1,0
80,96,126866,1,2
32,224,127211,5,0
160,168,127556,2,0,B|224:224|160:288,1,140,2|0
208,344,128073,1,0
256,288,128246,1,2
392,312,128590,1,2
360,320,128677,1,2
328,312,128763,1,2
368,248,128935,1,2
488,168,129280,6,0,B|496:120|432:112,2,70,0|0|2
416,176,129797,1,0
384,160,129883,1,0
352,168,129970,1,0
224,232,130315,2,0,B|192:264|120:232|120:184,1,140,2|0
192,168,130832,1,0
120,136,131004,1,2
224,48,131349,1,0
152,48,131521,2,0,B|112:48|80:88,1,70,2|0
40,128,131866,1,2
48,200,132039,2,0,B|16:224,2,35,0|0|2
104,248,132383,1,2
240,296,132728,5,0
184,168,133073,2,0,B|168:256|272:224,1,140,2|0
344,224,133590,1,0
408,192,133763,1,2
272,160,134108,1,0
240,96,134280,1,2
176,72,134452,1,2
312,64,134797,5,0
384,48,134970,1,0
440,88,135142,1,2
472,104,135228,1,2
488,136,135315,1,2
488,208,135487,2,4,B|512:304|440:336,1,140
376,328,136004,2,4,B|400:232|328:200,1,140
264,208,136521,2,4,B|288:304|216:336,1,140
152,328,137039,2,4,B|176:232|104:200,1,140
48,184,137556,1,4
112,56,137901,1,4
256,192,138246,12,0,141866
432,312,142383,5,0
368,280,142556,1,0
304,312,142728,1,0
256,368,142901,1,0
208,312,143073,1,2
208,312,143159,1,2
208,312,143246,1,2
144,280,143418,1,4
80,312,143590,1,4
