osu file format v9

[General]
AudioFilename: yuujou pop.mp3
AudioLeadIn: 1000
PreviewTime: 903
Countdown: 0
SampleSet: Normal
StackLeniency: 0.7
Mode: 0
LetterboxInBreaks: 1
SkinPreference:taiko

[Editor]
DistanceSpacing: 1
BeatDivisor: 4
GridSize: 8

[Metadata]
Title:Yuujou Pop
Artist:Chata
Creator:aquabluu
Version:Muzukashii
Source:Taiko no Tatsujin
Tags:taikosu dango arken1015 aru-don arien666

[Difficulty]
HPDrainRate:5
CircleSize:5
OverallDifficulty:6
ApproachRate:6
SliderMultiplier:1.4
SliderTickRate:1

[Events]
//Background and Video events
0,0,"pop-bg.png"
//Break Periods
//Storyboard Layer 0 (Background)
//Storyboard Layer 1 (Fail)
//Storyboard Layer 2 (Pass)
//Storyboard Layer 3 (Foreground)
//Storyboard Sound Samples
//Background Colour Transformations
3,100,128,255,255

[TimingPoints]
315,344.827586206897,4,1,1,100,1,0
1695,-100,4,1,1,100,0,1
25143,-100,4,1,1,100,0,0
59626,-100,4,1,1,100,0,1
81695,-100,4,1,1,100,0,0
118936,-100,4,1,1,100,0,1
142384,-100,4,1,1,100,0,0

[HitObjects]
456,72,1694,1,0
320,40,2039,1,2
184,72,2383,2,0,L|112:80,2,70,0|0|2
320,112,3073,1,0
456,144,3418,1,2
456,216,3590,1,0
320,256,3935,2,0,B|369:248|390:320,2,70,0|2|0
320,256,4452,5,0
184,296,4797,1,2
48,344,5142,2,0,B|136:312,2,70,0|0|2
136,232,5832,1,0
72,256,6004,1,0
8,280,6177,1,2
80,176,6521,2,0,B|8:208,2,70
24,80,7211,5,0
160,40,7556,1,2
296,80,7901,2,0,L|368:88,2,70,0|0|2
160,120,8590,1,0
32,168,8935,1,2
32,240,9108,1,0
160,288,9452,2,0,B|111:280|90:352,2,70,0|2|0
160,288,9970,5,0
304,288,10315,1,2
440,328,10659,2,0,B|352:296,2,70,0|0|2
344,224,11349,1,2
408,248,11521,2,2,B|464:272,2,35
392,112,12039,2,0,B|416:80|352:32,2,70
256,64,12728,5,0
256,208,13073,1,2
320,328,13418,1,0
256,352,13590,1,0
192,328,13763,1,2
88,240,14108,1,0
56,104,14452,2,0,B|40:32,1,70,2|0
168,104,14970,1,0
168,104,15142,2,0,B|200:184,1,70,2|0
224,232,15487,5,0
360,280,15832,1,2
488,232,16177,2,0,B|456:160,1,70
432,104,16521,1,2
296,56,16866,2,0,B|280:24,2,35
320,120,17211,1,2
408,232,17556,5,0
368,288,17728,1,0
328,344,17901,1,0
184,344,18246,2,4,B|184:280|128:240|88:248,1,140
160,200,18763,2,4,B|208:208|248:264|248:328,1,140
304,264,19280,2,4,B|288:192|232:160|208:144,1,140
280,112,19797,2,4,B|320:144|352:192|368:248,1,140
432,224,20315,1,4
432,224,20659,1,4
256,192,21004,12,0,23763
112,248,24970,5,4
384,248,25315,5,4
384,248,25487,1,4
56,88,26521,5,0
184,40,26866,1,2
56,288,27556,1,2
192,240,27901,1,0
56,224,28246,1,2
192,176,28590,2,0,B|248:160|256:112,2,70,0|0|2
296,88,29280,5,0
432,48,29625,1,2
304,296,30315,1,2
440,264,30659,1,0
304,232,31004,1,2
440,200,31349,2,2,B|488:184,2,35
376,216,31694,1,2
256,144,32039,5,0
128,88,32383,1,2
256,336,33073,1,2
120,296,33418,1,0
256,272,33763,1,2
120,232,34108,2,2,B|64:216|64:160,2,70
256,208,34797,6,0,B|328:208|368:288,1,140,0|2
256,24,35832,1,2
392,64,36177,2,0,B|296:88,1,70,0|2
256,104,36521,2,0,B|168:128,1,70
456,88,37556,5,0
328,40,37901,1,2
456,288,38590,1,2
320,240,38935,1,0
456,224,39280,1,2
320,176,39625,2,0,B|264:160|256:112,2,70,0|0|2
216,88,40315,5,0
80,48,40659,1,2
208,296,41349,1,2
72,256,41694,1,0
208,232,42039,1,2
72,184,42383,2,2,B|24:168,2,35
136,208,42728,1,2
32,312,43073,5,0
168,352,43418,1,2
448,320,44108,1,2
312,288,44452,2,0,B|264:288|240:224,2,70,0|0|2
392,176,45142,1,0
424,112,45315,1,0
360,72,45487,1,2
216,72,45832,5,0
152,48,46004,2,0,B|96:48|56:88|56:144,1,140,0|2
56,200,46521,1,0
152,304,46866,1,2
296,304,47211,1,0
360,280,47383,2,0,B|456:272|456:192,1,140,0|2
456,128,47901,1,0
344,40,48246,1,2
256,152,48590,5,0
224,88,48763,1,0
160,56,48935,1,0
40,304,49625,2,0,B|72:336|120:312,1,70
216,232,50142,2,0,B|256:224|288:256,1,70
400,320,50659,2,0,B|448:320|464:272,2,70
256,328,51349,5,0
184,312,51521,1,0
136,256,51694,1,0
232,72,52211,2,0,B|312:40|352:112,1,140
488,152,52901,2,0,B|448:176|464:224,1,70
352,296,53418,2,0,B|376:336|432:336,2,70
256,192,54108,5,0
224,136,54280,1,0
288,136,54452,1,0
192,312,54970,2,0,B|256:352|344:304,1,140
456,248,55659,1,0
400,208,55832,1,0
280,128,56177,2,0,B|336:64,2,70,0|0|2
192,240,56866,5,2
256,208,57039,1,2
320,240,57211,1,2
256,272,57383,1,2
400,272,57728,1,2
464,240,57901,1,2
400,208,58073,1,2
48,192,58935,5,0
120,176,59108,1,0
152,112,59280,1,2
152,248,59625,5,0
288,216,59970,1,2
424,248,60315,2,0,B|504:224,2,70,0|0|2
288,288,61004,1,0
216,304,61177,2,0,B|144:328,2,70,0|2|0
288,288,61694,1,0
360,304,61866,2,0,B|424:336,1,70,0|2
464,200,62383,5,0
408,72,62728,1,2
288,136,63073,2,0,B|320:206,2,70,0|0|2
152,168,63763,2,0,B|170:209,2,35,0|0|0
88,200,64108,1,2
424,184,65142,5,0
336,80,65487,1,2
272,200,65832,2,0,B|320:264,2,70,0|0|2
200,80,66521,1,0
168,144,66694,2,0,B|88:192,2,70,0|2|0
200,208,67211,1,0
232,272,67383,2,0,B|280:352,1,70,0|2
128,336,67901,5,0
80,208,68246,1,2
144,80,68590,2,0,B|96:152,2,70,0|0|2
288,80,69280,2,2,B|312:112,2,35
336,136,69625,1,2
152,136,70659,5,0
288,168,71004,1,2
424,136,71349,2,0,B|504:160,2,70,0|0|2
288,96,72039,1,0
216,80,72211,2,0,B|144:56,2,70,0|2|0
264,32,72728,1,0
336,48,72901,2,0,B|416:72,1,70,0|2
472,192,73418,5,0
408,312,73763,1,2
288,248,74108,2,0,B|320:178,2,70,0|0|2
152,216,74797,2,0,B|170:175,2,35,0|0|0
88,184,75142,1,2
88,48,75487,5,0
152,32,75659,1,0
216,48,75832,1,2
352,32,76177,2,4,B|424:32|424:104|352:104,1,140
288,112,76694,2,4,B|216:112|216:184|288:184,1,140
352,192,77211,2,4,B|424:192|424:264|352:264,1,140
288,272,77728,2,4,B|216:272|216:344|288:344,1,140
344,312,78246,1,4
472,264,78590,1,4
256,192,78935,12,0,81694
88,152,82901,5,4
184,248,83073,1,4
328,248,83246,1,4
424,152,83418,1,4
464,320,84452,6,0,B|288:320,1,140,0|2
184,320,85142,1,0
120,288,85315,1,0
184,256,85487,1,2
320,216,85832,2,0,B|400:192|400:104,1,140,0|2
328,120,86349,1,0
256,128,86521,1,0
136,56,86866,1,2
32,152,87211,6,0,B|32:304,1,140,0|2
160,336,87901,1,0
216,288,88073,1,0
272,336,88246,1,2
400,280,88590,1,0
440,224,88763,2,0,B|360:192,2,70,2|2|2
472,160,89280,1,0
400,40,89625,1,2
256,40,89970,6,0,B|208:40|152:80|152:128,1,140,0|2
72,232,90659,1,0
32,288,90832,1,0
88,328,91004,1,2
224,296,91349,2,0,B|304:312|352:256,1,140,0|2
296,216,91866,1,0
232,184,92039,2,0,B|280:120|384:152,1,140,0|2
456,48,92728,6,0,B|392:104|320:40,1,140,0|2
192,40,93418,1,0
128,64,93590,1,0
80,112,93763,1,2
48,248,94108,1,0
104,288,94280,1,2
176,296,94452,1,0
240,264,94625,1,2
288,320,94797,2,0,B|312:352,2,35
240,264,95142,1,2
176,144,95487,6,0,B|144:96|168:64|256:56,1,140,0|2
384,56,96177,2,0,B|416:32,2,35
336,104,96521,1,2
440,200,96866,2,0,B|440:264|360:280|320:264,1,140,0|2
272,288,97383,1,0
240,264,97470,1,0
208,240,97556,1,0
88,320,97901,1,2
128,184,98246,5,0
80,128,98418,2,0,B|48:80,2,35,2|2|2
144,96,98763,1,2
192,152,98935,1,0
256,120,99108,2,0,B|288:152,2,35,2|2|2
208,64,99452,1,2
272,32,99625,1,0
328,80,99797,1,2
360,64,99883,1,2
392,80,99970,1,2
360,144,100142,1,2
256,192,101004,12,4,103418
256,192,103763,12,4,106177
168,96,106521,5,0
104,128,106694,1,0
88,200,106866,1,0
352,96,107556,2,0,B|392:104|400:152,1,70
264,192,108073,2,0,B|224:192|224:256,1,70
352,296,108590,2,0,B|408:288|408:352,2,70
208,296,109280,5,0
144,264,109452,1,0
104,208,109625,1,0
256,64,110142,1,0
256,200,110487,1,0
392,184,110832,2,0,B|352:136|312:136,1,70
200,136,111349,1,0
136,168,111521,1,0
104,232,111694,1,2
24,120,112039,5,0
56,56,112211,1,0
120,24,112383,1,0
328,24,112901,1,0
456,88,113246,1,0
328,144,113590,1,0
392,176,113763,1,0
464,296,114108,1,0
400,320,114280,1,0
336,344,114452,1,2
240,296,114797,6,0,B|176:264,2,70,0|2|0
272,232,115315,1,2
144,176,115659,2,0,B|208:208,2,70,0|2|2
80,144,116177,5,0
184,56,116521,1,2
328,56,116866,1,0
392,88,117039,1,0
328,120,117211,1,2
200,176,117556,1,0
136,208,117728,1,2
200,240,117901,1,0
328,304,118246,5,0
392,272,118418,1,0
328,240,118590,1,6
200,304,118935,5,0
72,240,119280,1,2
152,128,119625,2,0,B|80:80,2,70,0|0|2
280,192,120315,1,0
328,136,120487,2,0,B|392:176,1,70,2|0
352,232,120832,1,2
304,288,121004,2,0,B|344:312,2,35
368,328,121349,1,0
232,328,121694,5,0
96,296,122039,1,2
176,184,122383,1,0
184,256,122556,1,0
232,200,122728,1,2
240,64,123073,1,0
232,96,123159,1,0
224,128,123246,1,0
288,152,123418,2,0,B|352:176|408:128|408:96,1,140
440,168,123935,1,0
408,232,124108,1,2
472,104,124452,5,0
344,48,124797,1,2
216,104,125142,2,0,B|176:104|152:144,2,70,0|0|2
344,152,125832,2,0,B|296:208,1,70,0|2
304,272,126177,1,0
240,296,126349,1,2
232,224,126521,2,0,B|264:248,2,35
176,184,126866,1,2
56,112,127211,5,0
168,32,127556,1,2
272,128,127901,1,0
336,160,128073,1,0
272,192,128246,1,2
272,336,128590,1,2
240,328,128677,1,2
208,320,128763,1,2
144,296,128935,2,0,B|152:240|224:248|272:272,1,140,2|0
328,288,129452,1,0
392,320,129625,1,2
472,208,129970,5,0
416,80,130315,2,0,B|384:32|320:40|296:96,1,140,2|0
264,144,130832,1,0
232,208,131004,2,0,B|200:264|144:272|104:224,1,140,2|0
64,184,131521,1,2
96,120,131694,2,0,B|112:56|168:32|224:64,1,140
272,72,132211,1,2
328,112,132383,1,2
440,192,132728,6,0,B|440:288|328:288,1,140,0|2
224,320,133418,1,0
160,304,133590,1,0
112,256,133763,2,0,B|112:184|160:152|208:152,1,140,2|0
256,160,134280,1,2
320,184,134452,2,0,B|400:224|288:248|376:304,1,140,2|0
432,272,134970,1,0
464,208,135142,1,2
456,72,135487,6,4,B|416:120|352:128|328:104,1,140
272,64,136004,2,4,B|224:32|168:32|144:112,1,140
128,152,136521,2,4,B|88:192|112:240|200:240,1,140
256,240,137039,2,4,B|320:224|368:256|320:336,1,140
400,320,137556,1,4
480,200,137901,1,4
256,192,138246,12,4,142039
48,176,142383,5,0
64,248,142556,1,0
112,304,142728,1,0
176,328,142901,1,0
248,328,143073,1,0
392,328,143418,1,4
392,328,143590,1,4
