osu file format v9

[General]
AudioFilename: pop.mp3
AudioLeadIn: 2000
PreviewTime: 118140
Countdown: 0
SampleSet: Soft
StackLeniency: 0.7
Mode: 0
LetterboxInBreaks: 1

[Editor]
DistanceSpacing: 1.6
BeatDivisor: 4
GridSize: 8

[Metadata]
Title:Yuujou Pop
Artist:Chata
Creator:Rorry
Version:Insane
Source:Taiko no Tatsujin
Tags:Muya AisamaDX Zekira gowww

[Difficulty]
HPDrainRate:7
CircleSize:4
OverallDifficulty:7
ApproachRate:8
SliderMultiplier:1.8
SliderTickRate:1

[Events]
//Background and Video events
0,0,"bg2.jpg"
//Break Periods
2,84542,94627
//Storyboard Layer 0 (Background)
//Storyboard Layer 1 (Fail)
//Storyboard Layer 2 (Pass)
//Storyboard Layer 3 (Foreground)
//Storyboard Sound Samples
//Background Colour Transformations
3,100,163,162,255

[TimingPoints]
205,344.827586206897,4,2,0,100,1,0
894,-100,4,1,0,100,0,0
59515,-100,4,1,0,100,0,1
59601,-100,4,1,0,100,0,0
118825,-100,4,1,0,100,0,1
118911,-100,4,1,0,100,0,0
149170,-100,4,1,0,0,0,0

[HitObjects]
184,224,205,1,0
184,224,549,1,0
352,152,894,5,0
416,216,1067,1,0
336,256,1239,1,0
416,216,1411,1,0
496,168,1584,6,0,B|448:72|320:112,1,180,0|8
256,120,2101,1,0
176,160,2273,2,0,B|224:256|352:216,1,180,0|8
344,312,2791,6,0,B|256:360|144:296,3,180,0|0|0|0
88,272,3998,1,8
171,311,4170,1,0
248,264,4342,6,0,B|344:216|304:88,1,180,0|8
224,144,4860,2,0,B|272:240|400:200,1,180
456,168,5377,1,8
392,104,5549,1,0
208,104,5894,1,0
152,176,6067,1,8
288,56,6411,5,0
376,80,6584,1,0
304,136,6756,1,8
392,160,6929,1,0
328,224,7101,6,0,B|376:320|504:280,1,180,0|8
256,192,7618,1,0
184,160,7791,2,0,B|136:64|8:104,1,180,0|8
32,224,8308,6,0,B|78:316|183:283,1,180
272,256,8825,1,8
232,176,8998,1,0
272,256,9170,1,0
312,336,9342,1,0
272,256,9515,1,8
328,184,9687,5,0
248,136,9860,2,0,B|160:184|48:120,1,180,0|8
176,200,10377,6,0,B|264:152|376:216,3,180
384,288,11584,1,8
304,328,11756,1,0
216,304,11929,5,0
181,293,12015,1,0
152,271,12101,1,0
104,192,12273,5,8
91,157,12360,1,0
91,121,12446,1,0
106,88,12532,1,0
129,60,12618,6,0,B|205:148|317:84,1,180,4|8
376,136,13136,1,0
464,168,13308,2,0,B|515:254|427:330,1,180,0|8
336,320,13825,6,0,B|250:371|174:283,1,180
96,240,14342,2,0,B|184:200,1,90,8|0
224,192,14687,2,0,B|136:152,1,90
96,136,15032,2,0,B|184:96,1,90,8|0
256,48,15377,6,0,B|304:144|408:96,1,180,0|8
256,336,15894,6,0,B|208:240|104:288,3,180
72,200,17101,1,8
88,112,17273,1,0
168,152,17446,5,0
200,152,17532,1,0
232,152,17618,1,0
264,152,17705,1,0
296,152,17791,1,8
328,152,17877,1,0
360,152,17963,1,0
392,152,18049,1,0
424,152,18136,5,4
200,336,18480,5,0
200,336,18653,1,4
64,80,18998,5,0
64,80,19170,1,4
352,40,19515,5,0
352,40,19687,1,4
488,296,20032,5,0
488,296,20205,1,4
256,192,20549,5,4
256,192,20894,12,4,23653
256,64,24860,5,0
256,248,25205,5,0
256,248,25377,1,0
320,56,26411,5,0
384,120,26584,1,0
448,184,26756,2,0,B|456:288|344:312,1,180,8|0
256,312,27273,5,0
346,312,27446,1,8
256,312,27618,2,0,B|152:320|128:208,1,180
128,211,28136,1,8
168,128,28308,5,0
168,128,28394,1,0
168,128,28480,1,0
248,88,28653,1,0
336,88,28825,2,0,B|336:272,1,180,8|0
424,296,29342,1,0
472,224,29515,6,0,B|384:192,1,90,8|0
472,160,29860,2,0,B|384:128,1,90
472,96,30205,2,0,B|423:79|384:64,1,90,8|0
296,64,30549,1,0
256,144,30722,1,0
192,80,30894,1,8
120,136,31067,6,0,B|200:208,2,90
120,136,31584,2,0,B|40:208,1,90,8|0
53,196,31842,1,0
53,196,31929,1,4
208,312,32101,5,0
288,272,32273,1,8
368,232,32446,1,0
288,184,32618,1,0
208,144,32791,2,0,B|296:56|400:168,2,180
208,144,33653,5,8
128,104,33825,1,0
208,144,33998,1,0
288,184,34170,1,0
368,232,34342,6,0,B|328:344|456:352,1,180,8|0
456,264,34860,6,0,B|456:168,1,90,0|8
288,128,35205,2,0,B|288:32,1,90
160,336,35549,2,0,B|160:240,1,90,0|8
160,152,35894,1,0
336,208,36067,1,0
160,248,36239,1,0
288,128,36411,1,8
256,192,36584,12,4,37446
152,88,37618,5,0
240,64,37791,1,8
312,120,37963,1,0
240,176,38136,1,0
320,216,38308,2,0,B|448:208|408:336,2,180
320,216,39170,6,0,B|384:200|336:128,1,90,8|0
416,88,39515,1,0
416,88,39860,1,8
160,296,40377,5,0
248,264,40549,1,8
336,296,40722,1,0
424,264,40894,1,0
352,208,41067,2,0,B|304:112|160:160,1,180
197,149,41584,5,0
112,160,41756,2,0,B|72:104|152:72,2,90,0|8|0
198,149,42273,2,0,B|238:205|158:237,3,90,0|0|8|0
408,72,42963,6,0,B|312:120,1,90
192,112,43308,2,0,B|272:151,1,90,8|0
352,192,43653,1,0
432,232,43825,1,0
352,192,43998,1,8
280,248,44170,6,0,B|208:344|112:256,1,180
192,200,44687,1,8
80,64,45032,6,0,B|152:8|256:32,1,180,0|8
328,72,45549,1,0
256,128,45722,6,0,B|280:336|112:288|112:288|104:104|312:176,1,540,0|0
376,168,46929,1,0
376,80,47101,6,0,B|488:112|488:248|376:296|264:248,1,360,0|4
88,112,48308,6,0,B|88:8,3,90,0|0|0|4
480,336,49515,5,0
480,336,49687,1,0
456,88,50032,6,0,B|384:144,1,90
200,312,50549,5,0
200,312,50722,1,0
200,312,50894,1,4
256,64,51239,6,0,B|352:64,2,90,0|0|4
32,368,52101,5,0
32,112,52446,1,0
248,240,52791,1,0
248,240,52963,1,0
416,56,53308,6,0,B|416:152,2,90,0|0|4
416,312,53998,5,0
416,312,54170,1,0
416,312,54342,1,4
152,40,54860,5,0
384,136,55205,6,0,B|360:240|232:272,1,180
266,261,55722,1,0
48,128,56067,5,0
48,128,56239,1,0
48,128,56411,1,4
280,40,56756,5,0
360,72,56929,1,0
432,128,57101,1,0
464,216,57273,1,0
432,304,57446,5,0
399,318,57532,1,0
364,328,57618,1,0
328,334,57705,1,0
292,339,57791,1,0
256,341,57877,1,0
220,341,57963,1,0
88,288,58136,5,0
136,152,58308,1,0
248,240,58480,1,0
400,64,59515,6,0,B|384:184|232:168,1,180,0|8
208,112,60032,1,0
144,176,60205,2,0,B|129:283|249:299,1,180,0|8
336,296,60722,2,0,B|443:310|459:190,3,180
416,120,61929,1,8
336,152,62101,1,0
248,152,62273,6,0,B|56:152,1,180,0|8
136,216,62791,2,0,B|320:216,1,180
408,216,63308,5,8
344,280,63480,2,0,B|160:280,1,180
72,280,63998,1,8
104,104,64342,5,0
192,80,64515,1,0
248,152,64687,1,8
336,120,64860,1,0
424,88,65032,6,0,B|496:184|400:272,1,180,0|8
256,192,65549,1,0
88,296,65722,2,0,B|16:200|112:112,1,180,0|8
168,88,66239,6,0,B|352:88,1,180
424,144,66756,1,8
376,224,66929,1,0
304,280,67101,1,0
216,304,67273,1,0
128,320,67446,1,8
40,320,67618,1,0
240,224,67791,6,0,B|128:240|88:128,1,180,0|8
272,160,68308,2,0,B|384:144|424:256,1,180
472,168,68825,1,8
440,88,68998,6,0,B|368:32|264:56,1,180
184,80,69515,1,8
104,128,69687,1,0
72,216,69860,5,0
72,216,69946,1,0
72,216,70032,1,0
104,304,70205,6,0,B|160:304,1,45,8|0
192,304,70377,2,0,B|248:304,1,45
280,304,70549,2,0,B|384:296|416:184,1,180,4|8
320,200,71067,1,0
312,112,71239,6,0,B|200:152|248:264,1,180,0|8
160,256,71756,2,0,B|128:88|288:40,1,270,0|8
368,40,72446,6,0,B|464:40,2,90
280,40,72963,1,8
192,40,73136,1,0
112,80,73308,6,0,B|64:192|216:224,1,180,0|8
240,144,73825,2,0,B|359:167|311:279,1,180
272,352,74342,1,8
360,344,74515,6,0,B|488:240|408:80,1,270,0|8
328,80,75205,1,0
240,56,75377,5,0
240,88,75463,1,0
240,120,75549,1,0
240,152,75636,1,0
240,184,75722,1,8
240,216,75808,1,0
240,248,75894,1,0
240,280,75980,1,0
240,312,76067,5,4
432,96,76411,5,0
360,40,76584,1,4
120,200,76929,5,0
64,272,77101,1,4
352,280,77446,5,0
424,336,77618,1,4
216,136,77963,5,0
144,80,78136,1,4
408,192,78480,5,4
256,192,78825,12,4,81584
152,120,82791,5,0
328,88,82963,1,0
368,264,83136,1,0
192,296,83308,1,0
256,192,83998,6,0,B|256:240,4,45,0|0|0|0|4
336,56,95377,6,0,B|448:88|408:224,1,180,0|8
248,264,96067,5,0
176,208,96239,1,0
248,264,96411,1,8
168,104,96756,6,0,B|64:144|72:248,1,180,0|8
248,192,97446,6,0,B|328:248,1,90
248,192,97791,1,8
392,80,98136,5,0
448,152,98308,1,0
360,160,98480,1,8
400,240,98653,2,0,B|344:320|208:304,1,180
160,272,99170,5,8
88,224,99342,1,0
88,136,99515,2,0,B|160:56,1,90
240,72,99860,2,0,B|320:144,1,90,8|0
440,248,100377,1,0
368,192,100549,1,8
64,184,100894,6,0,B|72:240,3,45
87,260,101239,2,0,B|129:309,3,45,8|0|0|0
146,314,101584,2,0,B|219:336,3,45
225,330,101929,2,0,B|272:330,3,45,8|0|0|0
305,330,102273,5,0
341,325,102360,1,0
375,314,102446,1,0
406,296,102532,1,0
433,273,102618,1,8
452,242,102705,1,0
467,209,102791,1,0
477,174,102877,1,0
477,138,102963,2,0,B|476:80,4,45,0|0|0|0|12
232,48,103653,5,0
266,56,103739,1,0
297,72,103825,1,0
324,94,103911,1,0
347,121,103998,1,8
366,151,104084,1,0
379,184,104170,1,0
375,219,104256,1,0
359,251,104342,1,0
338,281,104429,1,0
305,296,104515,1,0
271,308,104601,1,0
235,311,104687,1,8
199,313,104773,1,0
164,303,104860,1,0
134,283,104946,1,0
112,256,105032,2,0,B|88:216,12,45,0|0|0|0|8|0|0|0|0|0|0|0|12
56,88,106411,6,0,B|136:40,2,90,0|0|4
488,344,107446,5,0
488,344,107618,2,0,B|392:344|328:256,1,180
334,264,108136,1,0
200,48,108480,5,0
200,48,108653,1,0
200,48,108825,1,4
96,280,109170,6,0,B|48:360,2,90,0|0|4
400,56,110032,6,0,B|472:144|368:216,1,180
376,209,110722,1,0
376,209,110894,1,0
136,136,111239,5,0
64,88,111411,1,0
136,136,111584,1,4
320,312,111929,6,0,B|320:216,1,90
320,312,112273,1,4
72,24,112791,6,0,B|128:96|232:104,1,180
480,136,113480,6,0,B|408:192,1,90,0|4
192,328,113998,5,0
192,328,114170,1,0
192,328,114342,1,4
96,96,114687,5,0
136,176,114860,1,0
200,240,115032,1,0
280,280,115205,1,0
368,304,115377,5,0
368,304,115463,1,0
368,304,115549,1,0
368,304,115636,1,0
368,304,115722,1,0
368,304,115808,1,0
368,304,115894,1,0
392,128,116067,5,0
216,128,116411,1,0
136,288,116756,5,0
200,224,116929,1,0
288,224,117101,1,0
456,168,117446,5,0
456,80,117618,1,0
456,168,117791,1,0
312,56,118136,5,0
312,56,118222,1,0
312,56,118308,1,0
248,120,118480,1,4
72,72,118825,6,0,B|80:168|184:208,1,180,0|8
264,208,119342,1,0
240,120,119515,2,0,B|336:144,2,90,0|0|8
304,56,120032,6,0,B|424:48|432:168,3,180
432,240,121239,1,8
432,328,121411,1,0
344,296,121584,6,0,B|176:224,1,180,0|8
144,144,122101,2,0,B|312:216,1,180
384,168,122618,1,8
296,136,122791,6,0,B|128:64,1,180
88,144,123308,1,8
240,248,123653,6,0,B|336:248,1,90
464,112,123998,2,0,B|368:112,1,90,8|0
374,112,124256,1,0
374,112,124342,2,0,B|312:48|200:72,1,180,0|8
120,72,124860,1,0
56,136,125032,6,0,B|80:224|184:256,1,180,0|8
224,176,125549,2,0,B|328:176|352:64,1,180
256,72,126067,6,0,B|160:72,1,90,8|0
184,160,126411,2,0,B|104:200,1,90
160,272,126756,2,0,B|96:336,1,90,8|0
288,320,127101,6,0,B|400:328|440:200,1,180,0|8
224,64,127618,6,0,B|112:56|72:184,3,180
96,240,128825,1,8
152,312,128998,1,0
240,328,129170,2,0,B|296:328,2,45
288,248,129515,5,8
304,206,129601,1,0
313,162,129687,1,0
303,118,129773,1,0
281,78,129860,6,0,B|392:48|432:144,1,180,0|8
432,232,130377,1,0
352,192,130549,2,0,B|259:230|289:341,1,180,0|8
160,192,131067,6,0,B|252:153|222:42,1,180
136,48,131584,1,8
72,112,131756,1,0
64,200,131929,1,0
104,280,132101,1,0
184,328,132273,1,8
272,336,132446,1,0
272,248,132618,6,0,B|152:240|152:136,1,180,0|8
240,144,133136,2,0,B|232:264|128:264,2,180
248,56,133998,6,0,B|312:48|320:112,2,90,0|0|8
160,56,134515,1,0
88,104,134687,5,0
100,137,134773,1,0
116,169,134860,1,0
136,198,134946,1,0
162,221,135032,1,8
190,243,135118,1,0
221,261,135205,1,0
254,273,135291,1,0
288,282,135377,5,4
472,56,135722,5,0
472,56,135894,1,4
184,64,136239,5,0
184,64,136411,1,4
328,320,136756,5,0
328,320,136929,1,4
40,328,137273,5,0
40,328,137446,1,4
288,184,137791,5,4
64,64,138136,6,0,B|152:96,1,90
88,144,138480,2,0,B|176:176,1,90,8|0
112,224,138825,6,0,B|200:256,1,90
136,304,139170,2,0,B|224:336,1,90,8|0
312,336,139515,6,0,B|400:304,3,90,0|0|8|0
336,256,140204,2,0,B|424:224,3,90,0|0|8|0
360,176,140894,6,0,B|432:152,7,45,0|0|0|0|8|0|0|0
320,192,141584,6,0,B|240:344|96:232,1,270
152,120,142273,5,0
328,88,142446,1,0
368,264,142618,1,0
192,296,142791,1,0
256,192,142963,6,0,B|256:144,2,45
256,192,143308,5,0
256,192,143480,1,0
256,192,143567,12,0,149170
