osu file format v9

[General]
AudioFilename: Winter Bells.mp3
AudioLeadIn: 0
PreviewTime: 79426
Countdown: 0
SampleSet: Soft
StackLeniency: 0.7
Mode: 0
LetterboxInBreaks: 1

[Editor]
DistanceSpacing: 1.4
BeatDivisor: 4
GridSize: 8

[Metadata]
Title:Winter Bells
Artist:Chata
Creator:mjw5150
Version:Hard
Source:Shirokuma Bellstars
Tags:PULLTOP DarkRingSystem impossiblexu

[Difficulty]
HPDrainRate:4
CircleSize:4
OverallDifficulty:4
ApproachRate:7
SliderMultiplier:1
SliderTickRate:0.5

[Events]
//Background and Video events
0,0,"WB.jpg"
//Break Periods
2,26959,36693
2,112293,119359
2,202126,211859
//Storyboard Layer 0 (Background)
//Storyboard Layer 1 (Fail)
//Storyboard Layer 2 (Pass)
//Storyboard Layer 3 (Foreground)
//Storyboard Sound Samples
//Background Colour Transformations
3,100,163,162,255

[TimingPoints]
14760,333.333333333333,4,2,0,90,1,0
56093,-100,4,2,0,60,0,0
56176,-100,4,2,0,90,0,0
57426,-100,4,2,0,60,0,0
57509,-100,4,2,0,90,0,0
72426,-100,4,2,0,60,0,0
72509,-100,4,2,0,90,0,0
73093,-100,4,2,0,60,0,0
73176,-100,4,2,0,90,0,0
73759,-100,4,2,0,60,0,0
73843,-100,4,2,0,90,0,0
74426,-100,4,2,0,60,0,0
74509,-100,4,2,0,90,0,0
80093,-100,4,2,0,90,0,1
112093,-100,4,2,0,90,0,0
138759,-100,4,2,0,60,0,0
138843,-100,4,2,0,90,0,0
140093,-100,4,2,0,60,0,0
140176,-100,4,2,0,90,0,0
155093,-100,4,2,0,60,0,0
155426,-100,4,2,0,90,0,0
155759,-100,4,2,0,60,0,0
156093,-100,4,2,0,90,0,0
156426,-100,4,2,0,60,0,0
156759,-100,4,2,0,90,0,0
157093,-100,4,2,0,60,0,0
157426,-100,4,2,0,90,0,0
162759,-100,4,2,0,90,0,1
191926,-100,4,2,0,90,0,0
222426,-200,4,2,0,90,0,0
223426,-100,4,2,0,90,0,0
224093,-100,4,2,0,90,0,1
242759,-100,4,2,0,5,0,1
245426,-100,4,2,0,5,0,0

[Colours]
Combo1 : 248,211,171
Combo2 : 171,252,203
Combo3 : 175,221,254
Combo4 : 249,254,186
Combo5 : 240,80,80

[HitObjects]
184,192,15426,2,0,B|224:120|304:96,1,150
336,40,16093,2,0,B|368:72|392:136,1,100,4|0
344,184,16593,2,0,B|304:216|304:280,1,100
176,336,17259,5,4
32,184,17759,1,0
88,136,17926,1,4
192,232,18259,2,0,B|232:136,1,100,4|0
256,72,18759,5,2
472,248,19426,1,2
256,312,20093,1,2
472,136,20759,1,2
328,144,21093,6,0,B|288:104|232:88,1,100,0|4
104,72,21759,1,0
104,72,21926,2,0,B|144:112|144:112|152:160,1,100
160,224,22426,5,4
120,288,22593,2,0,B|160:328|160:328|208:336,1,100,4|0
272,336,23093,1,0
344,216,23426,1,0
272,96,23759,1,0
184,208,24093,6,0,B|136:160|96:208,1,100,2|0
232,256,24593,2,2,B|280:304|320:256,1,100,2|0
256,192,25093,12,4,26759
104,216,37593,5,0
168,248,37759,2,0,B|216:208,1,50,2|0
264,256,38093,1,0
296,192,38259,2,0,B|368:184,1,50,0|2
408,224,38593,1,0
456,168,38759,2,0,B|424:64,1,100,0|2
360,104,39259,2,0,B|272:48,1,100
208,24,39759,1,2
208,24,39926,1,0
168,88,40093,6,0,B|208:128|216:184,1,100,0|2
184,240,40593,1,0
128,288,40759,1,0
96,224,40926,1,2
200,320,41259,5,0
264,280,41426,2,0,B|296:240|296:240|312:176,1,100,0|2
312,120,41926,1,0
256,72,42093,1,0
192,40,42259,1,0
192,112,42426,2,0,B|160:152|160:152|144:216,1,100,2|0
208,240,42926,5,0
176,304,43093,2,0,B|232:320,1,50,2|0
296,336,43426,1,0
352,288,43593,2,0,B|408:304,2,50,0|2|0
320,224,44093,2,0,B|272:192|248:128,1,100,0|2
232,80,44593,2,0,B|176:64|112:64,2,100,0|0|0
296,48,45426,6,0,B|352:32|416:32,1,100,0|2
440,88,45926,1,0
408,152,46093,1,0
400,224,46259,1,2
264,192,46593,5,0
264,192,46759,2,0,B|208:288,1,100,0|2
168,336,47259,2,0,B|120:240,1,100,0|0
72,296,47759,2,0,B|88:176,1,100,2|4
128,64,48426,6,0,B|232:24,1,100,2|0
264,88,48926,1,0
328,128,49093,1,2
264,160,49259,2,0,B|216:160|216:160|176:208,1,100
144,264,49759,1,2
248,352,50093,2,0,B|296:336|336:288,1,100,0|2
416,192,50759,6,0,B|384:144|328:128,1,100,0|2
272,104,51259,1,0
272,32,51426,2,0,B|168:56,1,100,0|2
104,80,51926,1,0
64,144,52093,2,0,B|96:192|96:192|152:208,1,100,0|2
208,216,52593,1,0
328,152,52926,6,0,B|288:248,1,100,2|0
160,288,53593,2,0,B|232:368,1,100,2|0
160,240,54259,6,0,B|56:216,1,100
96,152,54759,2,0,B|208:112,1,100,0|2
224,184,55259,2,0,B|328:240,2,100
264,120,56093,5,4
400,72,56426,2,0,B|352:40|304:32,1,100,2|0
240,32,56926,1,2
168,152,57259,1,0
232,184,57426,2,0,B|200:288,1,100,4|2
136,280,57926,2,0,B|106:184,1,100,0|2
88,120,58426,1,2
88,120,58593,1,2
88,120,58759,1,4
208,48,59093,6,0,B|320:48,2,100,2|0|2
312,136,60093,2,0,B|408:160,1,100,0|2
480,280,60759,1,0
360,352,61093,1,2
224,320,61426,6,0,B|304:256,1,100,0|2
168,224,62093,1,0
232,192,62259,1,0
304,192,62426,1,2
368,160,62593,6,0,B|352:112|352:112|312:72,1,100
256,40,63093,1,2
184,40,63259,1,0
216,104,63426,2,0,B|216:152,2,50,0|0|2
72,104,64093,1,0
24,232,64426,5,2
128,328,64759,2,0,B|144:272|216:256,1,100,0|2
320,200,65426,2,0,B|372:189|388:133,1,100,0|2
280,48,66093,1,0
216,176,66426,1,2
280,304,66759,6,0,B|328:280|392:288,1,100,0|2
480,192,67426,2,0,B|432:168|368:176,1,100,0|2
312,192,67926,6,0,B|296:144|248:104,1,100
192,72,68426,1,2
256,40,68593,2,0,B|328:48|376:144,1,150,0|2
424,256,69426,1,4
288,256,69759,5,0
176,176,70093,1,0
64,256,70426,1,2
64,120,70759,2,0,B|64:56|128:56,1,100,0|2
264,40,71426,2,0,B|264:104|200:104,1,100,0|2
256,232,72093,6,0,B|256:336,2,100,0|4|0
136,152,73093,1,4
256,152,73426,2,0,B|256:32,2,100,0|4|0
376,232,74426,1,4
256,192,74759,12,0,76426
256,264,76759,5,2
376,192,77093,1,2
296,80,77426,6,0,B|240:80|184:104,1,100
72,160,78093,1,0
184,240,78426,2,0,B|136:248,1,50,0|4
256,184,78926,2,0,B|200:152,1,50,4|4
256,296,79426,6,0,B|328:296|328:296|408:264,1,150
368,208,80093,2,0,B|400:160|456:144,1,100,4|2
408,88,80593,2,0,B|368:48|312:48,1,100
264,176,81259,2,0,B|160:176,1,100
96,176,81759,1,2
8,64,82093,2,0,B|96:112,1,100,0|2
160,80,82593,1,0
256,80,82759,6,0,B|192:176,1,100,0|2
320,80,83426,2,0,B|384:176,1,100,0|2
216,224,84093,2,0,B|288:240|288:240|368:224,1,150,0|2
472,48,85093,5,2
472,120,85259,1,0
472,192,85426,2,0,B|416:288,1,100,0|2
376,224,85926,2,0,B|344:112,1,100
256,232,86593,2,0,B|184:368,1,150,0|2
72,288,87426,1,0
72,152,87759,1,2
176,64,88093,6,0,B|224:48|224:48|288:72,1,100,0|2
272,136,88593,2,0,B|225:153|225:153|177:137,1,100
177,137,89093,1,2
256,248,89426,2,0,B|288:352,1,100
352,224,90093,6,0,B|440:152,1,100
320,80,90759,2,0,B|280:48|224:32,1,100,0|2
192,96,91259,2,0,B|192:208,2,100
192,96,92093,1,0
304,176,92426,1,2
256,304,92759,2,0,B|200:296|152:248,1,100,0|2
104,224,93259,1,0
104,152,93426,6,0,B|160:152|200:192,1,100,0|2
104,88,94093,2,0,B|160:88|200:48,1,100,0|2
264,192,94759,2,0,B|264:40,1,150,0|2
408,192,95759,5,2
368,256,95926,1,0
304,288,96093,2,0,B|256:320|200:312,1,100,0|2
160,256,96593,2,0,B|112:264|64:320,1,100
88,168,97259,2,0,B|160:136|240:168,1,150,0|2
336,72,98093,2,0,B|392:80|432:136,1,100,0|2
472,248,98759,6,0,B|416:240|376:184,1,100,0|2
328,160,99259,2,0,B|224:120,1,100
192,64,99759,2,0,B|144:72|144:72|112:120,1,100,2|0
88,184,100259,1,0
160,184,100426,2,0,B|216:216,1,50,2|2
240,272,100759,2,0,B|192:304,2,50,0|2|2
352,192,101426,6,0,B|376:88,1,100,0|2
472,192,102093,2,0,B|448:296,1,100,0|2
376,288,102593,2,0,B|320:296|320:296|264:328,2,100
376,216,103426,2,0,B|320:208|320:208|264:176,1,100,0|2
256,48,104093,6,0,B|304:64|344:112,1,100,0|2
216,176,104759,1,0
104,256,105093,1,2
104,184,105259,2,0,B|32:96,1,100,0|2
176,64,105926,2,0,B|224:72|256:128,1,100,0|2
256,264,106593,5,0
320,296,106759,2,0,B|368:312|368:312|424:312,1,100,0|2
336,200,107426,2,0,B|336:144|288:96,1,100,0|2
256,56,107926,5,4
128,120,108259,1,4
256,184,108593,1,4
128,248,108926,1,2
192,288,109093,1,2
128,328,109259,1,2
256,192,109426,12,0,112093
256,248,120259,6,0,B|208:240,1,50,0|2
136,224,120593,1,0
136,152,120759,2,0,B|185:159,1,50
256,168,121093,1,2
256,168,121259,1,0
256,96,121426,2,0,B|224:48|160:32,1,100,0|2
120,80,121926,2,0,B|64:96|32:160,1,100
16,208,122426,1,2
56,272,122593,1,0
120,304,122759,6,0,B|224:336,1,100,0|2
232,264,123259,1,0
200,200,123426,2,0,B|144:232,2,50,0|0|2
264,176,123926,1,0
288,160,124009,1,0
312,144,124093,2,0,B|360:112|408:144,1,100,0|2
456,192,124593,2,0,B|496:152|480:88,1,100
482,99,125093,1,2
352,56,125426,5,0
280,56,125593,2,0,B|224:32,2,50,0|2|0
232,112,126093,2,0,B|176:104|144:64,1,100,0|2
80,32,126593,1,0
80,104,126759,2,0,B|8:176,1,100,0|2
72,216,127259,2,0,B|160:264,1,100
112,320,127759,1,2
176,352,127926,1,0
240,320,128093,6,0,B|296:320|352:288,1,100,0|2
368,232,128593,1,0
312,184,128759,1,0
240,168,128926,2,0,B|192:192,1,50,0|2
136,144,129259,1,0
112,128,129343,1,0
88,112,129426,2,0,B|32:144|32:208,2,100,0|2|0
136,56,130259,1,0
208,56,130426,2,0,B|312:88,1,100,2|4
352,216,131093,5,2
488,176,131426,1,0
472,104,131593,1,0
408,72,131759,1,2
336,56,131926,2,0,B|240:80,1,100
224,152,132426,1,2
112,64,132759,2,0,B|40:144,1,100,0|2
152,224,133426,6,0,B|112:168|160:120,1,100,0|2
208,96,133926,1,0
264,144,134093,1,0
264,216,134259,1,0
208,264,134426,1,2
264,312,134593,1,0
264,312,134676,1,0
264,312,134759,2,0,B|368:312,1,100,0|2
364,312,135259,1,0
448,200,135593,5,0
416,136,135759,1,2
352,104,135926,1,0
216,72,136259,1,0
248,136,136425,1,2
312,168,136592,1,0
176,136,136926,5,0
160,208,137093,1,2
96,176,137259,1,0
112,104,137426,2,0,B|8:104,2,100,0|2|0
160,48,138259,1,0
232,64,138426,2,0,B|280:112|224:160,1,100,2|4
232,224,138926,5,0
296,184,139093,2,0,B|384:248,1,100,2|0
440,208,139593,1,0
440,136,139759,1,2
400,80,139926,1,0
376,72,140009,1,0
352,64,140093,2,0,B|304:24|248:24,1,100,4|2
264,96,140593,2,0,B|256:152|192:184,1,100
168,112,141093,2,0,B|112:104|80:48,1,100,0|4
48,192,141759,6,0,B|80:240|136:256,1,100,2|0
192,280,142259,1,0
248,232,142426,2,0,B|208:184|216:128,1,100,2|0
240,72,142926,1,0
296,120,143093,2,0,B|336:72,1,50,2|0
376,136,143426,2,0,B|432:136,2,50,0|0|2
376,280,144093,6,0,B|264:320,1,100,0|2
280,240,144593,1,0
280,168,144759,2,0,B|280:96,2,50,0|0|2
208,168,145259,6,0,B|208:272,1,100
136,272,145759,2,0,B|96:224,1,50,2|0
40,200,146093,1,0
72,136,146259,1,0
40,72,146426,1,2
168,136,146759,1,0
312,128,147093,6,0,B|280:72|232:48,1,100,2|0
176,40,147593,1,0
120,88,147759,1,2
120,232,148093,1,0
176,280,148259,1,0
248,280,148426,2,0,B|296:232,1,50,2|0
256,176,148759,2,0,B|192:176,2,50,0|0|2
376,96,149426,6,0,B|416:192,1,100,0|2
432,256,149926,1,0
368,280,150093,2,0,B|360:328,1,50
296,368,150426,1,2
296,296,150593,6,0,B|232:272|192:296,1,100
160,232,151093,1,2
112,288,151259,2,0,B|56:272|56:272|32:168|32:168|32:168,1,150,0|2
160,112,152093,1,4
272,32,152426,6,0,B|376:32,2,100,0|0|2
272,176,153426,2,0,B|168:176,2,100,0|2|0
272,320,154426,1,2
392,256,154759,5,0
392,112,155093,1,4
216,56,155426,1,0
352,56,155759,1,4
168,104,156093,1,0
168,248,156426,1,4
344,304,156759,1,0
208,304,157093,1,4
256,176,157426,5,0
392,176,157759,1,0
256,176,158093,1,2
256,40,158426,1,0
200,88,158593,2,0,B|80:88,1,100,2|2
100,88,159093,1,2
200,184,159426,6,0,B|144:200|144:200|120:240,1,100
40,344,160093,1,0
168,288,160426,1,0
304,288,160759,1,2
240,168,161093,1,0
240,168,161259,1,4
240,168,161593,1,4
240,168,161759,1,4
336,72,162093,5,0
384,128,162259,1,0
392,152,162343,1,0
400,176,162426,1,0
400,248,162593,1,0
392,272,162676,1,0
384,296,162759,6,0,B|288:336,1,100,4|2
272,264,163259,2,0,B|160:232,1,100
104,352,163926,2,0,B|136:240,1,100
131,255,164426,1,2
96,120,164759,2,0,B|136:80|200:72,1,100,0|2
183,74,165259,1,0
272,128,165426,6,0,B|272:16,2,100,0|2|0
272,272,166426,1,2
272,128,166759,2,0,B|184:176,1,100,0|2
144,120,167259,1,0
152,328,167759,6,0,B|208:336,1,50,2|0
272,328,168093,2,0,B|336:320|368:296,1,100,0|2
312,248,168593,2,0,B|256:240|216:192,1,100
192,136,169093,1,2
248,88,169259,2,0,B|312:56|312:56|392:88,1,150,0|2
320,208,170093,1,0
320,208,170426,1,2
216,304,170759,6,0,B|320:304,1,100,0|2
384,304,171259,1,0
384,232,171426,1,0
440,184,171593,1,0
440,112,171759,2,0,B|360:48,1,100,2|0
312,104,172259,2,0,B|240:104,2,50
312,176,172759,5,0
248,216,172926,1,0
224,232,173009,1,0
200,248,173093,1,0
152,192,173259,1,0
176,176,173343,1,0
200,160,173426,6,0,B|200:56,1,100,0|2
128,40,173926,2,0,B|72:48|40:104,1,100
112,128,174426,1,2
56,176,174593,2,0,B|24:280,1,100
80,320,175093,1,2
216,288,175426,1,0
216,216,175593,1,0
216,144,175759,1,2
216,216,175926,1,0
320,216,176093,6,0,B|424:216,2,100,0|2|0
320,72,177093,1,2
320,216,177426,2,0,B|320:320,1,100,0|2
320,316,177926,1,0
232,128,178426,6,0,B|184:160,1,50,2|0
120,144,178759,2,0,B|80:104|64:48,1,100,0|2
16,112,179259,2,0,B|16:216,1,100
56,272,179759,1,2
88,336,179926,2,0,B|184:288,1,100
240,256,180426,2,0,B|352:240,2,100,2|0|2
256,120,181426,6,0,B|304:96|304:96|352:96,1,100,0|2
350,96,181926,1,0
144,56,182426,2,0,B|96:88|72:144,1,100,2|0
136,176,182926,1,0
200,208,183093,2,0,B|248:232|272:280,1,100,2|0
336,312,183593,1,2
336,312,183759,1,2
464,256,184093,5,0
400,224,184259,1,0
368,160,184426,1,2
368,88,184593,1,0
296,88,184759,2,0,B|256:192,1,100,0|2
304,240,185259,2,0,B|272:296|216:304,1,100
168,264,185759,1,2
104,232,185926,1,0
136,168,186093,2,0,B|192:136,1,50
184,72,186426,2,0,B|240:56,1,50,2|0
288,104,186759,6,0,B|368:176,1,100,0|2
256,264,187426,2,0,B|288:312|336:328,1,100,0|2
331,326,187926,1,0
472,328,188259,5,0
424,272,188426,1,2
360,240,188593,1,0
224,224,188926,1,0
288,192,189093,1,2
336,136,189260,1,0
368,72,189426,6,0,B|416:72,1,50
464,128,189759,2,0,B|448:184,1,50,2|0
408,232,190093,2,0,B|352:232,2,50,0|0|2
408,304,190593,5,4
272,304,190926,1,4
136,304,191259,1,4
200,176,191593,1,2
272,176,191759,1,2
344,176,191926,1,2
344,104,192093,2,0,B|304:64|256:40,1,100,0|2
224,104,192593,6,0,B|120:144,1,100
88,200,193093,1,2
88,272,193259,2,0,B|168:296|168:296|224:344,1,150,0|2
264,280,193926,5,0
264,208,194093,2,0,B|224:176|160:160,1,100,0|2
104,144,194593,1,0
136,80,194759,2,0,B|224:32,1,100,0|2
256,96,195259,2,0,B|312:112|344:176,1,100
352,224,195759,1,2
288,264,195926,6,0,B|184:264,1,100
188,264,196426,1,2
188,264,196593,1,0
256,144,196926,5,0
216,80,197093,1,2
296,80,197259,1,0
256,216,197593,5,0
216,280,197760,1,2
296,280,197926,1,0
384,136,198259,5,0
384,216,198426,1,2
320,176,198593,1,0
192,176,198926,5,0
128,136,199093,1,2
128,216,199259,1,0
264,176,199593,5,0
296,112,199759,1,2
256,56,199926,1,0
184,56,200093,2,0,B|128:64|88:112,1,100,0|2
152,152,200593,2,0,B|104:184|96:240,1,100
96,304,201093,1,2
160,272,201259,2,0,B|240:336,1,100
238,334,201759,1,2
238,334,201926,1,0
160,192,212759,5,0
160,192,213093,1,0
160,192,213426,2,0,B|192:152|240:120,1,100,4|0
272,184,213926,2,0,B|288:232|336:272,1,100
456,312,214593,5,4
432,104,215093,1,0
360,96,215259,2,0,B|320:48|272:40,1,100,4|4
208,64,215759,1,0
160,120,215926,1,0
128,184,216093,5,2
392,264,216759,1,2
128,344,217426,2,0,B|176:288|176:288|240:248,1,150,2|2
376,88,218426,6,0,B|424:112,1,50
432,184,218759,2,0,B|416:240|376:272,1,100,4|0
336,208,219259,2,0,B|328:152|280:112,1,100
224,88,219759,1,4
224,160,219926,2,0,B|232:240|288:304,1,150,4|0
144,328,220759,1,0
64,216,221093,1,0
176,136,221426,6,0,B|216:240,1,100,2|0
272,272,221926,2,0,B|320:168,1,100,2|0
272,120,222426,2,0,B|312:80|368:80,1,100
224,48,223426,6,0,B|168:56|168:56|128:80,1,100
72,120,223926,1,0
136,152,224093,2,0,B|120:208|80:240,1,100,4|2
136,288,224593,2,0,B|224:352,1,100
264,288,225093,1,2
216,232,225259,2,0,B|232:160|296:96,1,150,0|2
424,128,226093,1,0
424,224,226259,1,0
424,128,226426,1,2
424,224,226593,1,0
344,280,226759,5,0
200,280,227093,1,2
272,160,227426,2,0,B|272:48,1,100,0|2
272,200,228093,2,0,B|272:312,2,100,0|2|0
128,192,229093,5,2
64,224,229259,1,0
64,152,229426,2,0,B|120:64,1,100,0|2
176,112,229926,2,0,B|208:8,1,100
272,48,230426,1,2
320,104,230593,2,0,B|376:136|376:136|432:216,1,150,0|2
296,256,231426,2,0,B|176:256,1,100,0|2
72,200,232093,6,0,B|24:304,1,100,0|2
160,152,232593,2,0,B|56:208,1,100
200,64,233093,2,0,B|152:168,1,100,2|0
216,200,233593,1,0
248,264,233759,1,2
312,296,233926,1,2
344,232,234093,2,0,B|392:208|392:208|432:160,1,100,0|2
312,88,234759,5,0
256,40,234926,1,0
200,88,235093,2,0,B|144:112,1,50,2|0
88,136,235426,2,0,B|40:176|32:232,1,100,0|2
80,272,235926,2,0,B|112:320|176:328,1,100
208,272,236426,1,2
160,216,236593,2,0,B|224:128,1,100
218,135,237093,1,2
328,48,237426,5,0
360,112,237593,1,0
392,176,237759,1,2
424,240,237926,1,0
376,296,238093,2,0,B|264:280,1,100,0|2
272,208,238593,2,0,B|208:112,1,100
144,128,239093,1,2
144,56,239259,2,0,B|88:48|48:88,1,100
24,152,239759,1,2
72,208,239926,1,0
120,264,240093,6,0,B|168:272|168:272|208:312,1,100,0|2
256,256,240593,1,0
256,184,240759,2,0,B|208:176|208:176|168:136,1,100,0|2
256,80,241259,5,4
384,128,241593,1,4
456,248,241926,1,4
320,280,242259,5,2
192,232,242426,1,2
120,120,242593,1,2
256,192,242759,12,0,245426
