osu file format v14

[General]
AudioFilename: winter bell.mp3
AudioLeadIn: 0
PreviewTime: 79774
Countdown: 0
SampleSet: Soft
StackLeniency: 0.4
Mode: 2
LetterboxInBreaks: 0
WidescreenStoryboard: 1

[Editor]
Bookmarks: 1520,1709,16524,27190,37857,59190,80524,101857,120524,128524
DistanceSpacing: 1.1
BeatDivisor: 4
GridSize: 4
TimelineZoom: 2

[Metadata]
Title:Winter Bells
TitleUnicode:Winter Bells♪
Artist:Chata
ArtistUnicode:茶太
Creator:lit120
Version:Sinnoh's Platter
Source:しろくまベルスターズ♪
Tags:Shirokuma Bell Stars PULLTOP Grand Ending Theme christmas xmas short ver. eroge -Hakurei- Karia Sinnoh
BeatmapID:1488839
BeatmapSetID:696064

[Difficulty]
HPDrainRate:5
CircleSize:3
OverallDifficulty:8
ApproachRate:8
SliderMultiplier:1.8
SliderTickRate:2

[Events]
//Background and Video events
0,0,"bg.jpg",0,0
//Break Periods
//Storyboard Layer 0 (Background)
//Storyboard Layer 1 (Fail)
//Storyboard Layer 2 (Pass)
//Storyboard Layer 3 (Foreground)
//Storyboard Sound Samples

[TimingPoints]
191,379.746835443038,4,2,2,60,1,0
1709,-100,4,2,2,60,0,0
15191,333.333333333333,4,2,1,10,1,0
15857,-100,4,2,1,40,0,0
16524,-100,4,2,1,60,0,0
24524,-100,4,2,1,60,0,0
27190,-100,4,2,1,70,0,0
37524,-100,4,2,1,70,0,0
37774,-100,4,2,1,5,0,0
37857,-100,4,2,1,60,0,0
43107,-100,4,2,1,5,0,0
43190,-100,4,2,1,60,0,0
48440,-100,4,2,1,5,0,0
48524,-100,4,2,1,60,0,0
50107,-100,4,2,1,5,0,0
50190,-100,4,2,1,60,0,0
59440,-100,4,2,1,5,0,0
59524,-100,4,2,1,60,0,0
64440,-100,4,2,1,5,0,0
64524,-100,4,2,1,60,0,0
65774,-100,4,2,1,5,0,0
65857,-100,4,2,1,60,0,0
69774,-100,4,2,1,5,0,0
69857,-100,4,2,1,60,0,0
73190,-100,4,2,1,60,0,0
73857,-100,4,2,1,60,0,0
74524,-100,4,2,1,60,0,0
75190,-100,4,2,1,60,0,0
75440,-100,4,2,1,5,0,0
75524,-100,4,2,1,60,0,0
78107,-100,4,2,1,5,0,0
78190,-100,4,2,1,60,0,0
80524,-100,4,2,1,80,0,1
80774,-100,4,2,1,5,0,1
80857,-100,4,2,1,80,0,1
82440,-100,4,2,1,5,0,1
82524,-100,4,2,1,80,0,1
85024,-100,4,2,1,80,0,1
85857,-100,4,2,1,80,0,1
86107,-100,4,2,1,5,0,1
86190,-100,4,2,1,80,0,1
91440,-100,4,2,1,5,0,1
91524,-100,4,2,1,80,0,1
93107,-100,4,2,1,5,0,1
93190,-100,4,2,1,80,0,1
95690,-100,4,2,1,80,0,1
96524,-100,4,2,1,80,0,1
96774,-100,4,2,1,5,0,1
96857,-100,4,2,1,80,0,1
102774,-100,4,2,1,5,0,1
102857,-100,4,2,1,80,0,1
105440,-100,4,2,1,5,0,1
105524,-100,4,2,1,80,0,1
109857,-100,4,2,1,70,0,0
111440,-100,4,2,1,5,0,0
111524,-100,4,2,1,70,0,0
120190,-100,4,2,1,70,0,0
120440,-100,4,2,1,5,0,0
120524,-100,4,2,1,70,0,0
124524,-100,4,2,1,60,0,0
125857,-100,4,2,1,50,0,0
126524,-100,4,2,1,40,0,0
127190,-100,4,2,1,30,0,0
127857,-100,4,2,1,20,0,0
128524,-100,4,2,1,10,0,0

[Colours]
Combo1 : 235,171,144
Combo2 : 228,65,110
Combo3 : 32,197,255
Combo4 : 55,157,118

[HitObjects]
352,278,1709,5,4,0:0:0:0:
427,218,1898,1,0,0:0:0:0:
422,122,2088,1,0,0:0:0:0:
340,72,2278,1,0,0:0:0:0:
239,179,2469,2,0,L|65:97,1,180,2|0,0:0|0:0,0:0:0:0:
250,231,3228,6,0,L|337:175,3,90,2|0|0|0,0:0|0:0|0:0|0:0,0:0:0:0:
418,284,3988,2,0,P|465:264|405:185,1,180,2|0,0:0|0:0,0:0:0:0:
108,362,4747,6,0,P|95:269|103:173,1,180,4|0,0:0|0:0,0:0:0:0:
194,179,5316,1,0,0:0:0:0:
246,108,5506,1,2,0:0:0:0:
198,49,5696,1,0,0:0:0:0:
110,73,5887,2,0,L|218:75,1,90,0|0,0:0|0:0,0:0:0:0:
286,265,6266,6,0,L|464:184,1,180,2|0,0:0|0:0,0:0:0:0:
368,160,6836,1,0,0:0:0:0:
296,148,7026,2,0,P|296:100|428:36,1,180,2|0,0:0|0:0,0:0:0:0:
124,272,7785,5,4,0:0:0:0:
106,186,7974,1,0,0:0:0:0:
151,113,8164,1,0,0:0:0:0:
232,102,8354,1,0,0:0:0:0:
323,106,8545,2,0,L|129:46,1,180,2|0,0:0|0:0,0:0:0:0:
336,300,9304,6,0,P|370:245|332:131,1,180,2|0,0:0|0:0,0:0:0:0:
246,147,9874,1,0,0:0:0:0:
159,254,10064,2,0,L|152:141,1,90,2|0,0:0|0:0,0:0:0:0:
252,191,10444,2,0,L|259:78,1,90,0|0,0:0|0:0,0:0:0:0:
86,273,10823,5,4,0:0:0:0:
11,213,11012,1,0,0:0:0:0:
16,117,11202,1,0,0:0:0:0:
98,67,11392,1,0,0:0:0:0:
199,174,11583,2,0,L|373:92,1,180,2|0,0:0|0:0,0:0:0:0:
203,294,12342,6,0,P|147:250|233:192,1,180,2|0,0:0|0:0,0:0:0:0:
292,183,12912,1,0,0:0:0:0:
376,153,13103,2,0,L|206:74,1,180,2|0,0:0|0:0,0:0:0:0:
182,218,13672,1,0,0:0:0:0:
233,311,13860,1,4,0:0:0:0:
256,192,14051,12,0,15191,0:0:0:0:
417,341,15857,5,0,0:0:0:0:
416,251,16023,1,0,0:0:0:0:
414,161,16190,1,0,0:0:0:0:
413,71,16356,1,0,0:0:0:0:
271,66,16524,6,0,L|109:173,1,180,2|0,0:0|0:0,0:0:0:0:
214,227,17024,2,0,L|363:112,1,180,0|0,0:0|0:0,0:0:0:0:
71,272,17690,6,0,L|65:67,1,180,2|0,0:0|0:0,0:0:0:0:
162,89,18190,1,0,0:0:0:0:
323,161,18357,2,0,L|384:78,1,90,2|0,0:0|0:0,0:0:0:0:
247,267,18690,2,0,P|192:236|253:150,1,180,8|0,0:3|0:0,0:0:0:0:
476,296,19190,6,0,L|479:92,1,180,2|0,0:0|0:0,0:0:0:0:
304,288,19857,2,0,P|244:240|244:132,1,180,0|0,0:0|0:0,0:0:0:0:
407,120,20357,1,2,0:0:0:0:
480,97,20524,6,0,L|286:66,1,180,0|0,0:0|0:0,0:0:0:0:
130,168,21024,2,0,P|82:140|167:72,1,180,2|2,0:0|0:0,0:0:0:0:
235,149,21524,2,0,L|343:124,1,90,0|0,0:0|0:0,0:0:0:0:
70,312,21857,6,0,L|65:113,1,180,2|0,0:0|0:0,0:0:0:0:
175,286,22357,2,0,L|168:91,1,180,0|0,0:0|0:0,0:0:0:0:
318,108,22857,1,2,0:0:0:0:
468,260,23024,6,0,P|497:176|354:57,1,270,2|0,0:0|0:0,0:0:0:0:
216,224,23690,2,0,L|194:104,1,90,2|0,0:0|0:0,0:0:0:0:
293,231,24023,2,0,P|347:173|268:120,1,180,2|0,0:0|0:0,0:0:0:0:
43,255,24524,6,0,P|33:198|139:136,1,180,2|8,0:0|0:0,0:0:0:0:
222,125,25024,2,0,L|80:-2,1,180,2|8,0:0|0:0,0:0:0:0:
321,146,25524,5,2,0:0:0:0:
173,109,26024,2,0,L|301:104,3,90,2|8|8|8,0:0|0:0|0:0|0:0,0:0:0:0:
366,176,26690,2,0,L|374:103,1,45,8|0,0:3|0:0,0:0:0:0:
374,56,26857,2,0,L|250:57,1,90,4|0,0:3|0:0,0:0:0:0:
34,253,27190,6,0,P|26:170|122:125,1,180,12|8,0:0|0:0,0:0:0:0:
201,129,27690,1,0,0:0:0:0:
102,101,27857,2,0,L|26:44,2,90,8|2|8,0:0|0:0|0:0,0:0:0:0:
289,250,28357,6,0,P|350:230|374:112,1,180,2|0,0:0|0:0,0:0:0:0:
284,108,28857,1,8,0:0:0:0:
203,82,29024,2,0,L|409:77,1,180,0|2,0:0|0:0,0:0:0:0:
297,43,29524,2,0,L|196:5,1,90,8|2,0:0|0:0,0:0:0:0:
404,235,29857,6,0,P|449:184|380:106,1,180,8|8,0:0|0:0,0:0:0:0:
312,153,30357,1,0,0:0:0:0:
217,69,30524,1,8,0:0:0:0:
305,53,30690,1,2,0:0:0:0:
394,38,30857,1,8,0:0:0:0:
151,271,31024,6,0,P|108:242|57:203,2,90,2|8|0,0:0|0:0|0:0,0:0:0:0:
247,256,31524,1,8,0:0:0:0:
299,173,31690,2,0,P|288:92|167:66,1,180,0|2,0:0|0:0,0:0:0:0:
102,56,32190,1,8,0:0:0:0:
377,315,32524,6,0,P|413:269|349:153,1,180,12|8,0:0|0:0,0:0:0:0:
281,187,33024,1,0,0:0:0:0:
384,112,33190,2,0,L|476:56,2,90,8|2|8,0:0|0:0|0:0,0:0:0:0:
216,275,33690,6,0,P|165:254|245:177,1,180,2|0,0:0|0:0,0:0:0:0:
287,146,34190,1,8,0:0:0:0:
375,77,34357,2,0,L|188:38,1,180,0|2,0:0|0:0,0:0:0:0:
128,23,34857,1,8,0:0:0:0:
398,253,35024,6,0,P|456:189|432:107,1,180,6|8,0:0|0:0,0:0:0:0:
353,146,35523,1,8,0:0:0:0:
322,228,35690,1,2,0:0:0:0:
355,310,35856,1,8,0:0:0:0:
435,347,36023,1,8,0:3:0:0:
355,310,36190,1,4,0:3:0:0:
121,335,36357,6,0,P|89:294|162:212,1,180,6|8,0:0|0:0,0:0:0:0:
424,209,36857,2,0,L|427:113,1,90,8|8,0:0|0:0,0:0:0:0:
313,269,37357,2,0,L|308:180,1,90,8|4,0:3|0:3,0:0:0:0:
75,130,37857,5,6,0:0:0:0:
178,205,38024,2,0,L|236:97,2,90,0|8|0,0:0|0:0|0:0,0:0:0:0:
80,330,38524,2,0,L|74:211,1,90,2|0,0:0|0:0,0:0:0:0:
175,221,38857,2,0,L|171:124,1,90,8|0,0:0|0:0,0:0:0:0:
336,168,39190,6,0,L|504:90,1,180,2|8,0:0|0:0,0:0:0:0:
376,328,39690,2,0,P|304:281|354:194,1,180,2|2,0:0|0:0,0:0:0:0:
434,205,40190,2,0,L|456:105,1,90,8|0,0:0|0:0,0:0:0:0:
366,145,40524,5,2,0:0:0:0:
120,289,40857,2,0,P|103:242|153:130,1,180,8|2,0:0|0:0,0:0:0:0:
327,280,41357,2,0,P|360:230|310:118,1,180,0|0,0:0|0:0,0:0:0:0:
220,129,41857,2,0,L|134:81,2,90,2|0|8,0:0|0:0|0:0,0:0:0:0:
316,275,42357,2,0,P|343:211|309:107,1,180,2|2,0:0|0:0,0:0:0:0:
67,241,42857,6,0,P|23:153|102:89,1,180,8|2,0:0|0:0,0:0:0:0:
161,140,43357,1,0,0:0:0:0:
245,109,43523,1,8,0:0:0:0:
330,79,43690,1,0,0:0:0:0:
242,248,43857,2,0,L|168:195,3,90,2|0|8|0,0:0|0:0|0:0|0:0,0:0:0:0:
331,228,44524,6,0,L|491:126,1,180,2|8,0:0|0:0,0:0:0:0:
316,156,45024,2,0,L|156:54,2,180,2|2|2,0:0|0:0|0:0,0:0:0:0:
402,210,45857,5,0,0:0:0:0:
166,251,46190,2,0,P|161:163|208:88,1,180,8|2,0:0|0:0,0:0:0:0:
397,237,46690,2,0,P|427:192|374:69,1,180,0|0,0:0|0:0,0:0:0:0:
296,140,47190,5,2,0:0:0:0:
212,106,47356,1,0,0:0:0:0:
128,72,47523,1,8,0:0:0:0:
300,234,47690,2,0,L|474:158,1,180,2|2,0:0|0:0,0:0:0:0:
380,134,48190,2,0,L|286:65,1,90,8|0,0:0|0:0,0:0:0:0:
50,214,48524,6,0,P|16:171|89:89,1,180,6|8,0:0|0:0,0:0:0:0:
209,124,49190,1,2,0:0:0:0:
130,99,49357,2,0,L|42:40,1,90,0|8,0:0|0:0,0:0:0:0:
144,202,49690,6,0,L|334:126,1,180,0|0,0:0|0:0,0:0:0:0:
403,210,50190,2,0,L|411:95,1,90,8|2,0:0|0:0,0:0:0:0:
306,254,50524,2,0,L|300:165,1,90,0|2,0:0|0:0,0:0:0:0:
405,234,50857,2,0,L|411:133,1,90,8|0,0:0|0:0,0:0:0:0:
241,135,51190,6,0,L|150:95,2,90,2|0|8,0:0|0:0|0:0,0:0:0:0:
343,170,51690,2,0,P|383:143|306:45,1,180,0|0,0:0|0:0,0:0:0:0:
254,95,52190,1,8,0:0:0:0:
155,191,52357,1,0,0:0:0:0:
121,190,52440,1,0,0:0:0:0:
94,191,52524,6,0,P|64:148|49:87,2,90,2|0|8,0:0|0:0|0:0,0:0:0:0:
201,218,53023,1,2,0:0:0:0:
451,188,53357,1,2,0:0:0:0:
198,199,53690,6,0,L|47:80,2,180,6|2|0,0:0|0:0|0:0,0:0:0:0:
356,159,54690,1,0,0:0:0:0:
268,138,54856,1,8,0:0:0:0:
180,117,55023,1,0,0:0:0:0:
351,277,55191,6,0,P|397:223|341:142,1,180,2|8,0:0|0:0,0:0:0:0:
247,155,55690,2,0,P|177:132|143:14,2,180,2|2|2,0:0|0:0|0:0,0:0:0:0:
352,156,56524,1,4,0:0:0:0:
69,275,56857,6,0,P|62:151|78:75,1,180,8|2,0:0|0:0,0:0:0:0:
241,204,57357,2,0,L|425:135,1,180,2|0,0:0|0:0,0:0:0:0:
168,142,57857,6,0,L|76:76,2,90,6|2|8,0:0|0:0|0:0,0:0:0:0:
266,252,58357,2,0,P|315:184|225:120,1,180,2|8,0:0|0:3,0:0:0:0:
165,120,58857,2,0,L|86:33,1,90,4|8,0:3|0:0,0:0:0:0:
372,212,59190,6,0,P|416:147|357:70,1,180,6|8,0:0|0:0,0:0:0:0:
197,289,59857,2,0,L|192:174,1,90,2|2,0:0|0:0,0:0:0:0:
302,199,60190,2,0,L|308:103,1,90,8|0,0:0|0:0,0:0:0:0:
140,224,60524,1,2,0:0:0:0:
73,168,60690,1,2,0:0:0:0:
73,80,60857,1,8,0:0:0:0:
140,25,61023,1,2,0:0:0:0:
304,96,61190,2,0,L|477:12,1,180,0|8,0:0|0:0,0:0:0:0:
215,302,61857,6,0,P|176:261|233:152,1,180,2|8,0:0|0:0,0:0:0:0:
312,153,62357,2,0,L|474:37,1,180,0|2,0:0|0:0,0:0:0:0:
380,23,62857,1,8,0:0:0:0:
146,377,63024,1,0,0:0:0:0:
107,354,63107,1,0,0:0:0:0:
103,316,63190,6,0,L|211:269,1,90,2|2,0:0|0:0,0:0:0:0:
274,232,63524,1,8,0:0:0:0:
335,152,63690,2,0,P|333:66|220:17,1,180,2|2,0:0|0:0,0:0:0:0:
188,68,64190,1,8,0:0:0:0:
444,288,64524,6,0,P|465:192|426:111,1,180,2|8,0:0|0:0,0:0:0:0:
266,211,65190,2,0,L|186:135,1,90,2|2,0:0|0:0,0:0:0:0:
302,123,65524,2,0,L|371:49,1,90,8|0,0:0|0:0,0:0:0:0:
166,118,65857,6,0,L|86:38,1,90,2|2,0:0|0:0,0:0:0:0:
198,58,66190,2,0,L|278:-8,1,90,8|2,0:0|0:0,0:0:0:0:
67,276,66524,2,0,P|37:238|104:120,1,180,0|8,0:0|0:0,0:0:0:0:
343,261,67190,6,0,P|337:192|224:156,1,180,2|8,0:0|0:0,0:0:0:0:
146,119,67690,2,0,L|309:10,1,180,0|2,0:0|0:0,0:0:0:0:
371,132,68190,1,8,0:0:0:0:
183,231,68357,6,0,P|140:194|211:92,1,180,0|2,0:0|0:0,0:0:0:0:
277,106,68857,1,8,0:0:0:0:
373,333,69024,2,0,P|435:304|402:209,1,180,2|2,0:0|0:0,0:0:0:0:
336,130,69524,1,8,0:0:0:0:
61,242,69857,6,0,P|29:198|112:111,1,180,6|8,0:0|0:0,0:0:0:0:
180,114,70357,1,2,0:0:0:0:
256,120,70524,2,0,L|76:29,1,180,2|8,0:0|0:0,0:0:0:0:
372,306,71190,6,0,L|383:100,1,180,2|8,0:0|0:0,0:0:0:0:
203,187,71857,2,0,L|199:83,1,90,2|0,0:0|0:0,0:0:0:0:
291,97,72190,2,0,L|395:52,1,90,8|0,0:0|0:0,0:0:0:0:
188,276,72524,6,0,P|116:218|157:126,1,180,2|12,0:0|0:0,0:0:0:0:
220,141,73024,1,2,0:0:0:0:
385,209,73190,2,0,P|437:154|367:73,1,180,2|12,0:0|0:0,0:0:0:0:
297,58,73690,1,0,0:0:0:0:
61,245,73857,6,0,P|37:159|129:102,1,180,2|12,0:0|0:0,0:0:0:0:
190,107,74357,1,2,0:0:0:0:
465,246,74524,2,0,P|482:157|381:108,1,180,2|12,0:0|0:0,0:0:0:0:
146,111,75190,6,0,L|336:45,1,180,6|8,0:0|0:0,0:0:0:0:
128,118,75857,2,0,L|30:59,2,90,8|2|2,0:0|0:0|0:0,0:0:0:0:
298,295,76357,6,0,P|333:252|277:135,1,180,8|8,0:0|0:0,0:0:0:0:
195,159,76857,2,0,L|190:46,1,90,2|2,0:0|0:0,0:0:0:0:
296,136,77190,2,0,L|383:80,1,90,8|2,0:0|0:0,0:0:0:0:
469,115,77524,2,0,L|391:61,1,90,8|2,0:0|0:0,0:0:0:0:
141,295,77857,6,0,P|92:256|165:164,1,180,6|8,0:0|0:0,0:0:0:0:
321,175,78524,2,0,L|222:129,2,90,8|2|2,0:0|0:0|0:0,0:0:0:0:
59,311,79024,6,0,P|46:200|84:125,1,180,8|8,0:0|0:0,0:0:0:0:
316,168,79524,2,0,L|423:121,1,90,8|2,0:0|0:0,0:0:0:0:
294,102,79857,2,0,L|208:38,1,90,2|8,0:0|0:0,0:0:0:0:
317,256,80190,1,2,0:0:0:0:
351,227,80273,1,8,0:0:0:0:
386,198,80357,1,8,0:0:0:0:
149,238,80524,6,0,P|100:172|173:99,1,180,6|8,0:0|0:0,0:0:0:0:
253,138,81024,2,0,L|327:75,1,90,0|2,0:0|0:0,0:0:0:0:
215,86,81357,2,0,L|136:19,1,90,0|8,0:0|0:0,0:0:0:0:
343,278,81690,6,0,P|400:237|394:119,1,180,0|0,0:0|0:0,0:0:0:0:
303,185,82190,2,0,L|299:81,1,90,8|0,0:0|0:0,0:0:0:0:
406,94,82524,2,0,L|507:37,1,90,2|0,0:0|0:0,0:0:0:0:
392,144,82857,2,0,L|311:90,1,90,8|0,0:0|0:0,0:0:0:0:
78,249,83190,6,0,P|31:208|96:112,1,180,2|8,0:0|0:0,0:0:0:0:
282,151,83857,2,0,L|109:92,1,180,2|8,0:0|0:0,0:0:0:0:
309,243,84524,2,0,P|385:204|405:91,1,180,2|8,0:0|0:0,0:0:0:0:
175,217,85024,2,0,P|136:155|199:70,1,180,0|0,0:0|0:0,0:0:0:0:
291,71,85524,2,0,L|388:19,1,90,8|0,0:0|0:0,0:0:0:0:
89,205,85857,6,0,P|53:160|117:47,1,180,6|8,0:0|0:0,0:0:0:0:
180,174,86357,2,0,L|278:112,1,90,0|2,0:0|0:0,0:0:0:0:
345,139,86690,2,0,L|449:70,1,90,0|8,0:0|0:0,0:0:0:0:
233,211,87024,6,0,L|59:114,1,180,0|0,0:0|0:0,0:0:0:0:
177,170,87524,2,0,L|276:115,1,90,8|0,0:0|0:0,0:0:0:0:
154,158,87857,2,0,L|146:49,1,90,2|0,0:0|0:0,0:0:0:0:
258,100,88190,2,0,L|355:62,1,90,8|0,0:0|0:0,0:0:0:0:
103,244,88524,6,0,P|57:193|154:128,1,180,6|8,0:0|0:0,0:0:0:0:
347,248,89023,2,0,P|402:198|339:96,1,180,4|0,0:0|0:0,0:0:0:0:
134,249,89524,6,0,P|85:187|189:44,1,270,12|8,0:0|0:0,0:0:0:0:
264,76,90190,1,8,0:0:0:0:
100,187,90357,2,0,L|34:100,2,90,2|2|8,0:0|0:0|0:0,0:0:0:0:
192,198,90857,1,8,0:0:0:0:
148,186,90940,1,0,0:0:0:0:
104,175,91023,1,4,0:3:0:0:
338,245,91190,6,0,P|401:203|403:86,1,180,6|8,0:0|0:0,0:0:0:0:
314,114,91690,2,0,L|219:52,1,90,0|2,0:0|0:0,0:0:0:0:
317,106,92024,2,0,L|389:50,1,90,0|8,0:0|0:0,0:0:0:0:
197,267,92357,6,0,L|185:82,1,180,0|0,0:0|0:0,0:0:0:0:
283,93,92857,2,0,L|356:37,1,90,8|0,0:0|0:0,0:0:0:0:
264,130,93190,2,0,L|177:71,1,90,2|0,0:0|0:0,0:0:0:0:
89,109,93524,2,0,L|169:27,1,90,8|0,0:0|0:0,0:0:0:0:
403,297,93857,6,0,P|442:254|363:164,1,180,2|8,0:0|0:0,0:0:0:0:
146,246,94524,2,0,P|87:178|143:103,1,180,2|8,0:0|0:0,0:0:0:0:
290,142,95190,6,0,L|139:14,1,180,2|8,0:0|0:0,0:0:0:0:
386,289,95690,2,0,P|422:256|368:154,1,180,0|0,0:0|0:0,0:0:0:0:
281,98,96190,1,8,0:0:0:0:
368,71,96357,1,0,0:0:0:0:
135,236,96524,6,0,P|88:201|149:105,1,180,6|8,0:0|0:0,0:0:0:0:
239,146,97024,2,0,L|320:74,1,90,0|2,0:0|0:0,0:0:0:0:
214,69,97357,2,0,L|129:2,1,90,0|8,0:0|0:0,0:0:0:0:
332,244,97690,6,0,B|414:248|414:248|411:148,1,180,0|0,0:0|0:0,0:0:0:0:
319,134,98190,2,0,L|220:74,1,90,8|0,0:0|0:0,0:0:0:0:
430,180,98524,2,0,P|468:124|439:18,1,180,2|8,0:0|0:0,0:0:0:0:
149,318,99190,6,0,P|84:261|104:178,1,180,6|8,0:0|0:0,0:0:0:0:
374,280,99690,2,0,P|428:233|418:118,1,180,6|2,0:0|0:0,0:0:0:0:
109,217,100190,6,0,P|68:176|121:67,1,180,12|2,0:0|0:0,0:0:0:0:
198,115,100690,2,0,L|278:41,2,90,8|8|8,0:0|0:0|0:0,0:0:0:0:
97,143,101190,1,8,0:0:0:0:
354,203,101357,2,0,L|432:146,1,90,8|4,0:3|0:3,0:0:0:0:
195,250,101857,5,6,0:0:0:0:
126,196,102023,1,0,0:0:0:0:
127,109,102190,1,8,0:0:0:0:
196,55,102357,1,0,0:0:0:0:
281,256,102524,2,0,L|459:162,1,180,2|8,0:0|0:0,0:0:0:0:
266,179,103024,6,0,L|104:86,2,180,2|2|0,0:0|0:0|0:0,0:0:0:0:
369,215,103857,2,0,L|380:117,1,90,2|0,0:0|0:0,0:0:0:0:
270,149,104190,2,0,L|262:40,1,90,8|0,0:0|0:0,0:0:0:0:
443,222,104524,5,2,0:0:0:0:
502,158,104690,1,0,0:0:0:0:
492,72,104857,1,8,0:0:0:0:
418,25,105024,1,0,0:0:0:0:
334,258,105190,2,0,L|156:164,1,180,2|8,0:0|0:0,0:0:0:0:
339,242,105690,6,0,P|383:201|321:108,1,180,2|2,0:0|0:0,0:0:0:0:
84,224,106357,2,0,P|88:148|188:74,1,180,0|0,0:0|0:0,0:0:0:0:
250,92,106857,2,0,L|378:55,1,90,8|0,0:0|0:0,0:0:0:0:
97,272,107190,6,0,L|3:195,1,90,2|0,0:0|0:0,0:0:0:0:
138,188,107524,2,0,L|228:144,1,90,8|0,0:0|0:0,0:0:0:0:
132,125,107857,1,2,0:0:0:0:
85,97,108023,1,0,0:0:0:0:
139,75,108190,1,8,0:0:0:0:
459,276,108357,6,0,L|475:77,1,180,8|8,0:0|0:0,0:0:0:0:
143,263,109024,2,0,P|95:208|166:117,1,180,8|8,0:0|0:3,0:0:0:0:
230,115,109524,2,0,L|336:51,1,90,4|0,0:3|0:0,0:0:0:0:
148,183,109857,6,0,P|66:128|55:22,1,180,6|8,0:0|0:0,0:0:0:0:
227,215,110524,2,0,P|309:160|320:54,1,180,2|8,0:0|0:0,0:0:0:0:
155,211,111190,2,0,P|154:144|259:90,1,180,2|8,0:0|0:0,0:0:0:0:
379,152,111857,2,0,L|174:72,1,180,2|8,0:0|0:0,0:0:0:0:
443,269,112524,6,0,P|492:236|419:155,1,180,2|8,0:0|0:0,0:0:0:0:
328,168,113023,2,0,P|258:143|226:35,1,180,0|0,0:0|0:0,0:0:0:0:
321,123,113523,2,0,L|476:17,2,180,8|2|8,0:0|0:0|0:0,0:0:0:0:
159,114,114524,2,0,L|270:64,2,90,2|0|8,0:0|0:0|0:0,0:0:0:0:
448,272,115190,6,0,L|435:152,1,90,12|0,0:0|0:0,0:0:0:0:
169,211,115690,2,0,L|192:111,1,90,0|2,0:0|0:0,0:0:0:0:
338,141,116190,6,0,L|151:40,2,180,8|8|8,0:0|0:0|0:0,0:0:0:0:
163,296,117190,1,8,0:0:0:0:
89,250,117356,1,2,0:0:0:0:
89,164,117523,1,4,0:3:0:0:
161,117,117690,1,4,0:3:0:0:
400,208,117857,6,0,L|411:110,1,90,12|0,0:0|0:0,0:0:0:0:
168,238,118357,2,0,L|144:135,1,90,0|2,0:0|0:0,0:0:0:0:
353,175,118857,2,0,P|412:154|455:29,2,180,8|2|8,0:0|0:0|0:0,0:0:0:0:
243,164,119690,1,2,0:0:0:0:
156,175,119857,2,0,L|84:94,2,90,2|8|4,0:0|0:0|0:3,0:0:0:0:
444,192,120523,1,6,0:0:0:0:
256,192,120690,12,0,128524,0:0:0:0:
