osu file format v14

[General]
AudioFilename: winter bell.mp3
AudioLeadIn: 0
PreviewTime: 79774
Countdown: 0
SampleSet: Soft
StackLeniency: 0.4
Mode: 0
LetterboxInBreaks: 0
WidescreenStoryboard: 0

[Editor]
Bookmarks: 1520,1709,16524,37857,59190,80524,101857,120524,125857
DistanceSpacing: 0.8
BeatDivisor: 2
GridSize: 32
TimelineZoom: 1

[Metadata]
Title:Winter Bells
TitleUnicode:Winter Bells♪
Artist:Chata
ArtistUnicode:茶太
Creator:lit120
Version:Karia's Normal
Source:しろくまベルスターズ♪
Tags:Shirokuma Bell Stars PULLTOP Grand Ending Theme christmas xmas short ver. eroge -Hakurei- Karia Sinnoh
BeatmapID:1474613
BeatmapSetID:696064

[Difficulty]
HPDrainRate:4
CircleSize:3.5
OverallDifficulty:4
ApproachRate:5
SliderMultiplier:1.1
SliderTickRate:1

[Events]
//Background and Video events
0,0,"bg.jpg",0,0
//Break Periods
//Storyboard Layer 0 (Background)
//Storyboard Layer 1 (Fail)
//Storyboard Layer 2 (Pass)
//Storyboard Layer 3 (Foreground)
//Storyboard Sound Samples

[TimingPoints]
191,379.746835443038,4,2,2,60,1,0
15191,333.333333333333,4,2,1,10,1,0
15857,-100,4,2,1,40,0,0
16524,-100,4,2,1,60,0,0
27190,-100,4,2,1,70,0,0
37857,-100,4,2,1,60,0,0
80524,-100,4,2,1,80,0,1
109857,-100,4,2,1,70,0,0
124524,-100,4,2,1,60,0,0
125857,-100,4,2,1,50,0,0

[Colours]
Combo1 : 235,171,144
Combo2 : 228,65,110
Combo3 : 32,197,255
Combo4 : 55,157,118

[HitObjects]
50,38,1709,6,0,B|105:131|5:153|60:260,1,220,4|2,0:0|0:0,0:0:0:0:
202,345,3228,2,0,P|305:334|431:324,1,220,2|2,0:0|0:0,0:0:0:0:
491,270,4368,1,0,0:0:0:0:
412,229,4747,6,0,B|404:150|404:150|439:102|439:102|428:19,1,220,4|2,0:0|0:0,0:0:0:0:
321,161,6266,2,0,P|231:213|145:142,1,220,2|2,0:0|0:0,0:0:0:0:
86,87,7406,1,0,0:0:0:0:
20,145,7785,6,0,P|12:255|4:369,1,220,4|2,0:0|0:0,0:0:0:0:
180,375,9304,2,0,P|188:265|196:151,1,220,2|2,0:0|0:0,0:0:0:0:
244,81,10444,1,0,0:0:0:0:
300,148,10823,6,0,B|388:198|427:91|532:164,1,220,4|2,0:0|0:0,0:0:0:0:
508,327,12342,2,0,B|420:277|381:384|276:311,1,220,2|2,0:0|0:0,0:0:0:0:
227,268,13482,2,0,L|212:147,1,110,0|4,0:0|0:0,0:0:0:0:
256,192,14051,12,0,15191,0:0:0:0:
421,157,16524,6,0,B|378:122|378:122|270:143,1,165,2|0,0:0|0:0,0:0:0:0:
239,319,17690,2,0,B|196:354|196:354|72:329,1,165,2|0,0:0|0:0,0:0:0:0:
52,306,18357,2,0,B|30:255|30:255|58:188,1,110,2|8,0:0|0:3,0:0:0:0:
88,181,18857,2,0,L|84:113,1,55,4|0,0:3|0:0,0:0:0:0:
81,82,19190,1,2,0:0:0:0:
448,87,20357,6,0,B|390:79|390:79|352:105|352:105|269:96,1,165,2|0,0:0|0:0,0:0:0:0:
253,120,21024,2,0,B|203:98|203:98|138:122,1,110,2|2,0:0|0:0,0:0:0:0:
120,148,21524,1,0,0:0:0:0:
54,88,21857,6,0,B|21:127|21:127|40:262,1,165,2|0,0:0|0:0,0:0:0:0:
168,253,22857,1,2,0:0:0:0:
168,253,23024,2,0,B|201:214|201:214|182:79,1,165,2|0,0:0|0:0,0:0:0:0:
201,60,23690,2,0,B|251:36|251:36|302:54,1,110,2|2,0:0|0:0,0:0:0:0:
342,180,24524,6,0,B|393:199|393:199|443:177,1,110,2|8,0:0|0:0,0:0:0:0:
481,199,25024,2,0,B|505:249|505:249|487:300,1,110,2|8,0:0|0:0,0:0:0:0:
461,336,25524,1,2,0:0:0:0:
332,364,26024,2,0,P|277:359|222:353,1,110,2|8,0:0|0:0,0:0:0:0:
184,331,26524,2,0,L|103:340,2,55,8|8|4,0:0|0:3|0:3,0:0:0:0:
247,269,27190,6,0,P|270:222|249:163,1,110,12|8,0:0|0:0,0:0:0:0:
231,84,27857,2,0,L|313:68,2,55,8|2|8,0:0|0:0|0:0,0:0:0:0:
191,103,28357,2,0,P|133:95|77:89,1,110,2|0,0:0|0:0,0:0:0:0:
38,99,28857,1,8,0:0:0:0:
5,180,29190,2,0,L|0:234,2,55,8|2|8,0:0|0:0|0:0,0:0:0:0:
93,181,29857,6,0,L|101:291,1,110,8|8,0:0|0:0,0:0:0:0:
184,318,30524,2,0,L|175:388,2,55,8|2|0,0:0|0:0|0:0,0:0:0:0:
215,287,31024,1,2,0:0:0:0:
263,360,31357,1,2,0:0:0:0:
322,295,31690,1,2,0:0:0:0:
382,359,32024,2,0,L|445:351,1,55,2|8,0:0|0:0,0:0:0:0:
491,282,32524,6,0,P|512:232|495:179,1,110,12|8,0:0|0:0,0:0:0:0:
439,113,33190,2,0,L|447:48,2,55,8|2|8,0:0|0:0|0:0,0:0:0:0:
403,138,33690,2,0,P|349:129|294:121,1,110,2|0,0:0|0:0,0:0:0:0:
255,141,34190,1,8,0:0:0:0:
188,82,34524,2,0,L|194:16,2,55,2|2|8,0:0|0:0|0:0,0:0:0:0:
155,111,35024,6,0,P|161:164|169:228,1,110,6|8,0:0|0:0,0:0:0:0:
207,239,35524,1,8,0:0:0:0:
277,186,35857,2,0,L|269:115,2,55,8|8|4,0:0|0:3|0:3,0:0:0:0:
308,216,36357,2,0,P|327:273|292:327,1,110,6|8,0:0|0:0,0:0:0:0:
269,339,36857,1,8,0:0:0:0:
225,346,37024,1,8,0:0:0:0:
146,307,37357,2,0,L|74:315,1,55,8|4,0:3|0:3,0:0:0:0:
26,253,37857,6,0,P|1:204|23:150,1,110,6|8,0:0|0:0,0:0:0:0:
71,84,38524,2,0,L|-5:70,2,55,2|0|8,0:0|0:0|0:0,0:0:0:0:
112,161,39190,2,0,L|235:151,1,110,2|8,0:0|0:0,0:0:0:0:
240,192,39690,2,0,L|362:199,1,110,2|2,0:0|0:0,0:0:0:0:
380,166,40190,1,8,0:0:0:0:
438,231,40524,1,2,0:0:0:0:
489,160,40857,6,0,P|508:104|485:56,1,110,8|2,0:0|0:0,0:0:0:0:
453,33,41357,2,0,L|328:47,1,110
314,78,41857,1,2,0:0:0:0:
245,23,42190,1,8,0:0:0:0:
245,23,42357,2,0,P|225:75|247:134,1,110,2|2,0:0|0:0,0:0:0:0:
270,155,42857,1,8,0:0:0:0:
357,160,43190,6,0,P|350:219|344:280,1,110,2|8,0:0|0:0,0:0:0:0:
268,313,43857,2,0,L|275:373,2,55,2|0|8,0:0|0:0|0:0,0:0:0:0:
194,264,44524,2,0,P|148:246|89:286,1,110,2|8,0:0|0:0,0:0:0:0:
66,303,45024,2,0,P|59:252|51:194,1,110,2|2,0:0|0:0,0:0:0:0:
79,160,45524,2,0,P|82:130|85:103,1,55,8|2,0:0|0:0,0:0:0:0:
211,67,46190,6,0,P|261:45|327:77,1,110,8|2,0:0|0:0,0:0:0:0:
334,98,46690,2,0,P|385:113|434:91,1,110
463,56,47190,1,2,0:0:0:0:
509,132,47524,2,0,L|503:197,1,55,8|2,0:0|0:0,0:0:0:0:
423,222,48024,2,0,L|429:287,1,55,2|8,0:0|0:0,0:0:0:0:
373,346,48524,6,0,P|316:339|259:335,1,110,6|8,0:0|0:0,0:0:0:0:
191,284,49190,2,0,P|134:290|77:295,1,110,2|8,0:0|0:0,0:0:0:0:
40,279,49690,1,0,0:0:0:0:
40,279,49857,2,0,P|14:235|34:173,1,110,2|8,0:0|0:0,0:0:0:0:
84,113,50524,2,0,P|131:95|188:125,1,110,0|8,0:0|0:0,0:0:0:0:
270,107,51190,6,0,L|280:38,2,55,2|0|8,0:0|0:0|0:0,0:0:0:0:
258,149,51690,2,0,L|269:269,1,110,2|2,0:0|0:0,0:0:0:0:
275,301,52190,1,8,0:0:0:0:
344,355,52524,2,0,P|400:372|450:346,1,110,2|8,0:0|0:0,0:0:0:0:
474,319,53024,1,2,0:0:0:0:
489,232,53357,1,2,0:0:0:0:
445,155,53690,6,0,P|392:128|339:145,1,110,6|2,0:0|0:0,0:0:0:0:
312,169,54190,1,8,0:0:0:0:
245,227,54524,2,0,P|192:238|145:212,1,110,2|8,0:0|0:0,0:0:0:0:
115,179,55024,1,0,0:0:0:0:
115,179,55190,2,0,P|111:115|107:42,1,110,2|8,0:0|0:0,0:0:0:0:
130,30,55690,1,2,0:0:0:0:
202,80,56024,2,0,L|206:158,2,55,2|8|2,0:0|0:0|0:0,0:0:0:0:
221,40,56524,1,4,0:0:0:0:
294,89,56857,6,0,P|345:104|401:69,1,110,8|2,0:0|0:0,0:0:0:0:
430,55,57357,2,0,P|424:112|420:168,1,110,2|0,0:0|0:0,0:0:0:0:
443,201,57857,1,6,0:0:0:0:
417,285,58190,1,8,0:0:0:0:
417,285,58357,2,0,P|362:302|302:272,1,110,2|2,0:0|0:0,0:0:0:0:
273,269,58857,2,0,L|217:277,1,55,4|8,0:3|0:0,0:0:0:0:
183,302,59190,1,6,0:0:0:0:
109,252,59524,6,0,P|90:209|121:138,2,110,8|2|8,0:0|0:0|0:0,0:0:0:0:
179,199,60524,2,0,P|220:177|293:205,1,110,2|8,0:0|0:0,0:0:0:0:
316,271,61190,2,0,P|367:286|416:264,1,110,0|8,0:0|0:0,0:0:0:0:
449,181,61857,6,0,L|460:63,2,110,2|8|2,0:0|0:0|0:0,0:0:0:0:
363,204,62857,1,8,0:0:0:0:
283,166,63190,2,0,P|235:145|182:162,1,110,2|8,0:0|0:0,0:0:0:0:
155,196,63690,2,0,P|103:212|54:191,1,110,2|2,0:0|0:0,0:0:0:0:
29,154,64190,1,8,0:0:0:0:
108,115,64524,1,2,0:0:0:0:
60,40,64857,6,0,P|112:24|161:45,2,110,8|2|8,0:0|0:0|0:0,0:0:0:0:
20,118,65857,2,0,P|25:174|30:239,1,110,2|8,0:0|0:0,0:0:0:0:
26,315,66524,2,0,P|82:304|145:294,1,110,0|8,0:0|0:0,0:0:0:0:
194,232,67190,6,0,P|250:240|314:248,2,110,2|8|2,0:0|0:0|0:0,0:0:0:0:
138,163,68190,1,8,0:0:0:0:
197,97,68524,2,0,P|253:88|317:80,1,110,2|8,0:0|0:0,0:0:0:0:
340,109,69024,2,0,P|397:112|460:120,1,110,2|2,0:0|0:0,0:0:0:0:
483,146,69524,1,8,0:0:0:0:
424,211,69857,1,6,0:0:0:0:
489,269,70190,6,0,P|508:312|477:383,2,110,8|2|8,0:0|0:0|0:0,0:0:0:0:
416,319,71190,2,0,P|365:334|316:312,1,110,2|8,0:0|0:0,0:0:0:0:
245,256,71857,2,0,P|194:241|145:263,1,110,2|8,0:0|0:0,0:0:0:0:
95,337,72524,6,0,B|153:248|41:213|103:110,1,220,2|2,0:0|0:0,0:0:0:0:
157,64,73524,1,12,0:0:0:0:
203,138,73857,2,0,B|283:130|283:130|325:172|325:172|412:164,1,220,2|2,0:0|0:0,0:0:0:0:
454,91,74857,1,12,0:0:0:0:
508,160,75190,6,0,P|502:217|499:275,1,110,6|8,0:0|0:0,0:0:0:0:
432,327,75857,2,0,P|382:349|328:316,1,110,8|2,0:0|0:0,0:0:0:0:
306,293,76357,2,0,P|302:238|297:183,1,110,8|8,0:0|0:0,0:0:0:0:
271,147,76857,1,2,0:0:0:0:
193,188,77190,2,0,L|186:253,2,55,8|2|8,0:0|0:0|0:0,0:0:0:0:
147,112,77857,6,0,P|99:89|28:126,1,110,6|8,0:0|0:0,0:0:0:0:
4,181,78524,2,0,L|14:301,1,110,8|2,0:0|0:0,0:0:0:0:
41,324,79024,2,0,B|91:348|91:348|155:316,1,110,8|8,0:0|0:0,0:0:0:0:
170,292,79524,1,8,0:0:0:0:
236,234,79857,2,0,L|309:239,1,55,2|8,0:0|0:0,0:0:0:0:
315,274,80190,2,0,L|388:269,1,55,2|8,0:0|0:0,0:0:0:0:
406,245,80524,6,0,P|429:198|406:136,1,110,6|8,0:0|0:0,0:0:0:0:
379,117,81024,1,0,0:0:0:0:
379,117,81190,2,0,L|255:108,1,110,2|8,0:0|0:0,0:0:0:0:
201,52,81857,2,0,L|77:61,1,110,2|8,0:0|0:0,0:0:0:0:
14,104,82524,2,0,P|5:77|6:45,2,55,2|0|8,0:0|0:0|0:0,0:0:0:0:
88,151,83190,6,0,L|81:263,1,110,2|8,0:0|0:0,0:0:0:0:
167,280,83857,2,0,L|174:168,1,110,2|8,0:0|0:0,0:0:0:0:
156,83,84524,2,0,P|206:61|267:87,1,110,2|8,0:0|0:0,0:0:0:0:
287,108,85024,2,0,B|337:131|337:131|394:107,1,110,0|0,0:0|0:0,0:0:0:0:
423,83,85524,2,0,L|430:143,1,55,8|0,0:0|0:0,0:0:0:0:
461,168,85857,6,0,P|454:224|446:294,1,110,6|8,0:0|0:0,0:0:0:0:
375,327,86524,2,0,P|326:300|267:319,1,110,2|8,0:0|0:0,0:0:0:0:
236,332,87024,1,0,0:0:0:0:
236,332,87190,2,0,P|170:322|108:315,1,110,2|8,0:0|0:0,0:0:0:0:
99,233,87857,2,0,P|153:226|207:217,1,110,2|8,0:0|0:0,0:0:0:0:
289,183,88524,6,0,P|312:135|286:75,1,110,6|8,0:0|0:0,0:0:0:0:
260,55,89024,2,0,P|210:36|152:67,1,110,4|0,0:0|0:0,0:0:0:0:
134,92,89524,1,12,0:0:0:0:
32,176,90024,2,0,L|25:106,2,55,8|8|2,0:0|0:0|0:0,0:0:0:0:
73,191,90524,2,0,L|69:248,1,55,2|8,0:0|0:0,0:0:0:0:
33,271,90857,2,0,L|37:328,1,55,8|4,0:0|0:3,0:0:0:0:
65,359,91190,6,0,P|134:373|173:346,1,110,6|8,0:0|0:0,0:0:0:0:
238,305,91857,2,0,P|287:283|338:300,1,110,2|8,0:0|0:0,0:0:0:0:
368,332,92357,1,0,0:0:0:0:
368,332,92524,2,0,P|374:276|378:217,1,110,2|8,0:0|0:0,0:0:0:0:
302,176,93190,2,0,P|294:146|295:114,2,55,2|0|8,0:0|0:0|0:0,0:0:0:0:
380,135,93857,6,0,P|440:114|489:140,1,110,2|8,0:0|0:0,0:0:0:0:
477,218,94524,2,0,P|417:239|368:213,1,110,2|8,0:0|0:0,0:0:0:0:
302,175,95190,2,0,P|237:183|170:190,1,110,2|8,0:0|0:0,0:0:0:0:
150,174,95690,2,0,B|124:125|124:125|142:73,1,110
170,38,96190,2,0,L|238:46,1,55,8|0,0:0|0:0,0:0:0:0:
258,72,96524,6,0,P|323:64|390:57,1,110,6|8,0:0|0:0,0:0:0:0:
451,83,97190,2,0,P|475:137|450:193,1,110,2|8,0:0|0:0,0:0:0:0:
427,212,97690,1,0,0:0:0:0:
427,212,97857,2,0,P|403:260|418:311,1,110,2|8,0:0|0:0,0:0:0:0:
495,353,98524,1,2,0:0:0:0:
494,267,98857,1,8,0:0:0:0:
418,312,99190,6,0,P|364:305|303:299,1,110,6|8,0:0|0:0,0:0:0:0:
271,323,99690,2,0,P|216:327|155:334,1,110,6|2,0:0|0:0,0:0:0:0:
130,302,100190,1,12,0:0:0:0:
49,339,100524,1,2,0:0:0:0:
49,339,100690,2,0,L|44:277,1,55,8|8,0:0|0:0,0:0:0:0:
67,246,101024,2,0,L|77:133,1,110,8|8,0:0|0:3,0:0:0:0:
112,111,101524,1,4,0:3:0:0:
188,153,101857,6,0,L|194:212,2,55,6|0|8,0:0|0:0|0:0,0:0:0:0:
212,68,102524,2,0,P|260:43|326:69,1,110,2|8,0:0|0:0,0:0:0:0:
327,97,103024,2,0,P|376:118|427:102,1,110,2|2,0:0|0:0,0:0:0:0:
460,73,103524,1,8,0:0:0:0:
510,145,103857,2,0,L|502:258,1,110,2|8,0:0|0:0,0:0:0:0:
457,330,104524,6,0,L|511:338,2,55,2|0|8,0:0|0:0|0:0,0:0:0:0:
411,254,105190,2,0,L|354:260|297:266,1,110,2|8,0:0|0:0,0:0:0:0:
274,300,105690,2,0,L|217:294|160:288,1,110,2|2,0:0|0:0,0:0:0:0:
132,257,106190,1,8,0:0:0:0:
63,312,106524,2,0,P|43:260|65:198,1,110,2|8,0:0|0:0,0:0:0:0:
116,145,107190,6,0,L|179:154,1,55,2|0,0:0|0:0,0:0:0:0:
200,185,107524,2,0,L|263:176,1,55,8|0,0:0|0:0,0:0:0:0:
282,143,107857,2,0,L|345:152,2,55,2|0|8,0:0|0:0|0:0,0:0:0:0:
262,103,108357,5,8,0:0:0:0:
222,24,108690,1,8,0:0:0:0:
145,68,109024,1,8,0:0:0:0:
65,30,109357,2,0,L|56:94,1,55,8|4,0:3|0:3,0:0:0:0:
32,120,109690,1,0,0:0:0:0:
32,120,109857,6,0,L|41:238,1,110,6|8,0:0|0:0,0:0:0:0:
75,310,110524,2,0,P|127:326|182:296,1,110,2|8,0:0|0:0,0:0:0:0:
252,262,111190,2,0,P|304:246|359:276,1,110,2|8,0:0|0:0,0:0:0:0:
426,316,111857,2,0,P|433:256|440:200,1,110,2|8,0:0|0:0,0:0:0:0:
361,164,112524,6,0,P|354:104|347:48,1,110,2|8,0:0|0:0,0:0:0:0:
313,27,113024,2,0,P|262:9|209:34,1,110,0|0,0:0|0:0,0:0:0:0:
180,60,113524,1,8,0:0:0:0:
99,95,113857,2,0,L|30:87,2,55,2|0|8,0:0|0:0|0:0,0:0:0:0:
169,148,114524,2,0,L|238:140,2,55,2|0|8,0:0|0:0|0:0,0:0:0:0:
89,185,115190,5,12,0:0:0:0:
89,185,115357,2,0,P|68:239|96:293,1,110,0|0,0:0|0:0,0:0:0:0:
123,308,115857,1,2,0:0:0:0:
175,237,116190,2,0,P|222:212|274:226,2,110,8|8|8,0:0|0:0|0:0,0:0:0:0:
123,308,117190,2,0,L|127:369,2,55,8|2|4,0:0|0:0|0:3,0:0:0:0:
48,261,117857,5,12,0:0:0:0:
48,261,118024,2,0,L|57:138,1,110,0|0,0:0|0:0,0:0:0:0:
90,123,118524,1,2,0:0:0:0:
30,58,118857,2,0,P|80:34|144:54,1,110,8|2,0:0|0:0,0:0:0:0:
199,101,119524,2,0,L|265:96,1,55,8|2,0:0|0:0,0:0:0:0:
289,70,119857,2,0,L|355:75,1,55,2|8,0:0|0:0,0:0:0:0:
372,107,120190,1,4,0:3:0:0:
449,64,120524,5,6,0:0:0:0:
256,192,120690,12,0,125857,0:0:0:0:
