osu file format v14

[General]
AudioFilename: winter bell.mp3
AudioLeadIn: 0
PreviewTime: 79774
Countdown: 0
SampleSet: Soft
StackLeniency: 0.4
Mode: 0
LetterboxInBreaks: 0
WidescreenStoryboard: 0

[Editor]
Bookmarks: 1520,1709,16524,37857,59190,80524,101857,120524,128524
DistanceSpacing: 1
BeatDivisor: 2
GridSize: 4
TimelineZoom: 2

[Metadata]
Title:Winter Bells
TitleUnicode:Winter Bells♪
Artist:Chata
ArtistUnicode:茶太
Creator:lit120
Version:Hard
Source:しろくまベルスターズ♪
Tags:Shirokuma Bell Stars PULLTOP Grand Ending Theme christmas xmas short ver. eroge -Hakurei- Karia Sinnoh
BeatmapID:1474610
BeatmapSetID:696064

[Difficulty]
HPDrainRate:6
CircleSize:4
OverallDifficulty:6
ApproachRate:8
SliderMultiplier:1.5
SliderTickRate:1

[Events]
//Background and Video events
0,0,"bg.jpg",0,0
//Break Periods
//Storyboard Layer 0 (Background)
//Storyboard Layer 1 (Fail)
//Storyboard Layer 2 (Pass)
//Storyboard Layer 3 (Foreground)
//Storyboard Sound Samples

[TimingPoints]
191,379.746835443038,4,2,2,60,1,0
15191,333.333333333333,4,2,1,10,1,0
15857,-100,4,2,1,40,0,0
16524,-100,4,2,1,60,0,0
27190,-100,4,2,1,70,0,0
37857,-100,4,2,1,60,0,0
80524,-100,4,2,1,80,0,1
109857,-100,4,2,1,70,0,0
124524,-100,4,2,1,60,0,0
125857,-100,4,2,1,50,0,0
126524,-100,4,2,1,40,0,0
127190,-100,4,2,1,30,0,0
127857,-100,4,2,1,20,0,0
128524,-100,4,2,1,10,0,0

[Colours]
Combo1 : 235,171,144
Combo2 : 228,65,110
Combo3 : 32,197,255
Combo4 : 55,157,118

[HitObjects]
264,73,1709,6,0,P|189:71|114:74,1,150,4|0,0:0|0:0,0:0:0:0:
52,213,2469,2,0,P|126:214|201:212,1,150,2|0,0:0|0:0,0:0:0:0:
272,186,3039,1,0,0:0:0:0:
272,186,3228,6,0,P|262:254|184:285,1,150,2|0,0:0|0:0,0:0:0:0:
202,212,3798,1,0,0:0:0:0:
202,212,3988,2,0,P|193:175|190:138,1,75,2|0,0:0|0:0,0:0:0:0:
201,65,4368,1,0,0:0:0:0:
259,110,4558,1,0,0:0:0:0:
270,37,4747,6,0,P|351:30|361:33,2,75,4|0|0,0:0|0:0|0:0,0:0:0:0:
259,110,5317,1,0,0:0:0:0:
316,156,5507,2,0,P|407:155|458:101,1,150,2|0,0:0|0:0,0:0:0:0:
481,50,6077,1,0,0:0:0:0:
481,50,6266,6,0,L|506:228,1,150,2|0,0:0|0:0,0:0:0:0:
392,301,7026,2,0,P|321:246|240:263,1,150,2|0,0:0|0:0,0:0:0:0:
208,300,7596,1,0,0:0:0:0:
208,300,7785,6,0,P|176:218|116:227,1,150,4|0,0:0|0:0,0:0:0:0:
83,282,8355,1,0,0:0:0:0:
83,282,8545,2,0,P|97:198|80:122,1,150,2|0,0:0|0:0,0:0:0:0:
35,78,9115,1,0,0:0:0:0:
35,78,9304,6,0,L|217:93,1,150,2|0,0:0|0:0,0:0:0:0:
259,95,9874,1,0,0:0:0:0:
302,33,10064,2,0,P|333:98|295:160,1,150,2|0,0:0|0:0,0:0:0:0:
182,259,10823,6,0,P|256:238|337:263,1,150,4|0,0:0|0:0,0:0:0:0:
438,156,11583,2,0,P|366:177|294:160,1,150,2|0,0:0|0:0,0:0:0:0:
233,116,12153,1,0,0:0:0:0:
233,116,12342,6,0,P|160:98|89:119,1,150,2|0,0:0|0:0,0:0:0:0:
38,262,13102,2,0,P|110:279|182:259,1,150,2|0,0:0|0:0,0:0:0:0:
233,203,13672,1,0,0:0:0:0:
282,259,13861,5,4,0:0:0:0:
256,192,13956,12,0,15191,0:0:0:0:
160,319,15857,6,0,P|195:329|232:325,1,75
299,291,16190,2,0,P|335:286|371:297,1,75,0|0,0:0|0:0,0:0:0:0:
420,355,16524,6,0,L|413:164,1,150,2|0,0:0|0:0,0:0:0:0:
380,138,17024,2,0,P|344:126|308:133,1,75,0|0,0:0|0:0,0:0:0:0:
268,197,17357,2,0,P|303:209|340:202,1,75,0|0,0:0|0:0,0:0:0:0:
308,133,17690,6,0,P|236:129|193:187,1,150,2|0,0:0|0:0,0:0:0:0:
225,255,18190,2,0,P|254:231|268:197,1,75,0|2,0:0|0:0,0:0:0:0:
193,187,18524,2,0,P|135:191|111:203,1,75,0|8,0:0|0:3,0:0:0:0:
85,263,18857,2,0,P|88:321|100:345,1,75,4|0,0:3|0:0,0:0:0:0:
159,373,19190,6,0,L|321:363,1,150,2|0,0:0|0:0,0:0:0:0:
382,380,19690,1,0,0:0:0:0:
382,380,19857,2,0,P|349:293|382:208,1,150,0|0,0:0|0:0,0:0:0:0:
414,186,20357,5,2,0:0:0:0:
414,186,20524,2,0,P|322:171|265:100,1,150,0|0,0:0|0:0,0:0:0:0:
261,61,21024,2,0,P|215:82|183:81,1,75,2|0,0:0|0:0,0:0:0:0:
122,52,21357,1,2,0:0:0:0:
62,97,21524,2,0,L|65:193,1,75,0|0,0:0|0:0,0:0:0:0:
26,236,21857,6,0,P|106:203|161:249,1,150,2|0,0:0|0:0,0:0:0:0:
202,291,22357,2,0,L|291:286,1,75,0|0,0:0|0:0,0:0:0:0:
316,222,22690,2,0,L|405:217,1,75,0|2,0:0|0:0,0:0:0:0:
437,277,23024,6,0,P|419:178|437:103,1,150,2|0,0:0|0:0,0:0:0:0:
466,66,23524,2,0,P|431:55|394:62,1,75,0|2,0:0|0:0,0:0:0:0:
319,58,23857,2,0,P|327:94|351:123,1,75,0|2,0:0|0:0,0:0:0:0:
386,190,24190,2,0,P|414:164|427:130,1,75,0|0,0:0|0:0,0:0:0:0:
351,123,24524,6,0,P|278:109|206:124,1,150,2|8,0:0|0:0,0:0:0:0:
165,187,25024,2,0,P|238:202|311:187,1,150,2|8,0:0|0:0,0:0:0:0:
351,123,25524,2,0,L|362:302,1,150,2|0,0:0|0:0,0:0:0:0:
310,329,26024,6,0,P|231:329|212:319,2,75,2|8|8,0:0|0:0|0:0,0:0:0:0:
360,273,26524,1,8,0:0:0:0:
415,323,26690,1,8,0:3:0:0:
465,267,26857,2,0,L|457:176,1,75,4|0,0:3|0:0,0:0:0:0:
402,142,27190,6,0,P|473:122|479:13,2,150,12|8|8,0:0|0:0|0:0,0:0:0:0:
336,105,28024,1,2,0:0:0:0:
299,171,28190,2,0,P|236:173|204:157,1,75,8|2,0:0|0:0,0:0:0:0:
171,117,28524,6,0,L|179:295,2,150,8|8|8,0:0|0:0|0:0,0:0:0:0:
113,68,29357,1,2,0:0:0:0:
99,142,29524,2,0,L|102:216,1,75,8|2,0:0|0:0,0:0:0:0:
105,290,29857,6,0,P|67:227|0:197,2,150,8|8|8,0:0|0:0|0:0,0:0:0:0:
162,340,30690,1,2,0:0:0:0:
234,316,30857,1,8,0:0:0:0:
245,241,31024,6,0,P|208:245|177:266,1,75,2|8,0:0|0:0,0:0:0:0:
234,316,31357,2,0,P|255:346|289:362,1,75,0|8,0:0|0:0,0:0:0:0:
303,288,31690,2,0,P|318:254|315:217,1,75,0|8,0:0|0:0,0:0:0:0:
257,167,32024,2,0,P|327:148|346:68,1,150,2|2,0:0|0:0,0:0:0:0:
275,94,32524,6,0,P|192:88|109:104,2,150,12|8|8,0:0|0:0|0:0,0:0:0:0:
349,79,33357,1,2,0:0:0:0:
363,153,33524,2,0,P|394:174|445:177,1,75,8|2,0:0|0:0,0:0:0:0:
492,133,33857,6,0,L|474:298,2,150,8|8|2,0:0|0:0|0:0,0:0:0:0:
422,104,34690,1,2,0:0:0:0:
363,153,34857,1,8,0:0:0:0:
303,197,35024,6,0,P|293:126|348:80,1,150,6|8,0:0|0:0,0:0:0:0:
363,153,35524,2,0,P|377:192|370:235,1,75,8|2,0:0|0:0,0:0:0:0:
366,298,35857,1,8,0:0:0:0:
294,315,36024,1,8,0:3:0:0:
256,253,36190,1,4,0:3:0:0:
303,197,36357,6,0,P|233:183|185:236,1,150,6|8,0:0|0:0,0:0:0:0:
167,306,36857,1,8,0:0:0:0:
113,254,37024,2,0,L|111:92,1,150,8|8,0:0|0:3,0:0:0:0:
156,44,37524,1,4,0:3:0:0:
156,44,37857,5,6,0:0:0:0:
186,113,38024,2,0,P|218:85|231:52,2,75,0|8|0,0:0|0:0|0:0,0:0:0:0:
111,104,38524,1,2,0:0:0:0:
111,104,38690,2,0,P|87:75|80:38,2,75,0|8|0,0:0|0:0|0:0,0:0:0:0:
156,44,39190,6,0,L|161:251,1,150,2|8,0:0|0:0,0:0:0:0:
120,258,39690,2,0,P|201:228|290:274,1,150,2|2,0:0|0:0,0:0:0:0:
310,300,40190,1,8,0:0:0:0:
364,249,40357,6,0,L|363:69,1,150,0|0,0:0|0:0,0:0:0:0:
293,72,40857,2,0,P|381:80|445:41,1,150,8|2,0:0|0:0,0:0:0:0:
503,79,41357,2,0,P|480:151|486:183,1,75,0|8,0:0|0:0,0:0:0:0:
454,219,41690,1,0,0:0:0:0:
454,219,41774,1,0,0:0:0:0:
454,219,41857,6,0,L|457:310,2,75,2|0|8,0:0|0:0|0:0,0:0:0:0:
383,193,42357,2,0,P|291:183|227:213,1,150,2|2,0:0|0:0,0:0:0:0:
182,251,42857,2,0,P|166:218|168:181,1,75,8|0,0:0|0:0,0:0:0:0:
222,129,43190,5,2,0:0:0:0:
222,129,43357,2,0,L|224:48,2,75,0|8|0,0:0|0:0|0:0,0:0:0:0:
149,108,43857,2,0,P|117:126|97:157,1,75,2|0,0:0|0:0,0:0:0:0:
74,229,44190,2,0,L|79:352,1,75,8|0,0:0|0:0,0:0:0:0:
61,378,44524,6,0,P|145:338|224:358,1,150,2|8,0:0|0:0,0:0:0:0:
271,365,45024,2,0,P|231:281|251:202,1,150,2|2,0:0|0:0,0:0:0:0:
258,155,45524,1,8,0:0:0:0:
258,155,45690,6,0,P|174:195|95:175,1,150,2|0,0:0|0:0,0:0:0:0:
78,124,46190,2,0,P|162:84|241:104,1,150,8|2,0:0|0:0,0:0:0:0:
258,155,46690,2,0,L|355:148,1,75,0|8,0:0|0:0,0:0:0:0:
383,93,47024,1,0,0:0:0:0:
383,93,47107,1,0,0:0:0:0:
383,93,47190,6,0,P|354:38|341:23,2,75,2|0|8,0:0|0:0|0:0,0:0:0:0:
406,164,47690,2,0,L|412:313,1,150,2|2,0:0|0:0,0:0:0:0:
360,369,48190,2,0,P|312:369|283:354,1,75,8|0,0:0|0:0,0:0:0:0:
236,302,48524,6,0,P|159:285|87:317,2,150,6|8|2,0:0|0:0|0:0,0:0:0:0:
288,357,49357,2,0,P|307:325|311:288,1,75,0|8,0:0|0:0,0:0:0:0:
261,229,49690,6,0,P|340:223|370:154,1,150,0|0,0:0|0:0,0:0:0:0:
408,103,50190,2,0,P|372:93|336:100,1,75,8|2,0:0|0:0,0:0:0:0:
262,99,50524,2,0,P|271:135|296:163,1,75,0|2,0:0|0:0,0:0:0:0:
336,101,50857,2,0,P|327:64|302:37,1,75,8|0,0:0|0:0,0:0:0:0:
228,33,51190,6,0,L|126:35,2,75,2|0|8,0:0|0:0|0:0,0:0:0:0:
262,99,51690,2,0,P|186:131|103:109,1,150,0|0,0:0|0:0,0:0:0:0:
69,65,52190,1,8,0:0:0:0:
49,139,52357,1,0,0:0:0:0:
49,139,52440,1,0,0:0:0:0:
49,139,52524,6,0,L|49:213,2,75,2|0|8,0:0|0:0|0:0,0:0:0:0:
121,119,53024,2,0,L|121:193,1,75,2|0,0:0|0:0,0:0:0:0:
172,246,53357,2,0,P|139:264|102:265,1,75,2|8,0:0|0:0,0:0:0:0:
49,213,53690,6,0,P|32:246|32:283,1,75,6|0,0:0|0:0,0:0:0:0:
51,354,54024,2,0,L|143:350,1,75,2|8,0:0|0:0,0:0:0:0:
195,322,54357,2,0,L|287:318,1,75,0|2,0:0|0:0,0:0:0:0:
339,290,54690,2,0,P|353:251|331:188,2,75,0|8|0,0:0|0:0|0:0,0:0:0:0:
280,245,55190,6,0,P|300:163|378:150,1,150,2|8,0:0|0:0,0:0:0:0:
423,113,55690,2,0,P|427:150|417:186,1,75,2|0,0:0|0:0,0:0:0:0:
356,145,56024,2,0,P|351:108|362:72,1,75,2|8,0:0|0:0,0:0:0:0:
428,41,56357,6,0,L|258:47,1,150,2|2,0:0|0:0,0:0:0:0:
206,20,56857,2,0,P|243:83|211:147,1,150,8|2,0:0|0:0,0:0:0:0:
170,86,57357,2,0,P|133:79|98:90,1,75,2|8,0:0|0:0,0:0:0:0:
65,156,57690,1,0,0:0:0:0:
65,156,57774,1,0,0:0:0:0:
65,156,57857,6,0,P|101:163|137:152,2,75,6|2|8,0:0|0:0|0:0,0:0:0:0:
98,90,58357,2,0,L|103:258,1,150,2|8,0:0|0:3,0:0:0:0:
123,314,58857,1,4,0:3:0:0:
196,293,59024,1,8,0:0:0:0:
175,219,59190,6,0,P|212:219|245:236,1,75,6|0,0:0|0:0,0:0:0:0:
269,306,59524,2,0,L|361:299,1,75,8|0,0:0|0:0,0:0:0:0:
408,263,59857,2,0,P|417:226|409:190,1,75,2|2,0:0|0:0,0:0:0:0:
360,133,60190,2,0,P|351:96|360:60,1,75,8|0,0:0|0:0,0:0:0:0:
427,26,60524,6,0,P|333:38|265:26,1,150,2|8,0:0|0:0,0:0:0:0:
205,16,61024,1,2,0:0:0:0:
191,89,61190,2,0,L|191:195,1,75,0|2,0:0|0:0,0:0:0:0:
263,177,61524,2,0,L|264:102,1,75,8|0,0:0|0:0,0:0:0:0:
191,89,61857,6,0,P|105:85|23:107,2,150,2|8|2,0:0|0:0|0:0,0:0:0:0:
264,102,62690,1,2,0:0:0:0:
263,177,62857,1,8,0:0:0:0:
191,164,63024,1,0,0:0:0:0:
191,164,63107,1,0,0:0:0:0:
191,164,63190,6,0,L|99:168,2,75,2|2|8,0:0|0:0|0:0,0:0:0:0:
216,233,63690,2,0,P|286:245|335:172,1,150,2|2,0:0|0:0,0:0:0:0:
333,115,64190,2,0,P|369:124|396:150,1,75,8|0,0:0|0:0,0:0:0:0:
436,211,64524,6,0,L|438:294,1,75,2|0,0:0|0:0,0:0:0:0:
388,343,64857,2,0,P|350:340|317:323,1,75,8|0,0:0|0:0,0:0:0:0:
286,252,65190,2,0,P|253:235|216:233,1,75,2|2,0:0|0:0,0:0:0:0:
162,286,65524,2,0,P|144:253|142:216,1,75,8|0,0:0|0:0,0:0:0:0:
75,181,65857,6,0,P|100:153|135:140,1,75,2|2,0:0|0:0,0:0:0:0:
147,65,66190,2,0,P|180:80|203:109,1,75,8|2,0:0|0:0,0:0:0:0:
278,97,66524,2,0,P|273:134|252:165,1,75,0|2,0:0|0:0,0:0:0:0:
288,235,66857,2,0,P|251:242|215:232,1,75,8|0,0:0|0:0,0:0:0:0:
253,165,67190,6,0,P|325:168|365:228,2,150,2|8|2,0:0|0:0|0:0,0:0:0:0:
215,232,68024,1,2,0:0:0:0:
141,216,68190,1,8,0:0:0:0:
141,216,68357,6,0,P|173:296|163:361,1,150,0|2,0:0|0:0,0:0:0:0:
90,371,68857,1,8,0:0:0:0:
90,371,69024,2,0,P|58:291|68:226,1,150,2|2,0:0|0:0,0:0:0:0:
92,158,69524,2,0,L|175:113,1,75,8|0,0:0|0:0,0:0:0:0:
227,93,69857,6,0,P|279:89|315:98,1,75,6|0,0:0|0:0,0:0:0:0:
291,167,70190,2,0,P|254:172|217:167,1,75,8|2,0:0|0:0,0:0:0:0:
157,122,70524,2,0,P|144:156|148:193,1,75,2|0,0:0|0:0,0:0:0:0:
173,261,70857,2,0,L|257:260,1,75,8|0,0:0|0:0,0:0:0:0:
320,238,71190,6,0,P|356:231|392:238,1,75,2|0,0:0|0:0,0:0:0:0:
430,300,71524,2,0,P|404:273|393:238,1,75,8|2,0:0|0:0,0:0:0:0:
429,175,71857,2,0,P|416:139|391:112,1,75,2|0,0:0|0:0,0:0:0:0:
317,122,72190,2,0,P|257:121|221:117,1,75,8|0,0:0|0:0,0:0:0:0:
172,87,72524,6,0,P|185:159|133:208,1,150,2|12,0:0|0:0,0:0:0:0:
115,136,73024,1,2,0:0:0:0:
115,136,73190,2,0,P|63:185|75:256,1,150,2|12,0:0|0:0,0:0:0:0:
208,325,73857,6,0,L|386:325,1,150,2|12,0:0|0:0,0:0:0:0:
414,374,74357,1,2,0:0:0:0:
414,374,74524,2,0,P|382:286|396:203,1,150,2|12,0:0|0:0,0:0:0:0:
462,101,75190,6,0,P|374:133|291:119,1,150,6|8,0:0|0:0,0:0:0:0:
261,80,75690,1,2,0:0:0:0:
212,138,75857,1,8,0:0:0:0:
212,138,76024,2,0,L|214:239,1,75,2|2,0:0|0:0,0:0:0:0:
268,261,76357,6,0,P|305:264|342:256,1,75,8|2,0:0|0:0,0:0:0:0:
395,202,76690,2,0,P|431:194|468:196,2,75,8|2|2,0:0|0:0|0:0,0:0:0:0:
323,183,77190,1,8,0:0:0:0:
342,256,77357,1,2,0:0:0:0:
395,202,77524,1,8,0:0:0:0:
414,274,77690,1,2,0:0:0:0:
342,256,77857,6,0,P|269:261|214:311,1,150,6|8,0:0|0:0,0:0:0:0:
167,369,78357,1,2,0:0:0:0:
110,322,78524,1,8,0:0:0:0:
110,322,78690,2,0,L|109:208,1,75,2|2,0:0|0:0,0:0:0:0:
55,194,79024,6,0,P|136:178|145:97,1,150,8|8,0:0|0:0,0:0:0:0:
111,58,79524,2,0,P|150:45|193:57,1,75,8|2,0:0|0:0,0:0:0:0:
256,62,79857,1,2,0:0:0:0:
259,138,80024,2,0,P|267:154|273:172,2,37.5,8|8|2,0:0|0:0|0:0,0:0:0:0:
196,182,80357,1,8,0:0:0:0:
196,182,80440,1,8,0:0:0:0:
196,182,80524,6,0,P|239:241|311:239,1,150,6|8,0:0|0:0,0:0:0:0:
348,170,81024,2,0,P|383:159|419:167,1,75,0|2,0:0|0:0,0:0:0:0:
459,232,81357,2,0,P|424:243|388:236,1,75,0|8,0:0|0:0,0:0:0:0:
419,167,81690,6,0,L|427:342,1,150,0|0,0:0|0:0,0:0:0:0:
365,362,82190,2,0,P|301:324|227:328,1,150,8|2,0:0|0:0,0:0:0:0:
165,371,82690,1,0,0:0:0:0:
123,308,82857,2,0,L|125:227,1,75,8|0,0:0|0:0,0:0:0:0:
74,176,83190,6,0,P|151:166|177:87,1,150,2|8,0:0|0:0,0:0:0:0:
104,107,83690,1,0,0:0:0:0:
104,107,83857,2,0,P|142:169|233:158,1,150,2|8,0:0|0:0,0:0:0:0:
279,134,84357,1,0,0:0:0:0:
279,134,84524,6,0,P|352:120|426:131,1,150,2|8,0:0|0:0,0:0:0:0:
496,103,85024,2,0,P|452:155|423:243,1,150,0|0,0:0|0:0,0:0:0:0:
414,306,85524,1,8,0:0:0:0:
341,319,85690,1,0,0:0:0:0:
307,253,85857,6,0,P|221:242|141:266,1,150,6|8,0:0|0:0,0:0:0:0:
103,306,86357,2,0,P|86:273|87:236,1,75,0|2,0:0|0:0,0:0:0:0:
139,182,86690,2,0,P|139:144|122:111,1,75,0|8,0:0|0:0,0:0:0:0:
61,67,87024,6,0,P|139:80|244:68,1,150,0|0,0:0|0:0,0:0:0:0:
283,66,87524,2,0,P|313:89|328:123,1,75,8|0,0:0|0:0,0:0:0:0:
373,184,87857,2,0,P|338:197|301:194,1,75,2|0,0:0|0:0,0:0:0:0:
227,202,88190,2,0,P|232:166|254:136,1,75,8|0,0:0|0:0,0:0:0:0:
328,123,88524,6,0,L|337:288,1,150,6|8,0:0|0:0,0:0:0:0:
395,319,89024,2,0,P|331:347|263:288,1,150,4|0,0:0|0:0,0:0:0:0:
238,237,89524,2,0,P|178:196|112:223,1,150,12|0,0:0|0:0,0:0:0:0:
102,299,90024,5,8,0:0:0:0:
164,342,90190,2,0,P|176:306|172:270,1,75,8|2,0:0|0:0,0:0:0:0:
112,223,90524,1,2,0:0:0:0:
138,153,90690,1,8,0:0:0:0:
138,153,90774,1,8,0:0:0:0:
138,153,90857,1,8,0:0:0:0:
214,155,91024,1,4,0:3:0:0:
235,228,91190,6,0,P|313:244|363:175,1,150,6|8,0:0|0:0,0:0:0:0:
341,125,91690,2,0,P|308:142|287:174,1,75,0|2,0:0|0:0,0:0:0:0:
358,199,92024,2,0,P|389:218|426:220,1,75,0|8,0:0|0:0,0:0:0:0:
412,148,92357,6,0,P|389:68|322:52,1,150,0|0,0:0|0:0,0:0:0:0:
257,60,92857,2,0,P|166:71|103:56,1,150,8|2,0:0|0:0,0:0:0:0:
40,29,93357,1,0,0:0:0:0:
49,104,93524,2,0,L|51:213,1,75,8|0,0:0|0:0,0:0:0:0:
11,243,93857,6,0,P|94:223|159:305,1,150,2|8,0:0|0:0,0:0:0:0:
183,320,94357,1,0,0:0:0:0:
183,320,94524,2,0,L|350:301,1,150,2|8,0:0|0:0,0:0:0:0:
395,342,95024,1,0,0:0:0:0:
395,342,95190,6,0,P|373:260|393:176,1,150,2|8,0:0|0:0,0:0:0:0:
428,136,95690,2,0,P|346:158|262:138,1,150,0|0,0:0|0:0,0:0:0:0:
222,103,96190,1,8,0:0:0:0:
177,164,96357,1,0,0:0:0:0:
238,207,96524,6,0,P|172:237|111:199,1,150,6|8,0:0|0:0,0:0:0:0:
116,123,97024,2,0,P|151:136|177:164,1,75,0|2,0:0|0:0,0:0:0:0:
238,207,97357,2,0,L|245:321,1,75,0|8,0:0|0:0,0:0:0:0:
196,342,97690,6,0,P|274:322|395:357,1,150,0|0,0:0|0:0,0:0:0:0:
413,308,98190,2,0,P|420:272|421:234,1,75,8|0,0:0|0:0,0:0:0:0:
375,173,98524,2,0,P|376:135|384:98,1,75,2|0,0:0|0:0,0:0:0:0:
452,69,98857,2,0,P|419:87|384:99,1,75,8|0,0:0|0:0,0:0:0:0:
324,54,99190,6,0,P|249:48|177:69,1,150,6|8,0:0|0:0,0:0:0:0:
168,143,99690,2,0,P|200:210|254:261,1,150,6|2,0:0|0:0,0:0:0:0:
324,233,100190,2,0,P|365:171|383:98,1,150,12|2,0:0|0:0,0:0:0:0:
392,23,100690,5,8,0:0:0:0:
452,68,100857,2,0,P|467:103|472:162,1,75,8|8,0:0|0:0,0:0:0:0:
472,216,101190,1,8,0:0:0:0:
442,283,101356,1,8,0:3:0:0:
368,292,101523,1,4,0:3:0:0:
324,233,101690,1,8,0:0:0:0:
249,242,101857,6,0,P|212:244|175:240,1,75,6|0,0:0|0:0,0:0:0:0:
204,171,102190,2,0,P|241:169|279:173,1,75,8|0,0:0|0:0,0:0:0:0:
324,233,102524,2,0,P|353:166|314:106,1,150,2|8,0:0|0:0,0:0:0:0:
247,69,103024,6,0,L|161:68,1,75,2|0,0:0|0:0,0:0:0:0:
98,81,103357,2,0,P|69:137|66:172,1,75,2|8,0:0|0:0,0:0:0:0:
25,210,103690,2,0,P|106:208|118:287,1,150,0|0,0:0|0:0,0:0:0:0:
110,336,104190,1,8,0:0:0:0:
110,336,104274,1,0,0:0:0:0:
110,336,104357,1,0,0:0:0:0:
181,314,104524,6,0,P|218:308|255:314,1,75,2|0,0:0|0:0,0:0:0:0:
319,355,104857,2,0,P|332:320|355:291,1,75,8|0,0:0|0:0,0:0:0:0:
422,256,105190,2,0,P|357:224|346:153,1,150,2|8,0:0|0:0,0:0:0:0:
407,107,105690,6,0,P|420:142|418:179,1,75,2|0,0:0|0:0,0:0:0:0:
347,153,106024,2,0,P|334:118|336:80,1,75,2|8,0:0|0:0,0:0:0:0:
395,31,106357,2,0,P|366:9|329:3,1,75,0|2,0:0|0:0,0:0:0:0:
265,47,106690,2,0,L|161:49,1,75,0|8,0:0|0:0,0:0:0:0:
124,85,107024,1,0,0:0:0:0:
124,85,107190,6,0,P|117:121|119:159,1,75,2|0,0:0|0:0,0:0:0:0:
159,221,107524,2,0,P|161:258|154:295,1,75,8|0,0:0|0:0,0:0:0:0:
122,363,107857,1,2,0:0:0:0:
54,330,108023,1,0,0:0:0:0:
87,262,108190,1,8,0:0:0:0:
154,295,108357,6,0,P|192:298|229:294,1,75,8|2,0:0|0:0,0:0:0:0:
290,250,108690,2,0,P|327:246|364:249,1,75,8|2,0:0|0:0,0:0:0:0:
395,318,109024,2,0,P|424:295|439:261,1,75,8|2,0:0|0:0,0:0:0:0:
474,194,109358,1,8,0:3:0:0:
422,140,109524,1,4,0:3:0:0:
354,174,109690,1,0,0:0:0:0:
302,120,109857,6,0,P|265:114|227:118,1,75,6|0,0:0|0:0,0:0:0:0:
177,173,110190,2,0,P|141:90|74:103,2,150,8|2|8,0:0|0:0|0:0,0:0:0:0:
149,243,111024,1,0,0:0:0:0:
195,302,111190,6,0,P|303:281|358:295,2,150,2|8|2,0:0|0:0|0:0,0:0:0:0:
121,313,112024,1,0,0:0:0:0:
75,254,112190,2,0,L|80:160,1,75,8|0,0:0|0:0,0:0:0:0:
41,113,112524,6,0,P|113:127|185:107,1,150,2|8,0:0|0:0,0:0:0:0:
256,83,113024,1,0,0:0:0:0:
326,107,113190,2,0,P|398:127|470:113,1,150,2|8,0:0|0:0,0:0:0:0:
508,48,113690,1,0,0:0:0:0:
470,113,113857,6,0,P|466:163|472:210,1,75,2|0,0:0|0:0,0:0:0:0:
497,256,114190,1,8,0:0:0:0:
497,256,114357,2,0,P|417:225|310:256,1,150,0|0,0:0|0:0,0:0:0:0:
297,280,114857,2,0,L|222:272,1,75,8|0,0:0|0:0,0:0:0:0:
170,217,115190,5,12,0:0:0:0:
170,217,115357,2,0,P|151:249|152:299,1,75,0|8,0:0|0:0,0:0:0:0:
125,356,115690,1,0,0:0:0:0:
125,356,115857,2,0,P|162:357|195:341,1,75,2|2,0:0|0:0,0:0:0:0:
222,272,116190,1,8,0:0:0:0:
296,277,116357,1,2,0:0:0:0:
314,348,116524,6,0,P|367:283|344:222,2,150,8|8|8,0:0|0:0|0:0,0:0:0:0:
296,277,117357,1,2,0:0:0:0:
222,272,117524,1,4,0:3:0:0:
195,341,117691,1,4,0:3:0:0:
148,285,117857,5,12,0:0:0:0:
148,285,118024,2,0,L|73:287,1,75,0|8,0:0|0:0,0:0:0:0:
24,230,118357,1,0,0:0:0:0:
24,230,118524,2,0,P|79:166|89:127,1,75,2|2,0:0|0:0,0:0:0:0:
118,115,118857,1,8,0:0:0:0:
178,158,119024,1,2,0:0:0:0:
221,98,119190,5,2,0:0:0:0:
162,54,119357,1,8,0:0:0:0:
162,54,119440,1,8,0:0:0:0:
162,54,119524,2,0,P|192:31|236:27,1,75,8|8,0:0|0:3,0:0:0:0:
300,32,119857,1,2,0:0:0:0:
293,103,120024,1,8,0:0:0:0:
221,98,120190,1,4,0:3:0:0:
221,98,120524,5,6,0:0:0:0:
256,192,120607,12,0,128524,0:0:0:0:
