osu file format v14

[General]
AudioFilename: winter bell.mp3
AudioLeadIn: 0
PreviewTime: 79774
Countdown: 0
SampleSet: Soft
StackLeniency: 0.4
Mode: 0
LetterboxInBreaks: 0
WidescreenStoryboard: 0

[Editor]
Bookmarks: 1520,1709,16524,37857,59190,80524,101857,120524,125857
DistanceSpacing: 1.1
BeatDivisor: 2
GridSize: 4
TimelineZoom: 1.3

[Metadata]
Title:Winter Bells
TitleUnicode:Winter Bells♪
Artist:Chata
ArtistUnicode:茶太
Creator:lit120
Version:Easy
Source:しろくまベルスターズ♪
Tags:Shirokuma Bell Stars PULLTOP Grand Ending Theme christmas xmas short ver. eroge -Hakurei- Karia Sinnoh
BeatmapID:1474609
BeatmapSetID:696064

[Difficulty]
HPDrainRate:3
CircleSize:3
OverallDifficulty:3
ApproachRate:3
SliderMultiplier:0.8
SliderTickRate:1

[Events]
//Background and Video events
0,0,"bg.jpg",0,0
//Break Periods
//Storyboard Layer 0 (Background)
//Storyboard Layer 1 (Fail)
//Storyboard Layer 2 (Pass)
//Storyboard Layer 3 (Foreground)
//Storyboard Sound Samples

[TimingPoints]
191,379.746835443038,4,2,2,60,1,0
15191,333.333333333333,4,2,1,10,1,0
15857,-100,4,2,1,40,0,0
16524,-100,4,2,1,60,0,0
27190,-100,4,2,1,70,0,0
37857,-100,4,2,1,60,0,0
80524,-100,4,2,1,80,0,1
109857,-100,4,2,1,70,0,0
124524,-100,4,2,1,60,0,0
125857,-100,4,2,1,50,0,0

[Colours]
Combo1 : 235,171,144
Combo2 : 228,65,110
Combo3 : 32,197,255
Combo4 : 55,157,118

[HitObjects]
44,167,1709,6,0,P|119:188|193:159,1,160,4|2,0:0|0:0,0:0:0:0:
301,90,3228,2,0,P|279:165|308:239,1,160,2|2,0:0|0:0,0:0:0:0:
401,327,4747,2,0,L|222:325,1,160,4|2,0:0|0:0,0:0:0:0:
123,375,6266,2,0,P|145:295|123:206,1,160,2|2,0:0|0:0,0:0:0:0:
27,131,7785,6,0,P|5:211|27:300,1,160,4|2,0:0|0:0,0:0:0:0:
130,221,9304,2,0,P|220:209|293:230,1,160,2|2,0:0|0:0,0:0:0:0:
385,307,10823,2,0,L|388:119,1,160,4|2,0:0|0:0,0:0:0:0:
290,63,12342,2,0,P|188:93|94:62,1,160,2|2,0:0|0:0,0:0:0:0:
256,192,13861,12,0,15191,0:0:0:0:
49,223,16524,6,0,P|134:184|259:305,1,280,2|2,0:0|0:0,0:0:0:0:
421,362,18357,2,0,L|416:215,1,120,2|4,0:0|0:3,0:0:0:0:
475,176,19190,2,0,B|430:220|358:202|325:142|357:83|357:83|326:110|269:92,1,280,2|2,0:0|0:0,0:0:0:0:
145,11,21024,2,0,P|165:67|162:107,1,80,2|2,0:0|0:0,0:0:0:0:
81,189,21857,6,0,P|149:115|231:231,1,280,2|2,0:0|0:0,0:0:0:0:
335,371,23690,2,0,P|369:350|400:325,1,80,2|2,0:0|0:0,0:0:0:0:
479,220,24524,6,0,B|479:141|479:141|452:86,1,120,2|2,0:0|0:0,0:0:0:0:
337,61,25524,2,0,P|270:77|201:56,1,120,2|2,0:0|0:0,0:0:0:0:
96,23,26524,2,0,L|100:134,1,80,8|4,0:0|0:3,0:0:0:0:
166,158,27190,6,0,L|162:269,1,80,12|8,0:0|0:0,0:0:0:0:
141,316,27857,2,0,P|186:279|245:279,2,120,8|2|8,0:0|0:0|0:0,0:0:0:0:
216,362,29190,2,0,L|310:362,1,80,8|8,0:0|0:0,0:0:0:0:
363,305,29857,6,0,P|365:247|359:208,1,80,8|8,0:0|0:0,0:0:0:0:
391,142,30524,2,0,P|339:170|281:161,2,120,8|2|8,0:0|0:0|0:0,0:0:0:0:
364,57,31857,2,0,P|302:56|280:59,1,80,8|8,0:0|0:0,0:0:0:0:
195,51,32524,6,0,L|200:142,1,80,12|8,0:0|0:0,0:0:0:0:
223,214,33190,2,0,P|174:182|115:171,2,120,8|2|8,0:0|0:0|0:0,0:0:0:0:
190,296,34524,2,0,P|131:285|81:252,2,120,2|6|8,0:0|0:0|0:0,0:0:0:0:
278,285,35857,5,8,0:0:0:0:
369,190,36357,2,0,L|381:268,1,80,6|8,0:0|0:0,0:0:0:0:
358,354,37024,2,0,P|430:342|469:283,1,120,8|4,0:0|0:3,0:0:0:0:
500,231,37857,6,0,L|487:152,1,80,6|8,0:0|0:0,0:0:0:0:
423,91,38524,2,0,P|366:83|342:88,1,80,2|8,0:0|0:0,0:0:0:0:
274,141,39190,2,0,P|286:83|265:27,2,120,2|2|8,0:0|0:0|0:0,0:0:0:0:
196,184,40524,6,0,L|96:183,1,80,2|8,0:0|0:0,0:0:0:0:
37,140,41190,2,0,P|28:187|37:224,1,80,2|8,0:0|0:0,0:0:0:0:
84,291,41857,2,0,P|117:242|116:183,2,120,2|2|8,0:0|0:0|0:0,0:0:0:0:
8,335,43190,6,0,P|44:369|86:381,1,80,2|8,0:0|0:0,0:0:0:0:
154,346,43857,2,0,P|206:338|251:344,1,80,2|8,0:0|0:0,0:0:0:0:
313,376,44524,2,0,L|312:219,1,120,2|2,0:0|0:0,0:0:0:0:
342,173,45357,1,2,0:0:0:0:
399,240,45690,6,0,P|428:189|419:130,1,120,2|8,0:0|0:0,0:0:0:0:
343,83,46524,2,0,L|250:85,1,80,2|8,0:0|0:0,0:0:0:0:
210,153,47190,2,0,P|203:95|163:51,2,120,2|2|8,0:0|0:0|0:0,0:0:0:0:
138,209,48524,6,0,P|122:172|122:133,1,80,6|8,0:0|0:0,0:0:0:0:
210,153,49190,2,0,P|227:210|207:266,2,120,2|0|8,0:0|0:0|0:0,0:0:0:0:
138,209,50524,2,0,P|121:244|120:284,1,80,0|8,0:0|0:0,0:0:0:0:
180,351,51190,6,0,P|240:357|298:345,2,120,2|0|8,0:0|0:0|0:0,0:0:0:0:
208,266,52524,2,0,P|266:253|326:259,1,120,2|2,0:0|0:0,0:0:0:0:
386,327,53357,1,2,0:0:0:0:
414,242,53690,6,0,L|408:88,1,120,6|8,0:0|0:0,0:0:0:0:
340,66,54524,2,0,P|285:65|253:74,1,80,2|8,0:0|0:0,0:0:0:0:
175,52,55190,2,0,P|211:98|212:157,1,120,2|2,0:0|0:0,0:0:0:0:
146,214,56024,1,2,0:0:0:0:
59,213,56357,6,0,P|79:158|130:128,1,120,2|8,0:0|0:0,0:0:0:0:
212,158,57190,2,0,P|279:159|311:149,1,80,2|8,0:0|0:0,0:0:0:0:
357,98,57857,2,0,P|345:160|372:214,2,120,6|2|4,0:0|0:0|0:3,0:0:0:0:
432,148,59190,5,6,0:0:0:0:
454,234,59524,2,0,P|432:272|396:297,2,80,8|2|8,0:0|0:0|0:0,0:0:0:0:
368,210,60524,2,0,P|277:202|203:244,1,160,2|0,0:0|0:0,0:0:0:0:
155,293,61524,1,8,0:0:0:0:
67,288,61857,6,0,P|48:208|93:136,1,160,2|2,0:0|0:0,0:0:0:0:
157,92,62857,1,8,0:0:0:0:
241,68,63190,2,0,P|328:60|394:82,2,120,2|2|8,0:0|0:0|0:0,0:0:0:0:
219,153,64524,5,2,0:0:0:0:
252,231,64857,2,0,P|283:207|303:173,2,80,8|2|8,0:0|0:0|0:0,0:0:0:0:
167,221,65857,2,0,P|136:245|116:279,1,80,2|8,0:0|0:0,0:0:0:0:
146,362,66524,2,0,L|246:360,1,80,0|8,0:0|0:0,0:0:0:0:
310,334,67190,6,0,P|387:315|478:343,1,160,2|2,0:0|0:0,0:0:0:0:
509,210,68357,2,0,P|500:171|481:136,1,80,2|2,0:3|0:0,0:0:0:0:
416,74,69024,2,0,P|357:70|283:77,1,120,2|8,0:0|0:0,0:0:0:0:
218,115,69857,5,6,0:0:0:0:
144,68,70190,2,0,P|99:59|63:66,2,80,8|2|8,0:0|0:0|0:0,0:0:0:0:
218,115,71190,2,0,L|219:220,1,80,2|8,0:0|0:0,0:0:0:0:
253,275,71857,2,0,P|216:281|169:266,1,80,2|8,0:0|0:0,0:0:0:0:
131,195,72524,6,0,P|41:215|13:291,1,160,2|2,0:0|0:0,0:0:0:0:
41,353,73524,1,12,0:0:0:0:
126,374,73857,2,0,L|326:366,1,160,2|2,0:0|0:0,0:0:0:0:
373,370,74857,1,12,0:0:0:0:
332,294,75190,6,0,P|341:235|361:204,1,80,6|8,0:0|0:0,0:0:0:0:
415,158,75857,2,0,P|356:169|300:151,1,120,8|8,0:0|0:0,0:0:0:0:
211,151,76690,2,0,P|155:169|97:158,1,120,8|8,0:0|0:0,0:0:0:0:
24,107,77524,1,8,0:0:0:0:
17,195,77857,6,0,L|19:294,1,80,6|8,0:0|0:0,0:0:0:0:
48,358,78524,1,8,0:0:0:0:
159,287,79024,2,0,P|241:281|289:300,1,120,8|8,0:0|0:0,0:0:0:0:
352,335,79857,2,0,P|402:339|438:328,1,80,2|2,0:0|0:0,0:0:0:0:
491,267,80524,6,0,B|491:188|491:188|465:138,1,120,6|2,0:0|0:3,0:0:0:0:
397,104,81357,1,2,0:3:0:0:
318,145,81690,2,0,P|248:162|178:125,1,120,2|8,0:3|0:0,0:0:0:0:
125,107,82524,2,0,L|112:209,1,80,2|8,0:0|0:0,0:0:0:0:
66,259,83190,6,0,P|143:244|205:310,1,160,2|2,0:0|0:0,0:0:0:0:
270,347,84190,1,8,0:0:0:0:
322,277,84524,2,0,P|376:268|446:272,2,120,2|2|8,0:0|0:3|0:0,0:0:0:0:
252,223,85857,6,0,P|246:145|271:91,1,120,6|2,0:0|0:3,0:0:0:0:
319,42,86690,1,2,0:3:0:0:
346,125,87024,2,0,P|400:146|457:130,1,120,2|8,0:3|0:0,0:0:0:0:
480,46,87857,2,0,P|441:44|405:60,1,80,2|8,0:0|0:0,0:0:0:0:
346,125,88524,6,0,L|346:281,1,120,6|4,0:0|0:0,0:0:0:0:
411,359,89524,2,0,P|307:325|230:358,1,160,12|8,0:0|0:0,0:0:0:0:
182,376,90524,1,2,0:0:0:0:
96,355,90857,1,8,0:0:0:0:
11,381,91190,6,0,P|51:329|47:259,1,120,6|2,0:0|0:3,0:0:0:0:
20,194,92024,1,2,0:3:0:0:
75,124,92357,2,0,L|222:129,1,120,2|8,0:3|0:0,0:0:0:0:
280,149,93190,2,0,P|333:132|358:107,1,80,2|8,0:0|0:0,0:0:0:0:
402,45,93857,6,0,L|411:219,1,160,2|2,0:0|0:0,0:0:0:0:
367,282,94857,1,8,0:0:0:0:
289,238,95190,2,0,P|224:233|165:260,2,120,2|2|8,0:0|0:3|0:0,0:0:0:0:
367,282,96524,6,0,P|327:332|251:347,1,120,6|2,0:0|0:3,0:0:0:0:
187,339,97357,1,2,0:3:0:0:
174,252,97690,2,0,L|184:121,1,120,2|8,0:3|0:0,0:0:0:0:
164,46,98524,2,0,P|204:46|239:63,1,80,2|8,0:0|0:0,0:0:0:0:
295,132,99190,6,0,P|240:151|184:133,1,120,6|6,0:0|0:0,0:0:0:0:
58,87,100190,2,0,L|60:233,1,120,12|8,0:0|0:0,0:0:0:0:
64,295,101024,2,0,P|117:322|202:308,1,120,8|2,0:0|0:0,0:0:0:0:
261,297,101857,6,0,L|348:294,1,80,6|8,0:0|0:0,0:0:0:0:
419,334,102524,2,0,P|399:263|406:207,1,120,2|2,0:0|0:0,0:0:0:0:
451,144,103357,1,2,0:3:0:0:
377,96,103690,2,0,P|297:95|249:99,1,120,2|8,0:3|0:0,0:0:0:0:
179,139,104524,6,0,P|127:139|100:131,1,80,2|8,0:0|0:0,0:0:0:0:
20,95,105190,2,0,P|51:156|47:232,1,120,2|2,0:0|0:0,0:0:0:0:
21,288,106024,1,8,0:0:0:0:
107,275,106357,2,0,P|168:273|208:282,1,80,2|2,0:3|0:3,0:0:0:0:
266,315,107024,6,0,P|331:304|319:175,1,200,2|2,0:3|0:0,0:0:0:0:
231,111,108357,2,0,L|325:100,1,80,8|8,0:0|0:0,0:0:0:0:
397,87,109024,2,0,P|448:115|458:200,1,120,8|4,0:0|0:3,0:0:0:0:
457,258,109857,6,0,B|298:275,1,160,6|2,0:0|0:0,0:0:0:0:
241,342,110857,1,8,0:0:0:0:
153,333,111190,2,0,P|132:299|127:259,1,80,2|8,0:0|0:0,0:0:0:0:
146,173,111857,2,0,P|141:133|120:99,1,80,2|8,0:0|0:0,0:0:0:0:
39,65,112524,6,0,B|203:40,1,160,2|2,0:0|0:0,0:0:0:0:
261,101,113524,1,8,0:0:0:0:
346,78,113857,2,0,P|385:72|425:75,1,80,2|8,0:0|0:0,0:0:0:0:
404,160,114524,2,0,P|364:165|324:162,1,80,2|8,0:0|0:0,0:0:0:0:
261,101,115190,6,0,P|242:136|241:188,2,80,12|8|2,0:0|0:0|0:0,0:0:0:0:
324,162,116190,2,0,L|326:340,1,160,8|8,0:0|0:0,0:0:0:0:
257,378,117190,1,8,0:0:0:0:
177,340,117524,1,4,0:3:0:0:
91,361,117857,6,0,L|82:238,2,80,12|8|2,0:0|0:0|0:0,0:0:0:0:
177,340,118857,2,0,P|193:248|166:153,1,160,8|8,0:0|0:0,0:0:0:0:
139,104,119857,2,0,P|177:95|216:103,1,80,2|4,0:0|0:3,0:0:0:0:
267,174,120524,5,6,0:0:0:0:
256,192,120690,12,0,125857,0:0:0:0:
