osu file format v12

[General]
AudioFilename: Chata - Wan~Bowl~.mp3
AudioLeadIn: 2000
PreviewTime: 218904
Countdown: 0
SampleSet: Soft
StackLeniency: 0.7
Mode: 0
LetterboxInBreaks: 1
WidescreenStoryboard: 0

[Editor]
DistanceSpacing: 1
BeatDivisor: 4
GridSize: 4

[Metadata]
Title:Wan
TitleUnicode:Wan~椀~
Artist:Chata
ArtistUnicode:茶太
Creator:Vhy
Version:Normal
Source:Touhou
Tags:th14 kishinjou ddc double dealing character sukuna shinmyoumaru 耀く針の小人族 inchlings of the shining needle ~ little princess sally shuriken nsy c85
BeatmapID:357667
BeatmapSetID:143723

[Difficulty]
HPDrainRate:3
CircleSize:3
OverallDifficulty:3
ApproachRate:5
SliderMultiplier:0.9
SliderTickRate:1

[Events]
//Background and Video events
0,0,"sukuna.jpg",0,0
//Break Periods
2,16041,27204
2,88040,99204
2,172050,193704
//Storyboard Layer 0 (Background)
//Storyboard Layer 1 (Fail)
//Storyboard Layer 2 (Pass)
//Storyboard Layer 3 (Foreground)
//Storyboard Sound Samples
//Background Colour Transformations
3,100,163,162,255

[TimingPoints]
654,375,4,2,1,5,1,0
654,-100,4,2,1,7,0,0
841,-100,4,2,1,11,0,0
1029,-100,4,2,1,15,0,0
1216,-100,4,2,1,19,0,0
1404,-100,4,2,1,23,0,0
1591,-100,4,2,1,27,0,0
1779,-100,4,2,1,31,0,0
1966,-100,4,2,1,35,0,0
2154,-100,4,2,1,39,0,0
2341,-100,4,2,1,43,0,0
2529,-100,4,2,1,47,0,0
2716,-100,4,2,1,51,0,0
2904,-100,4,2,1,55,0,0
3091,-100,4,2,1,59,0,0
3279,-100,4,2,1,63,0,0
3466,-100,4,2,1,67,0,0
3654,-100,4,2,1,71,0,0
4029,375,4,2,2,75,1,0
10029,-100,4,2,1,75,0,0
10966,-100,4,2,2,75,0,0
13029,-100,4,2,1,75,0,0
33279,-100,4,2,1,55,0,0
33935,-100,4,2,1,75,0,0
39279,-100,4,2,1,55,0,0
39935,-100,4,2,1,75,0,0
45279,-100,4,2,1,55,0,0
45935,-100,4,2,1,75,0,0
76029,-100,4,2,1,75,0,1
87841,-100,4,2,1,75,0,0
105279,-100,4,2,1,55,0,0
105935,-100,4,2,1,75,0,0
111279,-100,4,2,1,55,0,0
111935,-100,4,2,1,75,0,0
117279,-100,4,2,1,55,0,0
117935,-100,4,2,1,75,0,0
148029,-100,4,2,1,75,0,1
157591,-100,4,2,1,65,0,1
158341,-100,4,2,1,55,0,1
159091,-100,4,2,1,45,0,1
159466,-133.333333333333,4,2,2,35,0,0
169779,-133.333333333333,4,2,1,45,0,0
170529,-133.333333333333,4,2,1,55,0,0
170904,-133.333333333333,4,2,1,65,0,0
171091,-133.333333333333,4,2,1,75,0,0
194904,-100,4,2,1,75,0,0
220029,-100,4,2,1,75,0,1
232029,-100,4,2,1,75,0,0
244029,-100,4,2,1,75,0,1
255841,-100,4,2,2,75,0,0
258091,-100,4,2,1,75,0,0
258841,-100,4,2,2,75,0,0
261091,-100,4,2,1,75,0,0

[Colours]
Combo1 : 202,0,0
Combo2 : 255,187,187
Combo3 : 130,0,0

[HitObjects]
256,192,654,12,0,4029,0:0:0:0:
300,68,4591,2,0,B|372:100|332:172|420:192,2,180,2|2|2,0:0|0:0|0:0,0:0:0:0:
256,148,6466,2,0,L|256:240,2,90,2|0|2,0:0|0:0|0:0,0:0:0:0:
212,68,7591,6,0,B|140:100|180:172|92:192,2,180,2|2|2,0:0|0:0|0:0,0:0:0:0:
256,148,9466,1,2,0:0:0:0:
256,284,10029,6,0,P|200:324|136:324,1,135,8|8,0:0|0:0,0:0:0:0:
84,252,10966,2,0,P|59:210|55:170,1,90,2|0,0:0|0:0,0:0:0:0:
145,185,11716,2,0,P|139:140|116:102,2,90,2|0|2,0:0|0:0|0:0,0:0:0:0:
255,284,13029,6,0,P|308:322|375:323,1,135,8|8,0:0|0:0,0:0:0:0:
440,260,13966,1,8,0:0:0:0:
380,192,14341,2,0,P|348:156|348:116,1,90,8|8,0:0|0:0,0:0:0:0:
312,36,15091,2,0,P|264:32|224:44,2,90,8|8|4,0:0|0:0|0:0,0:0:0:0:
430,103,28404,5,2,0:0:0:0:
340,88,28779,2,0,P|272:72|212:92,2,135,2|0|0,0:0|0:0|0:0,0:0:0:0:
372,172,30279,1,2,0:0:0:0:
372,262,30654,1,2,0:0:0:0:
336,344,31029,6,0,P|292:356|248:348,1,90,0|2,0:0|0:0,0:0:0:0:
179,291,31779,2,0,P|115:291|55:327,2,135,2|0|2,0:0|0:0|0:0,0:0:0:0:
244,228,33279,1,8,0:0:0:0:
244,228,33654,1,8,0:0:0:0:
92,132,34404,5,2,0:0:0:0:
156,68,34779,2,0,P|216:44|284:56,1,135,2|0,0:0|0:0,0:0:0:0:
368,24,35716,2,0,P|415:67|434:133,1,135,0|2,0:0|0:0,0:0:0:0:
408,220,36654,1,2,0:0:0:0:
428,308,37029,5,0,0:0:0:0:
340,284,37404,1,2,0:0:0:0:
260,332,37779,2,0,P|200:356|136:328,2,135,2|0|2,0:0|0:0|0:0,0:0:0:0:
200,264,39279,1,8,0:0:0:0:
200,264,39654,1,8,0:0:0:0:
340,152,40404,6,0,P|352:108|344:64,1,90,2|2,0:0|0:0,0:0:0:0:
212,36,41341,1,0,0:0:0:0:
272,104,41716,2,0,P|208:128|148:100,1,135,0|2,0:0|0:0,0:0:0:0:
64,80,42654,1,2,0:0:0:0:
20,160,43029,6,0,L|32:252,1,90,0|2,0:0|0:0,0:0:0:0:
92,316,43779,2,0,P|156:348|216:328,2,135,2|0|2,0:0|0:0|0:0,0:0:0:0:
160,256,45279,1,8,0:0:0:0:
160,256,45654,1,8,0:0:0:0:
332,312,46404,6,0,L|360:224,1,90,2|2,0:0|0:0,0:0:0:0:
464,144,47341,1,0,0:0:0:0:
404,76,47716,2,0,P|341:100|275:93,1,135,0|2,0:0|0:0,0:0:0:0:
216,24,48653,1,2,0:0:0:0:
124,24,49029,5,0,0:0:0:0:
56,84,49404,1,2,0:0:0:0:
100,160,49779,2,0,P|120:200|120:244,1,90,2|0,0:0|0:0,0:0:0:0:
112,288,50341,1,2,0:0:0:0:
228,360,50904,5,0,0:0:0:0:
288,292,51279,1,8,0:0:0:0:
376,308,51654,2,0,P|417:332|456:325,1,90,8|4,0:0|0:0,0:0:0:0:
432,238,52404,2,0,B|432:148|432:148|392:128|392:128|392:84|392:84|352:60,1,225,8|8,0:0|0:0,0:0:0:0:
216,60,53904,5,0,0:0:0:0:
260,140,54279,1,8,0:0:0:0:
188,196,54654,2,0,P|140:188|104:204,1,90,8|2,0:0|0:0,0:0:0:0:
152,280,55404,2,0,B|208:296|240:268|240:268|276:288|276:288|324:288|324:288|352:320,1,225,8|8,0:0|0:0,0:0:0:0:
460,236,56904,5,0,0:0:0:0:
400,168,57279,1,8,0:0:0:0:
432,84,57654,1,8,0:0:0:0:
372,16,58029,2,0,B|316:72|252:12|208:72,1,180,4|8,0:0|0:0,0:0:0:0:
188,160,59154,1,0,0:0:0:0:
120,100,59529,6,0,P|69:83|23:19,2,135,8|8|0,0:0|0:0|0:0,0:0:0:0:
208,72,61029,1,8,0:0:0:0:
188,160,61404,2,0,B|136:200|84:180|84:180|48:232|72:288,1,225,8|8,0:0|0:0,0:0:0:0:
200,336,62904,6,0,P|236:320|288:320,1,90,0|8,0:0|0:0,0:0:0:0:
368,360,63654,2,0,P|412:360|453:343,1,90,8|4,0:0|0:0,0:0:0:0:
440,256,64404,2,0,B|408:172|408:172|364:156|364:156|380:116|380:116|364:72,1,225,8|8,0:0|0:0,0:0:0:0:
236,32,65904,6,0,L|188:112,1,90,0|8,0:0|0:0,0:0:0:0:
112,152,66654,2,0,L|64:232,1,90,8|2,0:0|0:0,0:0:0:0:
72,320,67404,2,0,B|100:364|136:372|136:372|160:328|160:328|200:348|200:348|248:348,1,225,8|8,0:0|0:0,0:0:0:0:
232,212,68904,5,0,0:0:0:0:
208,124,69279,2,0,P|208:80|232:40,1,90,8|8,0:0|0:0,0:0:0:0:
296,104,70029,2,0,B|304:160|304:160|328:192|328:232|297:276,1,180,4|8,0:0|0:0,0:0:0:0:
212,300,71154,1,0,0:0:0:0:
146,238,71529,6,0,P|130:166|130:106,2,135,8|8|0,0:0|0:0|0:0,0:0:0:0:
232,212,73029,1,8,0:0:0:0:
304,268,73404,1,8,0:0:0:0:
392,248,73779,2,0,P|438:224|479:149,1,135,0|8,0:0|0:0,0:0:0:0:
384,56,74904,5,0,0:0:0:0:
304,100,75279,1,8,0:0:0:0:
220,72,75654,1,8,0:0:0:0:
140,116,76029,6,0,P|96:136|72:172,1,90,4|8,0:0|0:0,0:0:0:0:
32,252,76779,1,8,0:0:0:0:
64,336,77154,1,0,0:0:0:0:
152,348,77529,1,0,0:0:0:0:
235,316,77904,2,0,P|275:296|320:295,1,90,8|0,0:0|0:0,0:0:0:0:
376,368,78654,6,0,P|420:367|460:348,1,90,8|6,0:0|0:0,0:0:0:0:
432,260,79404,1,8,0:0:0:0:
356,212,79779,1,8,0:0:0:0:
321,295,80154,1,0,0:0:0:0:
288,378,80529,2,0,P|333:382|376:367,2,90,0|8|0,0:0|0:0|0:0,0:0:0:0:
321,295,81654,6,0,P|277:283|232:282,1,90,8|6,0:0|0:0,0:0:0:0:
200,200,82404,2,0,P|289:200|376:224,1,180,8|2,0:0|0:0,0:0:0:0:
427,152,83529,6,0,P|297:115|162:116,1,270,8|2,0:0|0:0,0:0:0:0:
157,26,85029,2,0,P|315:28|466:70,1,315,8|2,0:0|0:0,0:0:0:0:
452,160,86716,6,0,L|460:204,2,45,2|2|8,0:0|0:0|0:0,0:0:0:0:
376,208,87466,2,0,L|368:252,2,45,0|2|2,0:0|0:0|0:0,0:0:0:0:
188,312,100404,5,2,0:0:0:0:
247,244,100779,2,0,P|234:179|181:141,2,135,2|0|0,0:0|0:0|0:0,0:0:0:0:
160,228,102279,1,2,0:0:0:0:
95,164,102654,1,2,0:0:0:0:
118,77,103029,6,0,P|157:56|202:54,1,90,0|2,0:0|0:0,0:0:0:0:
268,116,103779,2,0,P|332:116|392:80,2,135,2|0|2,0:0|0:0|0:0,0:0:0:0:
181,140,105279,1,8,0:0:0:0:
181,140,105654,1,8,0:0:0:0:
304,272,106404,5,2,0:0:0:0:
232,328,106779,2,0,P|284:360|355:348,1,135,2|0,0:0|0:0,0:0:0:0:
395,268,107716,2,0,P|371:211|307:179,1,135,0|2,0:0|0:0,0:0:0:0:
304,272,108654,1,2,0:0:0:0:
232,328,109029,5,0,0:0:0:0:
144,312,109404,1,2,0:0:0:0:
104,232,109779,2,0,P|128:172|100:108,2,135,2|0|2,0:0|0:0|0:0,0:0:0:0:
36,172,111279,1,8,0:0:0:0:
36,172,111654,1,8,0:0:0:0:
215,210,112404,6,0,P|259:222|303:214,1,90,2|2,0:0|0:0,0:0:0:0:
436,204,113341,1,0,0:0:0:0:
382,132,113716,2,0,P|320:107|260:133,1,135,0|2,0:0|0:0,0:0:0:0:
215,210,114654,1,2,0:0:0:0:
252,292,115029,6,0,P|288:264|303:223,1,90,0|2,0:0|0:0,0:0:0:0:
215,210,115779,2,0,P|149:218|95:176,2,135,2|0|2,0:0|0:0|0:0,0:0:0:0:
172,129,117279,1,8,0:0:0:0:
172,129,117654,1,8,0:0:0:0:
224,301,118404,6,0,L|312:329,1,90,2|2,0:0|0:0,0:0:0:0:
444,316,119341,1,0,0:0:0:0:
484,236,119716,2,0,P|449:178|396:136,1,135,0|2,0:0|0:0,0:0:0:0:
324,188,120653,1,2,0:0:0:0:
239,162,121029,5,0,0:0:0:0:
251,72,121404,1,2,0:0:0:0:
167,106,121779,2,0,P|149:147|152:191,1,90,2|0,0:0|0:0,0:0:0:0:
168,232,122341,1,2,0:0:0:0:
252,340,122904,5,0,0:0:0:0:
304,268,123279,1,8,0:0:0:0:
381,221,123654,2,0,P|428:220|458:194,1,90,8|4,0:0|0:0,0:0:0:0:
392,131,124404,2,0,B|339:55|339:55|303:80|303:80|277:44|277:44|241:70,1,225,8|8,0:0|0:0,0:0:0:0:
116,120,125904,5,0,0:0:0:0:
72,200,126279,1,8,0:0:0:0:
104,284,126654,2,0,P|144:266|188:275,1,90,8|2,0:0|0:0,0:0:0:0:
256,332,127404,2,0,B|348:332|348:332|380:360|380:360|416:332|416:332|416:288,1,225,8|8,0:0|0:0,0:0:0:0:
328,184,128904,6,0,P|293:217|251:227,1,90,0|8,0:0|0:0,0:0:0:0:
164,208,129654,1,8,0:0:0:0:
100,144,130029,2,0,B|144:84|208:144|264:88,1,180,4|8,0:0|0:0,0:0:0:0:
328,24,131154,1,0,0:0:0:0:
350,111,131529,6,0,P|385:167|447:192,2,135,8|8|0,0:0|0:0|0:0,0:0:0:0:
264,88,133029,1,8,0:0:0:0:
287,174,133404,2,0,B|220:184|188:132|188:132|128:104|92:168,1,225,8|8,0:0|0:0,0:0:0:0:
56,292,134904,6,0,P|92:276|144:276,1,90,0|8,0:0|0:0,0:0:0:0:
191,352,135654,2,0,P|235:352|276:335,1,90,8|4,0:0|0:0,0:0:0:0:
219,265,136404,2,0,B|281:200|281:200|320:224|320:224|356:196|356:196|400:196,1,225,8|8,0:0|0:0,0:0:0:0:
480,88,137904,6,0,L|392:68,1,90,0|8,0:0|0:0,0:0:0:0:
304,48,138654,2,0,L|216:68,1,90,8|2,0:0|0:0,0:0:0:0:
128,56,139404,2,0,B|92:100|56:108|56:108|40:148|40:148|52:192|52:192|36:236,1,225,8|8,0:0|0:0,0:0:0:0:
136,328,140904,5,0,0:0:0:0:
204,267,141279,2,0,P|248:268|286:290,1,90,8|8,0:0|0:0,0:0:0:0:
352,352,142029,2,0,B|380:316|380:288|368:256|368:256|416:192,1,180,4|8,0:0|0:0,0:0:0:0:
472,124,143154,1,0,0:0:0:0:
383,108,143529,6,0,P|328:148|264:138,2,135,8|8|0,0:0|0:0|0:0,0:0:0:0:
308,60,145029,1,8,0:0:0:0:
220,36,145404,1,8,0:0:0:0:
136,72,145779,2,0,P|112:132|136:196,1,135,0|8,0:0|0:0,0:0:0:0:
68,312,146904,5,0,0:0:0:0:
148,352,147279,1,8,0:0:0:0:
212,288,147654,1,8,0:0:0:0:
296,328,148029,6,0,P|336:309|361:272,1,90,4|8,0:0|0:0,0:0:0:0:
444,240,148779,1,8,0:0:0:0:
446,150,149154,1,0,0:0:0:0:
470,62,149529,2,0,P|425:62|385:82,1,90,8|0,0:0|0:0,0:0:0:0:
357,117,150091,2,0,P|316:98|271:99,1,90,8|0,0:0|0:0,0:0:0:0:
244,136,150654,6,0,P|203:155|159:156,1,90,8|6,0:0|0:0,0:0:0:0:
95,92,151404,1,8,0:0:0:0:
184,69,151779,1,8,0:0:0:0:
244,136,152154,1,0,0:0:0:0:
316,192,152529,2,0,P|359:199|395:224,1,90,8|0,0:0|0:0,0:0:0:0:
381,267,153091,2,0,P|338:280|293:282,1,90,8|0,0:0|0:0,0:0:0:0:
248,276,153654,6,0,P|216:308|193:347,1,90,8|6,0:0|0:0,0:0:0:0:
106,334,154404,2,0,P|149:256|212:191,1,180,8|2,0:0|0:0,0:0:0:0:
173,112,155529,6,0,P|77:207|13:326,1,270,8|2,0:0|0:0,0:0:0:0:
256,192,157029,12,2,159466,0:0:0:0:
68,152,160029,6,0,P|124:112|188:100,1,135.000005149842,2|0,0:0|0:0,0:0:0:0:
323,100,161529,2,0,P|389:112|444:152,1,135.000005149842,2|0,0:0|0:0,0:0:0:0:
468,216,162654,1,2,0:0:0:0:
464,284,163029,1,2,0:0:0:0:
336,324,163779,6,0,P|272:304|204:312,2,135.000005149842
400,348,165654,2,0,P|416:352|436:348,2,33.7500012874604,2|2|2,0:0|0:0|0:0,0:0:0:0:
304,252,166779,6,0,B|268:236|256:208|256:208|244:236|204:252,1,135.000005149842,2|2,0:0|0:0,0:0:0:0:
195,150,168091,2,0,B|211:134|235:122|275:122|299:134|319:150,1,135.000005149842,0|2,0:0|0:0,0:0:0:0:
256,192,169029,12,0,171091,0:0:0:0:
184,48,194904,5,0,0:0:0:0:
216,132,195279,1,8,0:0:0:0:
300,164,195654,1,8,0:0:0:0:
352,236,196029,2,0,P|324:272|284:288,1,90,4|8,0:0|0:0,0:0:0:0:
240,280,196591,2,0,B|196:240|164:284|116:240,1,135,8|0,0:0|0:0,0:0:0:0:
80,212,197341,1,8,0:0:0:0:
156,100,197904,5,0,0:0:0:0:
244,108,198279,1,8,0:0:0:0:
304,40,198654,1,8,0:0:0:0:
392,48,199029,2,0,L|416:136,1,90,2|8,0:0|0:0,0:0:0:0:
412,180,199591,2,0,B|388:216|388:216|396:264|352:296,1,135,8|0,0:0|0:0,0:0:0:0:
312,316,200341,1,8,0:0:0:0:
176,324,200904,5,0,0:0:0:0:
88,348,201279,1,8,0:0:0:0:
28,280,201654,1,8,0:0:0:0:
60,196,202029,2,0,P|88:160|88:116,1,90,4|8,0:0|0:0,0:0:0:0:
108,76,202591,2,0,P|148:68|188:32,1,90,8|0,0:0|0:0,0:0:0:0:
220,64,203154,2,0,P|264:80|304:64,1,90,8|8,0:0|0:0,0:0:0:0:
434,37,204091,6,0,L|454:129,1,90,8|0,0:0|0:0,0:0:0:0:
481,160,204654,1,8,0:0:0:0:
461,247,205029,2,0,L|385:297,1,90,0|8,0:0|0:0,0:0:0:0:
362,335,205591,2,0,L|271:340,1,90,8|0,0:0|0:0,0:0:0:0:
184,324,206341,1,8,0:0:0:0:
284,232,206904,5,0,0:0:0:0:
236,156,207279,1,8,0:0:0:0:
308,104,207654,1,8,0:0:0:0:
260,28,208029,2,0,P|214:26|176:46,1,90,4|8,0:0|0:0,0:0:0:0:
138,70,208591,2,0,B|98:114|142:146|98:194,1,135,8|0,0:0|0:0,0:0:0:0:
62,222,209341,1,8,0:0:0:0:
116,344,209904,5,0,0:0:0:0:
205,341,210279,1,8,0:0:0:0:
278,290,210654,1,8,0:0:0:0:
240,208,211029,2,0,L|264:120,1,90,2|8,0:0|0:0,0:0:0:0:
304,100,211591,2,0,B|340:76|340:76|388:88|428:40,1,135,8|0,0:0|0:0,0:0:0:0:
458,20,212341,1,8,0:0:0:0:
488,152,212904,5,0,0:0:0:0:
456,236,213279,1,8,0:0:0:0:
392,300,213654,1,8,0:0:0:0:
308,332,214029,2,0,P|280:296|280:252,1,90,4|8,0:0|0:0,0:0:0:0:
240,232,214591,2,0,P|200:240|160:276,1,90,8|0,0:0|0:0,0:0:0:0:
127,300,215154,2,0,P|86:314|45:298,1,90,8|8,0:0|0:0,0:0:0:0:
45,164,216091,6,0,L|117:104,1,90,8|0,0:0|0:0,0:0:0:0:
158,94,216654,1,8,0:0:0:0:
232,144,217029,2,0,P|276:128|320:132,1,90,0|8,0:0|0:0,0:0:0:0:
348,168,217591,2,8,L|348:260,1,90,8|0,0:0|0:0,0:0:0:0:
348,348,218341,1,8,0:0:0:0:
212,352,218904,6,0,P|168:336|124:344,1,90,2|8,0:0|0:0,0:0:0:0:
84,352,219466,2,0,L|44:376,2,45,8|8|8,0:0|0:0|0:0,0:0:0:0:
96,308,220029,6,0,P|92:260|80:220,1,90,4|8,0:0|0:0,0:0:0:0:
41,138,220779,1,8,0:0:0:0:
80,56,221154,1,0,0:0:0:0:
168,80,221529,2,0,L|260:68,1,90,8|0,0:0|0:0,0:0:0:0:
296,92,222091,2,0,L|388:80,1,90,8|0,0:0|0:0,0:0:0:0:
424,104,222654,6,0,P|460:120|485:164,1,90,8|6,0:0|0:0,0:0:0:0:
468,252,223404,1,8,0:0:0:0:
400,192,223779,1,8,0:0:0:0:
384,280,224154,1,0,0:0:0:0:
452,340,224529,2,0,P|418:368|373:370,1,90,8|0,0:0|0:0,0:0:0:0:
332,356,225091,2,0,L|244:336,1,90,8|0,0:0|0:0,0:0:0:0:
208,312,225654,6,0,P|168:288|124:288,1,90,8|6,0:0|0:0,0:0:0:0:
64,352,226404,2,0,P|24:272|32:184,1,180,8|2,0:0|0:0,0:0:0:0:
92,116,227529,2,0,P|68:56|4:32,2,135,8|8|2,0:0|0:0|0:0,0:0:0:0:
120,204,229029,5,8,0:0:0:0:
208,228,229404,1,0,0:0:0:0:
284,180,229779,2,0,P|304:140|340:108,1,90,8|0,0:0|0:0,0:0:0:0:
384,108,230341,2,0,L|460:160,1,90,8|8,0:0|0:0,0:0:0:0:
484,244,231091,2,0,P|476:288|444:320,1,90,0|8,0:0|0:0,0:0:0:0:
400,324,231654,1,8,0:0:0:0:
313,298,232029,5,4,0:0:0:0:
228,328,232404,2,0,P|181:313|141:318,1,90,8|0,0:0|0:0,0:0:0:0:
105,345,232966,2,0,L|71:261,1,90,8|8,0:0|0:0,0:0:0:0:
104,176,233716,1,0,0:0:0:0:
192,196,234091,2,0,B|244:224|272:152|324:172,1,135,8|8,0:0|0:0,0:0:0:0:
396,128,235029,5,0,0:0:0:0:
448,56,235404,2,0,P|401:41|361:46,1,90,8|0,0:0|0:0,0:0:0:0:
316,52,235966,2,0,L|225:42,1,90,8|8,0:0|0:0,0:0:0:0:
136,52,236716,1,0,0:0:0:0:
72,116,237091,1,8,0:0:0:0:
116,196,237466,6,0,P|164:232|164:304,1,135,2|8,0:0|0:0,0:0:0:0:
236,360,238404,2,0,P|265:326|306:308,1,90,8|0,0:0|0:0,0:0:0:0:
348,324,238966,2,0,L|380:239,1,90,8|8,0:0|0:0,0:0:0:0:
444,176,239716,1,0,0:0:0:0:
448,88,240091,2,0,B|401:69|373:141|321:113,1,135,8|8,0:0|0:0,0:0:0:0:
264,48,241029,6,0,P|217:33|177:38,1,90,0|8,0:0|0:0,0:0:0:0:
212,120,241779,1,8,0:0:0:0:
184,156,241966,2,0,L|128:228,1,90,0|8,0:0|0:0,0:0:0:0:
60,344,242904,2,0,P|28:304|20:264,2,90,0|8|8,0:0|0:0|0:0,0:0:0:0:
148,336,244029,6,0,P|188:320|236:320,1,90,4|8,0:0|0:0,0:0:0:0:
316,356,244779,1,8,0:0:0:0:
400,324,245154,1,0,0:0:0:0:
452,252,245529,2,0,P|436:212|444:164,1,90,8|0,0:0|0:0,0:0:0:0:
462,126,246091,2,0,P|434:94|386:82,1,90,8|0,0:0|0:0,0:0:0:0:
348,100,246654,6,0,P|308:120|264:120,1,90,8|6,0:0|0:0,0:0:0:0:
188,168,247404,1,8,0:0:0:0:
220,252,247779,1,8,0:0:0:0:
164,320,248154,1,0,0:0:0:0:
76,336,248529,2,0,P|56:296|60:252,1,90,8|0,0:0|0:0,0:0:0:0:
92,220,249091,2,0,P|112:180|108:136,1,90,8|0,0:0|0:0,0:0:0:0:
76,104,249654,6,0,P|56:64|60:20,1,90,8|4,0:0|0:0,0:0:0:0:
145,46,250404,2,0,P|232:64|316:32,1,180,8|2,0:0|0:0,0:0:0:0:
400,64,251529,6,0,P|301:161|171:170,1,270,8|2,0:0|0:0,0:0:0:0:
136,252,253029,2,0,P|293:278|433:220,1,315,8|2,0:0|0:0,0:0:0:0:
416,132,254716,6,0,L|424:88,2,45,2|2|8,0:0|0:0|0:0,0:0:0:0:
332,100,255466,2,0,L|328:56,2,45,0|2|2,0:0|0:0|0:0,0:0:0:0:
164,40,256591,6,0,B|116:68|116:68|116:100|116:100|92:116|92:116|92:180,1,180,2|0,0:0|0:0,0:0:0:0:
256,256,258091,1,8,0:0:0:0:
420,180,258841,6,0,B|420:116|420:116|396:100|396:100|396:68|396:68|348:40,1,180,2|0,0:0|0:0,0:0:0:0:
256,196,260341,2,0,L|256:331,1,135,0|2,0:0|0:0,0:0:0:0:
296,352,261091,2,0,P|340:364|384:352,2,90,8|8|8,0:0|0:0|0:0,0:0:0:0:
256,331,262029,6,0,L|168:315,1,90,0|2,0:0|0:0,0:0:0:0:
92,268,262779,1,8,0:0:0:0:
164,104,263529,2,0,P|136:64|100:44,2,90,0|2|8,0:0|0:0|0:0,0:0:0:0:
224,172,264654,1,0,0:0:0:0:
284,240,265029,6,0,P|312:280|348:300,2,90,0|2|8,0:0|0:0|0:0,0:0:0:0:
284,104,266341,2,0,P|288:60|269:20,1,90,8|8,0:0|0:0,0:0:0:0:
196,76,267091,1,8,0:0:0:0:
