osu file format v12

[General]
AudioFilename: Sora no hikari.mp3
AudioLeadIn: 2000
PreviewTime: 72565
Countdown: 0
SampleSet: Soft
StackLeniency: 0.4
Mode: 0
LetterboxInBreaks: 0

[Editor]
DistanceSpacing: 1.2
BeatDivisor: 4
GridSize: 4

[Metadata]
Title:Sora no Hikari
TitleUnicode:宙のヒカリ
Artist:Chata
ArtistUnicode:茶太
Creator:remy11
Version:Insane
Source:Hoshizora no Memoria -Eternal Heart-
Tags:guy galgame
BeatmapID:219511
BeatmapSetID:51602

[Difficulty]
HPDrainRate:8
CircleSize:4
OverallDifficulty:7
ApproachRate:8
SliderMultiplier:1.8
SliderTickRate:1

[Events]
//Background and Video events
0,0,"BG.jpg",0,0
//Break Periods
2,26145,37001
2,100219,108852
//Storyboard Layer 0 (Background)
//Storyboard Layer 1 (Fail)
//Storyboard Layer 2 (Pass)
//Storyboard Layer 3 (Foreground)
//Storyboard Sound Samples
//Background Colour Transformations
3,100,163,162,255

[TimingPoints]
714,370.37037037037,4,2,1,40,1,0
714,-133.333333333333,4,2,1,40,0,0
18491,-200,4,2,1,40,0,0
25899,-100,4,2,2,60,0,0
61454,-133.333333333333,4,2,2,60,0,0
71454,-100,4,2,2,60,0,0
73306,-100,4,2,2,70,0,1
97010,-100,4,2,2,60,0,1
99973,-100,4,2,2,30,0,0
109602,-100,4,2,2,60,0,0
132565,-133.333333333333,4,2,2,60,0,0
142936,-100,4,2,2,60,0,0
144417,-100,4,2,2,70,0,1
171084,-100,4,2,2,70,0,0

[Colours]
Combo1 : 250,210,140
Combo2 : 255,128,255

[HitObjects]
48,272,714,6,0,B|92:332|172:320,1,134.999995976687,4|0,0:0|0:0,0:0:0:0:
244,212,1454,1,0,0:0:0:0:
360,280,1825,1,0,0:0:0:0:
476,212,2195,2,0,B|483:140|417:98,1,134.999995976687
292,152,2936,1,0,0:0:0:0:
184,68,3306,1,0,0:0:0:0:
124,188,3676,6,0,B|160:194|185:162,2,67.4999979883433,4|0|0,0:0|0:0|0:0,0:0:0:0:
76,236,4232,2,0,B|88:308|168:328,1,134.999995976687
232,336,4788,1,0,0:0:0:0:
300,328,4973,1,0,0:0:0:0:
352,284,5158,2,0,B|408:236,1,67.4999979883433
452,196,5528,2,0,B|404:140,1,67.4999979883433
364,92,5899,2,0,B|296:116|240:56,1,134.999995976687
241,58,6454,1,0,0:0:0:0:
200,112,6639,6,0,B|188:188|111:202,1,134.999995976687,4|0,0:0|0:0,0:0:0:0:
44,204,7195,1,0,0:0:0:0:
156,36,7565,1,0,0:0:0:0:
268,204,7936,1,0,0:0:0:0:
232,260,8121,6,0,B|252:328|332:352,1,134.999995976687,0|0,0:0|0:0,0:0:0:0:
380,308,8676,1,0,0:0:0:0:
444,328,8862,2,0,B|477:265|438:192,1,134.999995976687
441,198,9417,1,0,0:0:0:0:
416,136,9602,6,0,B|464:80,2,67.4999979883433
360,100,10158,2,0,B|284:80|232:124,1,134.999995976687
184,168,10713,1,0,0:0:0:0:
156,228,10899,1,0,0:0:0:0:
200,280,11084,2,0,B|236:336|324:320,2,134.999995976687
76,228,12195,1,0,0:0:0:0:
120,100,12565,6,0,B|104:68|68:48,2,67.4999979883433,4|0|0,0:0|0:0|0:0,0:0:0:0:
164,152,13121,2,0,B|240:184|288:132,1,134.999995976687
332,80,13676,1,0,0:0:0:0:
396,100,13862,1,0,0:0:0:0:
444,148,14047,2,0,B|424:220|340:212,1,134.999995976687
368,272,14602,2,0,B|302:308|248:244,1,134.999995976687
200,196,15158,1,0,0:0:0:0:
180,132,15343,1,0,0:0:0:0:
224,80,15528,6,0,B|172:24,2,67.4999979883433,4|0|0,0:0|0:0|0:0,0:0:0:0:
264,136,16084,2,0,B|240:208|152:180,1,134.999995976687
96,148,16639,2,0,B|56:156|36:184,1,67.4999979883433
28,248,17010,2,0,B|72:312|148:288,1,134.999995976687
204,252,17565,1,0,0:0:0:0:
256,208,17751,2,0,B|332:212|357:284,1,134.999995976687
392,340,18306,1,0,0:0:0:0:
432,284,18491,6,0,B|488:200,1,90,4|0,0:0|0:0,0:0:0:0:
372,132,19232,2,0,B|316:216,1,90
212,128,19973,1,0,0:0:0:0:
92,192,20343,6,0,B|128:288|244:264,1,180
352,192,21454,1,4,0:0:0:0:
256,192,22565,5,0,0:0:0:0:
256,192,22936,1,0,0:0:0:0:
256,192,23676,12,4,25899,0:0:0:0:
256,192,37751,5,4,0:0:0:0:
80,100,38491,2,0,B|108:60|164:64,1,90,2|0,0:0|0:0,0:0:0:0:
188,168,38862,2,0,B|216:208|272:204,1,90,8|0,0:0|0:0,0:0:0:0:
352,140,39232,1,2,0:0:0:0:
352,140,39417,1,0,0:0:0:0:
452,176,39602,1,8,0:0:0:0:
452,176,39788,1,0,0:0:0:0:
464,284,39973,2,0,B|437:321|386:332,1,90,2|0,0:0|0:0,0:0:0:0:
328,244,40343,2,0,B|276:324,1,90,8|0,0:0|0:0,0:0:0:0:
172,316,40713,6,0,B|144:212|228:160,1,180,2|8,0:0|0:0,0:0:0:0:
236,268,41269,2,0,B|142:214|165:118,1,180
244,80,41825,1,8,0:0:0:0:
76,148,42010,1,0,0:0:0:0:
20,240,42195,6,0,B|52:280|100:288,1,90,2|0,0:0|0:0,0:0:0:0:
188,232,42565,2,0,B|220:320,1,90,8|0,0:0|0:0,0:0:0:0:
324,336,42936,2,0,B|356:376|404:384,2,90,2|0|8,0:0|0:0|0:0,0:0:0:0:
320,228,43491,1,0,0:0:0:0:
320,228,43584,1,0,0:0:0:0:
320,228,43676,6,0,B|428:256|472:156,1,180,6|8,0:0|0:0,0:0:0:0:
396,80,44232,1,0,0:0:0:0:
300,124,44417,2,0,B|252:128|212:96,1,90,2|0,0:0|0:0,0:0:0:0:
215,98,44788,1,8,0:0:0:0:
192,312,45158,6,0,B|240:228|356:260,1,180,2|8,0:0|0:0,0:0:0:0:
424,336,45713,1,0,0:0:0:0:
484,244,45899,1,2,0:0:0:0:
444,144,46084,1,0,0:0:0:0:
356,80,46269,1,8,0:0:0:0:
264,136,46454,1,0,0:0:0:0:
264,136,46547,1,0,0:0:0:0:
264,136,46639,6,0,B|160:172|104:88,1,180,2|8,0:0|0:0,0:0:0:0:
200,40,47195,1,0,0:0:0:0:
300,80,47380,1,2,0:0:0:0:
344,176,47565,1,0,0:0:0:0:
332,284,47751,2,0,B|316:328|264:348,1,90,8|0,0:0|0:0,0:0:0:0:
172,304,48121,5,2,0:0:0:0:
68,332,48306,1,0,0:0:0:0:
48,224,48491,1,8,0:0:0:0:
152,196,48676,1,0,0:0:0:0:
248,244,48862,1,2,0:0:0:0:
300,152,49047,1,8,0:0:0:0:
232,68,49232,2,0,B|304:8|408:48,1,180,8|6,0:0|0:0,0:0:0:0:
416,260,49973,6,0,B|400:304|348:320,1,90,8|0,0:0|0:0,0:0:0:0:
288,232,50343,2,0,B|188:200|120:284,1,180,2|8,0:0|0:0,0:0:0:0:
196,360,50899,1,0,0:0:0:0:
288,300,51084,1,2,0:0:0:0:
248,200,51269,1,0,0:0:0:0:
140,200,51454,1,8,0:0:0:0:
100,300,51639,1,0,0:0:0:0:
204,272,51825,2,0,B|296:240,1,90,2|0,0:0|0:0,0:0:0:0:
300,136,52195,2,0,B|208:168,1,90,8|0,0:0|0:0,0:0:0:0:
140,88,52565,6,0,B|88:88|48:56,2,90,2|0|8,0:0|0:0|0:0,0:0:0:0:
236,36,53121,2,0,B|336:16|400:96,1,180
420,180,53676,1,8,0:0:0:0:
420,180,53862,1,0,0:0:0:0:
332,160,54047,1,2,0:0:0:0:
332,160,54232,1,0,0:0:0:0:
252,196,54417,2,0,B|192:208|168:172,1,90,8|0,0:0|0:0,0:0:0:0:
92,100,54788,5,10,0:0:0:0:
184,40,54973,1,0,0:0:0:0:
287,70,55158,2,0,B|375:114|363:226,1,180,8|6,0:0|0:0,0:0:0:0:
40,260,55899,5,8,0:0:0:0:
40,260,56084,2,0,B|80:356|196:328,1,180
272,264,56639,2,0,B|256:220|204:200,2,90,8|0|2,0:0|0:0|0:0,0:0:0:0:
272,264,57195,1,0,0:0:0:0:
364,324,57380,6,0,B|416:320|440:272,1,90,8|0,0:0|0:0,0:0:0:0:
476,176,57751,2,0,B|498:128|468:84,1,90,2|0,0:0|0:0,0:0:0:0:
372,52,58121,2,0,B|320:56|296:104,1,90,8|0,0:0|0:0,0:0:0:0:
364,184,58491,1,2,0:0:0:0:
280,252,58676,1,0,0:0:0:0:
172,264,58862,1,8,0:0:0:0:
76,220,59047,1,0,0:0:0:0:
24,128,59232,6,0,P|32:88|68:56,1,90,2|0,0:0|0:0,0:0:0:0:
172,80,59602,1,8,0:0:0:0:
172,80,59788,1,0,0:0:0:0:
268,32,59973,2,0,P|308:40|340:76,1,90,2|0,0:0|0:0,0:0:0:0:
316,180,60343,1,8,0:0:0:0:
316,180,60528,1,0,0:0:0:0:
376,272,60713,2,0,P|336:340|240:352,1,180,2|8,0:0|0:0,0:0:0:0:
241,352,61269,1,0,0:0:0:0:
140,316,61454,5,4,0:0:0:0:
28,200,61825,1,0,0:0:0:0:
176,140,62195,1,0,0:0:0:0:
288,256,62565,1,8,0:0:0:0:
340,316,62751,1,0,0:0:0:0:
376,244,62936,2,0,B|384:168|468:148,1,134.999995976687,4|0,0:0|0:0,0:0:0:0:
459,150,63491,1,0,0:0:0:0:
444,72,63676,2,0,B|374:40|314:103,1,134.999995976687,0|8,0:0|0:0,0:0:0:0:
256,148,64232,1,0,0:0:0:0:
192,196,64417,6,0,B|120:196,1,67.4999979883433,4|0,0:0|0:0,0:0:0:0:
92,272,64788,2,0,B|164:272,1,67.4999979883433
224,320,65158,2,0,B|272:272,1,67.4999979883433
352,284,65528,1,8,0:0:0:0:
432,300,65713,1,0,0:0:0:0:
492,244,65899,6,0,B|492:168|492:168|440:120,1,134.999995976687,4|0,0:0|0:0,0:0:0:0:
388,72,66454,1,0,0:0:0:0:
308,72,66639,2,0,B|232:72|232:72|184:124,1,134.999995976687,0|8,0:0|0:0,0:0:0:0:
140,176,67195,1,0,0:0:0:0:
84,236,67380,6,0,B|100:312|180:320,1,134.999995976687,4|0,0:0|0:0,0:0:0:0:
256,176,68121,2,0,B|332:192|340:272,1,134.999995976687,0|8,0:0|0:0,0:0:0:0:
204,252,68862,1,0,0:0:0:0:
308,132,69232,1,0,0:0:0:0:
116,192,69602,1,0,0:0:0:0:
396,192,69973,5,8,0:0:0:0:
396,192,70343,2,0,B|380:260|300:276,1,134.999995976687,4|0,0:0|0:0,0:0:0:0:
256,208,70899,2,0,B|189:228|135:166,1,134.999995976687,0|0,0:0|0:0,0:0:0:0:
76,80,71454,2,0,B|112:48|168:52,1,90,12|0,0:0|0:0,0:0:0:0:
256,100,71825,5,8,0:0:0:0:
200,192,72010,1,2,0:0:0:0:
300,232,72195,1,8,0:0:0:0:
260,332,72380,1,2,0:0:0:0:
152,343,72565,6,0,B|56:343,2,90,8|0|0,0:0|0:0|0:0,0:0:0:0:
112,240,73121,1,0,0:0:0:0:
112,240,73306,2,0,B|56:236|36:192,1,90,6|0,0:0|0:0,0:0:0:0:
112,116,73676,5,8,0:0:0:0:
112,116,73862,2,0,B|164:32|276:48,1,180
256,180,74417,1,8,0:0:0:0:
352,232,74602,1,0,0:0:0:0:
460,232,74788,1,2,0:0:0:0:
424,336,74973,1,0,0:0:0:0:
316,336,75158,2,0,B|220:336,1,90,8|0,0:0|0:0,0:0:0:0:
136,280,75528,6,0,B|84:280|56:324,2,90,2|0|8,0:0|0:0|0:0,0:0:0:0:
240,248,76084,2,0,B|220:144|112:144,1,180
68,48,76639,1,8,0:0:0:0:
68,48,76825,2,0,B|252:48,1,180,0|0,0:0|0:0,0:0:0:0:
356,48,77380,5,8,0:0:0:0:
296,136,77565,1,0,0:0:0:0:
384,64,77751,1,2,0:0:0:0:
376,200,77936,1,0,0:0:0:0:
416,72,78121,1,8,0:0:0:0:
480,220,78306,1,0,0:0:0:0:
404,296,78491,6,0,B|316:348|236:260,2,180,2|8|2,0:0|0:0|0:0,0:0:0:0:
404,296,79417,1,0,0:0:0:0:
440,196,79602,2,0,B|456:144|504:124,1,90,8|0,0:0|0:0,0:0:0:0:
436,36,79973,2,0,B|384:52|364:100,1,90,2|0,0:0|0:0,0:0:0:0:
292,168,80343,5,8,0:0:0:0:
252,268,80528,1,0,0:0:0:0:
164,208,80714,2,0,B|60:216|16:300,1,180,2|8,0:0|0:0,0:0:0:0:
164,136,81454,2,0,B|268:144|312:228,1,180,2|8,0:0|0:0,0:0:0:0:
440,52,82195,6,0,B|412:88|352:80,1,90,2|0,0:0|0:0,0:0:0:0:
288,160,82565,1,8,0:0:0:0:
288,160,82751,2,0,B|340:240|452:228,1,180
496,324,83306,1,8,0:0:0:0:
364,344,83491,1,0,0:0:0:0:
272,284,83676,6,0,B|220:292|192:328,1,90,2|0,0:0|0:0,0:0:0:0:
100,272,84047,2,0,B|108:220|144:192,1,90,10|0,0:0|0:0,0:0:0:0:
216,116,84417,1,2,0:0:0:0:
328,188,84602,1,0,0:0:0:0:
216,192,84788,1,8,0:0:0:0:
328,116,84973,1,0,0:0:0:0:
328,116,85158,6,0,B|372:104|420:108,1,90,6|0,0:0|0:0,0:0:0:0:
420,216,85528,1,8,0:0:0:0:
420,216,85714,1,0,0:0:0:0:
364,308,85899,2,0,B|324:272|272:288,1,90,2|0,0:0|0:0,0:0:0:0:
180,324,86269,2,0,B|144:284|160:232,1,90,8|0,0:0|0:0,0:0:0:0:
136,136,86639,2,0,B|56:80,2,90,2|0|8,0:0|0:0|0:0,0:0:0:0:
136,136,87195,1,0,0:0:0:0:
224,76,87380,5,2,0:0:0:0:
260,176,87565,1,0,0:0:0:0:
368,176,87751,1,8,0:0:0:0:
464,128,87936,2,0,B|492:172|488:220|464:260|412:276,1,180
312,312,88491,1,8,0:0:0:0:
312,312,88676,2,0,B|208:300|144:372,1,180
60,308,89232,2,0,B|96:272|92:220,1,90,8|0,0:0|0:0,0:0:0:0:
28,140,89602,5,2,0:0:0:0:
172,64,89788,1,0,0:0:0:0:
64,48,89973,1,8,0:0:0:0:
152,184,90158,1,0,0:0:0:0:
260,184,90343,2,0,B|348:184,1,90,2|0,0:0|0:0,0:0:0:0:
460,184,90714,5,8,0:0:0:0:
376,288,90899,1,0,0:0:0:0:
268,292,91084,2,0,B|164:276|96:344,1,180,6|8,0:0|0:0,0:0:0:0:
40,240,91639,2,0,B|28:140|92:68,1,180
188,28,92195,5,8,0:0:0:0:
316,68,92380,1,0,0:0:0:0:
256,160,92565,2,0,B|224:192|160:192,2,90,6|0|8,0:0|0:0|0:0,0:0:0:0:
256,160,93121,1,0,0:0:0:0:
460,232,93491,6,0,B|440:336|320:320,1,180,8|0,0:0|0:0,0:0:0:0:
327,320,94047,1,14,0:0:0:0:
256,192,94232,12,0,95899,0:0:0:0:
166,192,96269,5,8,0:0:0:0:
346,192,96454,1,8,0:0:0:0:
256,192,96639,1,8,0:0:0:0:
256,192,96732,1,8,0:0:0:0:
256,192,96825,1,8,0:0:0:0:
256,192,96917,1,8,0:0:0:0:
256,192,97010,1,12,0:0:0:0:
256,192,97102,12,12,99973,0:0:0:0:
64,232,109602,6,0,B|96:324|216:328,1,180,2|8,0:0|0:0,0:0:0:0:
460,136,110343,2,0,B|428:44|308:40,2,180,2|8|2,0:0|0:0|0:0,0:0:0:0:
356,172,111269,1,0,0:0:0:0:
388,276,111454,1,8,0:0:0:0:
284,252,111639,1,0,0:0:0:0:
284,252,111732,1,0,0:0:0:0:
284,252,111825,6,0,B|208:308|108:284,1,180,2|8,0:0|0:0,0:0:0:0:
160,364,112380,2,0,B|216:288|192:188,1,180
156,108,112936,1,8,0:0:0:0:
76,216,113121,1,0,0:0:0:0:
208,240,113306,2,0,B|280:296,1,90,2|0,0:0|0:0,0:0:0:0:
372,240,113676,2,0,B|300:184,1,90,8|0,0:0|0:0,0:0:0:0:
208,240,114047,6,0,B|152:312,2,90,2|0|8,0:0|0:0|0:0,0:0:0:0:
116,176,114602,1,0,0:0:0:0:
116,176,114695,1,0,0:0:0:0:
116,176,114788,2,0,B|160:92|264:84,1,180,6|8,0:0|0:0,0:0:0:0:
368,96,115343,2,0,B|424:88|448:36,2,90,0|2|0,0:0|0:0|0:0,0:0:0:0:
328,196,115899,6,0,B|368:228|420:216,1,90,8|0,0:0|0:0,0:0:0:0:
304,212,116269,2,0,B|296:262|332:301,1,90,2|0,0:0|0:0,0:0:0:0:
264,208,116639,2,0,B|216:226|200:277,1,90,8|0,0:0|0:0,0:0:0:0:
108,320,117010,2,0,B|60:301|44:250,1,90,2|0,0:0|0:0,0:0:0:0:
72,152,117380,1,8,0:0:0:0:
72,152,117473,1,0,0:0:0:0:
72,152,117565,1,0,0:0:0:0:
72,152,117658,1,0,0:0:0:0:
72,152,117751,6,0,B|112:56|212:44,1,180,2|8,0:0|0:0,0:0:0:0:
308,84,118306,1,0,0:0:0:0:
248,176,118491,1,2,0:0:0:0:
308,264,118676,1,0,0:0:0:0:
272,368,118862,2,0,B|224:384|180:348,1,90,8|0,0:0|0:0,0:0:0:0:
124,268,119232,6,0,B|68:260|40:304,2,90,2|0|8,0:0|0:0|0:0,0:0:0:0:
232,268,119788,2,0,B|288:260|316:304,2,90,0|2|8,0:0|0:0|0:0,0:0:0:0:
176,176,120343,1,8,0:0:0:0:
176,148,120436,1,0,0:0:0:0:
176,120,120528,1,0,0:0:0:0:
176,92,120621,1,0,0:0:0:0:
176,64,120714,1,6,0:0:0:0:
392,64,121084,6,0,B|412:108|464:128,1,90,8|0,0:0|0:0,0:0:0:0:
460,232,121454,1,2,0:0:0:0:
460,232,121639,2,0,B|440:276|388:296,1,90,0|8,0:0|0:0,0:0:0:0:
304,236,122010,1,0,0:0:0:0:
204,280,122195,2,0,B|112:280|112:280|40:220,1,180,2|8,0:0|0:0,0:0:0:0:
44,223,122751,1,0,0:0:0:0:
124,152,122936,2,0,B|191:95|191:95|283:95,1,180,2|8,0:0|0:0,0:0:0:0:
283,95,123491,1,0,0:0:0:0:
380,144,123676,6,0,B|424:136|444:88,2,90,2|0|8,0:0|0:0|0:0,0:0:0:0:
380,144,124232,1,0,0:0:0:0:
296,212,124417,2,0,B|348:288,1,90,2|0,0:0|0:0,0:0:0:0:
248,328,124788,2,0,B|156:328,1,90,8|0,0:0|0:0,0:0:0:0:
52,328,125158,5,2,0:0:0:0:
150,76,125528,1,8,0:0:0:0:
248,328,125899,1,2,0:0:0:0:
152,200,126269,5,8,0:0:0:0:
152,200,126639,2,0,B|258:224|314:138,1,180,6|8,0:0|0:0,0:0:0:0:
348,224,127195,2,0,B|239:219|207:122,1,180
152,200,127751,1,8,0:0:0:0:
168,296,127936,1,0,0:0:0:0:
260,348,128121,1,2,0:0:0:0:
376,352,128306,1,0,0:0:0:0:
460,260,128491,6,0,B|500:161|396:112,1,180,8|2,0:0|0:0,0:0:0:0:
192,48,129232,1,8,0:0:0:0:
180,136,129417,1,0,0:0:0:0:
104,180,129602,2,0,B|52:164|36:116,2,90,2|0|8,0:0|0:0|0:0,0:0:0:0:
104,180,130158,1,0,0:0:0:0:
136,284,130343,6,0,P|168:320|212:332,1,90,2|0,0:0|0:0,0:0:0:0:
300,280,130714,1,8,0:0:0:0:
300,280,130899,1,0,0:0:0:0:
408,284,131084,2,0,P|444:252|456:208,1,90,2|0,0:0|0:0,0:0:0:0:
404,120,131454,1,8,0:0:0:0:
404,120,131639,1,0,0:0:0:0:
304,84,131825,2,0,P|208:96|164:164,1,180,2|8,0:0|0:0,0:0:0:0:
164,160,132380,1,0,0:0:0:0:
144,264,132565,6,0,B|180:328|260:328,1,134.999995976687,4|0,0:0|0:0,0:0:0:0:
400,252,133306,1,0,0:0:0:0:
260,172,133676,1,8,0:0:0:0:
100,140,134047,2,0,B|132:72|204:56,1,134.999995976687,4|0,0:0|0:0,0:0:0:0:
352,108,134788,2,0,B|380:136|420:140,1,67.4999979883433
468,196,135158,5,8,0:0:0:0:
468,196,135343,2,0,B|444:264,2,67.4999979883433,0|4|0,0:0|0:0|0:0,0:0:0:0:
388,196,135899,2,0,B|352:212|332:248,1,67.4999979883433
296,308,136269,2,0,B|260:304|228:280,1,67.4999979883433
232,204,136639,1,8,0:0:0:0:
184,140,136825,1,0,0:0:0:0:
244,84,137010,6,0,B|200:32,1,67.4999979883433,4|0,0:0|0:0,0:0:0:0:
288,28,137380,2,0,B|360:28,1,67.4999979883433
404,84,137751,2,0,B|448:32,2,67.4999979883433,0|0|8,0:0|0:0|0:0,0:0:0:0:
256,192,138213,12,0,139973,0:0:0:0:
216,160,141084,5,8,0:0:0:0:
288,232,141269,1,0,0:0:0:0:
208,248,141454,2,0,B|208:324|292:352,1,134.999995976687,4|0,0:0|0:0,0:0:0:0:
208,248,142010,2,0,B|142:210|75:268,1,134.999995976687
60,184,142565,1,8,0:0:0:0:
108,344,142751,1,0,0:0:0:0:
228,344,142936,6,0,B|320:344,1,90,2|0,0:0|0:0,0:0:0:0:
375,252,143306,2,0,B|435:180,1,90,2|0,0:0|0:0,0:0:0:0:
444,84,143676,1,8,0:0:0:0:
340,52,143862,1,0,0:0:0:0:
408,136,144047,1,0,0:0:0:0:
340,52,144232,1,0,0:0:0:0:
340,52,144325,1,0,0:0:0:0:
340,52,144417,6,0,B|296:24|248:28,1,90,6|0,0:0|0:0,0:0:0:0:
168,96,144788,1,8,0:0:0:0:
168,96,144973,2,0,B|176:192|288:216,1,180
372,228,145528,1,8,0:0:0:0:
256,340,145714,1,0,0:0:0:0:
184,260,145899,2,0,B|136:268|108:312,1,90,2|0,0:0|0:0,0:0:0:0:
40,228,146269,2,0,B|48:180|92:152,1,90,8|0,0:0|0:0,0:0:0:0:
168,80,146639,6,0,B|116:76|96:24,2,90,2|0|8,0:0|0:0|0:0,0:0:0:0:
272,52,147195,2,0,B|384:24|420:120,1,180
324,168,147751,1,8,0:0:0:0:
324,168,147936,2,0,B|296:276|392:316,1,180
408,228,148491,1,8,0:0:0:0:
232,272,148676,1,0,0:0:0:0:
140,216,148862,6,0,B|56:260,1,90,2|0,0:0|0:0,0:0:0:0:
60,148,149232,2,0,B|144:104,1,90,8|0,0:0|0:0,0:0:0:0:
220,64,149602,1,2,0:0:0:0:
140,324,149973,1,8,0:0:0:0:
400,252,150343,5,6,0:0:0:0:
268,288,150528,1,0,0:0:0:0:
200,204,150714,2,0,B|160:176|108:192,1,90,8|0,0:0|0:0,0:0:0:0:
100,84,151084,2,0,B|140:56|192:72,1,90,2|0,0:0|0:0,0:0:0:0:
292,100,151454,1,8,0:0:0:0:
292,100,151825,2,0,B|400:128|464:52,1,180,2|8,0:0|0:0,0:0:0:0:
472,276,152565,2,0,B|364:304|300:228,1,180,2|8,0:0|0:0,0:0:0:0:
96,276,153306,6,0,B|28:332,2,90,2|0|8,0:0|0:0|0:0,0:0:0:0:
200,308,153862,2,0,B|296:360|356:268,1,180
276,196,154417,1,8,0:0:0:0:
316,96,154602,1,0,0:0:0:0:
212,64,154788,6,0,B|164:84|124:64,1,90,2|0,0:0|0:0,0:0:0:0:
44,136,155158,2,0,B|64:184|44:224,1,90,10|0,0:0|0:0,0:0:0:0:
172,184,155528,1,2,0:0:0:0:
208,316,155714,1,0,0:0:0:0:
280,236,155899,1,8,0:0:0:0:
288,232,155991,1,0,0:0:0:0:
296,228,156084,1,0,0:0:0:0:
304,224,156176,1,0,0:0:0:0:
312,220,156269,6,0,B|332:164|292:136,1,90,6|0,0:0|0:0,0:0:0:0:
256,56,156639,1,8,0:0:0:0:
256,56,156825,2,0,B|192:124|92:108,1,180
4,84,157380,1,8,0:0:0:0:
68,200,157565,1,0,0:0:0:0:
60,308,157751,2,0,B|112:324|140:276,1,90,2|0,0:0|0:0,0:0:0:0:
196,188,158121,2,0,B|248:172|276:220,1,90,8|0,0:0|0:0,0:0:0:0:
188,352,158491,5,2,0:0:0:0:
296,336,158676,1,0,0:0:0:0:
208,272,158862,1,8,0:0:0:0:
104,292,159047,1,0,0:0:0:0:
104,292,159139,1,0,0:0:0:0:
104,292,159232,2,0,B|0:272|12:160,1,180,2|8,0:0|0:0,0:0:0:0:
120,176,159788,2,0,B|224:156|212:44,1,180
108,76,160343,5,8,0:0:0:0:
276,180,160528,1,0,0:0:0:0:
364,240,160714,2,0,B|440:176,1,90,2|0,0:0|0:0,0:0:0:0:
380,92,161084,2,0,B|304:156,1,90,8|0,0:0|0:0,0:0:0:0:
372,300,161454,2,0,B|424:276|444:232,1,90,2|0,0:0|0:0,0:0:0:0:
376,44,161825,2,0,B|324:68|304:112,1,90,8|0,0:0|0:0,0:0:0:0:
236,40,162195,6,0,B|136:28|72:100,1,180,6|8,0:0|0:0,0:0:0:0:
116,196,162751,2,0,B|168:204|200:168,2,90,0|2|0,0:0|0:0|0:0,0:0:0:0:
40,272,163306,5,8,0:0:0:0:
120,344,163491,1,0,0:0:0:0:
224,320,163676,2,0,B|276:308|304:348,2,90,6|0|8,0:0|0:0|0:0,0:0:0:0:
220,212,164232,1,0,0:0:0:0:
308,148,164417,1,2,0:0:0:0:
408,184,164602,6,0,B|428:288|320:324,1,180
308,216,165158,2,0,B|152:216|68:116,1,270,6|0,0:0|0:0,0:0:0:0:
256,192,165899,12,0,167010,0:0:0:0:
216,224,167380,5,8,0:0:0:0:
256,124,167565,2,8,B|256:72,2,45
296,224,167936,1,8,0:0:0:0:
256,192,168121,12,4,171084,0:0:0:0:
