osu file format v14

[General]
AudioFilename: chata.mp3
AudioLeadIn: 0
PreviewTime: 643403
Countdown: 0
SampleSet: Soft
StackLeniency: 0.7
Mode: 0
LetterboxInBreaks: 0
WidescreenStoryboard: 0

[Editor]
DistanceSpacing: 1.6
BeatDivisor: 4
GridSize: 4
TimelineZoom: 1

[Metadata]
Title:Songs Compilation
TitleUnicode:Songs Compilation
Artist:Chata
ArtistUnicode:茶太
Creator:Laurier
Version:Marathon
Source:
Tags:
BeatmapID:629301
BeatmapSetID:277741

[Difficulty]
HPDrainRate:7
CircleSize:4.3
OverallDifficulty:8
ApproachRate:9
SliderMultiplier:1.7
SliderTickRate:2

[Events]
//Background and Video events
//Break Periods
2,86518,93524
//Storyboard Layer 0 (Background)
//Storyboard Layer 1 (Fail)
//Storyboard Layer 2 (Pass)
//Storyboard Layer 3 (Foreground)
//Storyboard Sound Samples

[TimingPoints]
-954,363.636363636364,4,2,1,60,1,0
10682,-142.857142857143,4,2,1,40,0,0
22318,-100,4,2,1,40,0,0
89310,370.37037037037,4,2,1,60,1,0
93754,-100,4,2,1,60,0,0
139505,300,4,2,1,60,1,0
168161,434.782608695652,4,2,1,60,1,0
204447,355.029585798817,4,2,1,60,1,0
248381,333.333333333333,4,2,1,60,1,0
278768,333.333333333333,4,2,1,60,1,0
311429,342.857142857143,4,2,1,60,1,0
344881,315.789473684211,4,2,1,60,1,0
382956,344.827586206897,4,2,1,60,1,0
416631,330.396475770925,4,2,1,60,1,0
447488,333.333333333333,4,2,1,60,1,0
489890,500,4,2,1,60,1,0
529687,697.674418604651,4,2,1,60,1,0
585035,454.545454545455,4,2,1,60,1,0
629351,315.789473684211,4,2,1,60,1,0
683626,348.837209302326,4,2,1,60,1,0
712667,357.142857142857,4,2,1,60,1,0
755083,394.736842105263,4,2,1,60,1,0
792556,370.37037037037,4,2,1,60,1,0
826520,447.761194029851,4,2,1,60,1,0
864249,300,4,2,1,60,1,0
894762,382.165605095541,4,2,1,60,1,0
930706,348.837209302326,4,2,1,60,1,0
964181,333.333333333333,4,2,1,60,1,0

[Colours]
Combo1 : 255,235,172
Combo2 : 210,255,210
Combo3 : 172,209,255
Combo4 : 251,189,199

[HitObjects]
440,295,10682,6,0,P|380:287|321:284,1,118.999996368408
224,328,11227,1,0,0:0:0:0:
223,328,11409,2,0,P|232:269|235:209,1,118.999996368408
63,12,12136,6,0,P|54:70|51:130,1,118.999996368408
156,105,12682,1,0,0:0:0:0:
156,105,12864,2,0,P|215:101|274:94,1,118.999996368408
464,191,13591,6,0,P|460:251|448:309,2,118.999996368408,0|0|0,0:0|0:0|0:0,0:0:0:0:
464,191,14682,1,0,0:0:0:0:
361,226,14864,2,0,P|332:230|302:232,1,59.4999981842042
186,256,15227,6,0,P|197:228|209:201,1,59.4999981842042
273,19,15591,2,0,P|282:78|287:138,1,118.999996368408
256,318,16136,1,0,0:0:0:0:
256,318,16500,5,0,0:0:0:0:
303,233,16682,1,0,0:0:0:0:
208,160,16864,2,0,P|179:167|149:169,1,59.4999981842042
40,293,17227,2,0,P|96:277|155:286,1,118.999996368408
380,366,17955,5,0,0:0:0:0:
379,366,18136,2,0,P|438:353|490:326,1,118.999996368408
461,210,18682,2,0,L|472:91,2,118.999996368408,0|0|0,0:0|0:0|0:0,0:0:0:0:
357,151,19591,5,0,0:0:0:0:
296,253,19773,2,0,P|269:263|239:267,1,59.4999981842042
139,136,20136,2,0,P|168:140|196:150,1,59.4999981842042
164,314,20500,2,0,P|155:285|152:256,1,59.4999981842042
137,40,20864,5,0,0:0:0:0:
111,156,21046,2,0,P|82:165|53:170,1,59.4999981842042
53,170,21409,1,0,0:0:0:0:
137,40,21591,2,0,P|166:45|194:54,1,59.4999981842042
320,179,21955,2,0,L|408:168,1,89.2499972763062
478,193,22318,6,0,P|435:191|394:202,1,85
350,317,22682,2,0,P|307:318|266:307,1,85,0|0,0:0|0:0,0:0:0:0:
178,254,23046,1,0,0:0:0:0:
320,179,23227,1,0,0:0:0:0:
178,254,23409,2,0,L|92:254,1,85
19,129,23773,6,0,P|100:141|167:92,1,170
167,92,24318,1,0,0:0:0:0:
178,254,24500,1,0,0:0:0:0:
245,135,24682,1,0,0:0:0:0:
90,61,24864,2,0,P|88:101|102:144,1,85
245,135,25227,6,0,P|326:122|393:171,2,170,0|0|0,0:0|0:0|0:0,0:0:0:0:
178,254,26136,1,0,0:0:0:0:
327,290,26318,2,0,P|323:247|310:207,1,85
178,254,26682,6,0,B|117:266|62:231|62:231|84:273,1,170
171,363,27227,2,0,P|213:359|250:339,1,85
327,290,27591,1,0,0:0:0:0:
194,172,27773,2,0,P|181:212|177:254,1,85
327,290,28136,6,0,B|448:270|448:270|420:309,1,170
420,308,28682,1,0,0:0:0:0:
351,190,28864,2,0,L|337:107,1,85
228,0,29227,2,0,L|214:83,1,85
187,218,29591,6,0,P|111:244|50:190,1,170
49,189,30136,1,0,0:0:0:0:
116,327,30318,1,0,0:0:0:0:
187,218,30500,1,0,0:0:0:0:
252,356,30682,1,0,0:0:0:0:
187,218,30864,1,0,0:0:0:0:
116,327,31046,6,0,P|200:318|284:306,2,170,0|0|0,0:0|0:0|0:0,0:0:0:0:
187,218,31955,1,0,0:0:0:0:
252,356,32136,2,0,L|345:342,1,85,0|0,0:0|0:0,0:0:0:0:
474,266,32500,5,0,0:0:0:0:
380,192,32682,1,0,0:0:0:0:
417,353,32864,1,0,0:0:0:0:
480,252,33046,1,0,0:0:0:0:
316,240,33227,1,0,0:0:0:0:
421,340,33409,1,0,0:0:0:0:
457,169,33591,1,0,0:0:0:0:
325,131,33773,1,0,0:0:0:0:
396,268,33955,5,0,0:0:0:0:
396,268,34318,1,0,0:0:0:0:
279,307,34500,2,0,P|240:236|290:169,1,170
436,81,35046,2,0,P|400:103|358:107,1,85
181,77,35409,6,0,B|117:67|60:53|60:53|84:92,1,170
140,207,35955,2,0,L|121:383,1,170
26,209,36500,1,0,0:0:0:0:
131,296,36682,1,0,0:0:0:0:
244,222,36864,6,0,P|329:211|413:203,1,170
307,343,37409,2,0,P|265:350|221:357,1,85
101,376,37773,2,0,P|115:335|131:295,1,85
245,222,38136,1,0,0:0:0:0:
130,147,38318,6,0,B|15:115|15:115|76:92,1,170
177,23,38864,2,0,P|255:49|326:8,1,170
467,118,39409,2,0,P|424:119|386:138,1,85
257,311,39773,5,0,0:0:0:0:
257,311,40136,1,0,0:0:0:0:
374,378,40318,2,0,P|393:297|353:223,1,170
262,121,40864,2,0,P|232:150|217:189,1,85
257,311,41227,5,0,0:0:0:0:
354,224,41409,1,0,0:0:0:0:
374,377,41591,1,0,0:0:0:0:
246,309,41773,2,0,P|161:299|76:293,1,170
182,139,42318,2,0,P|224:136|263:120,1,85
388,3,42682,6,0,P|360:59|371:120,1,127.5,0|0,0:0|0:0,0:0:0:0:
419,172,43046,2,0,P|434:211|433:253,1,85
246,309,43409,1,0,0:0:0:0:
354,224,43591,1,0,0:0:0:0:
181,139,43773,1,0,0:0:0:0:
256,207,43955,1,0,0:0:0:0:
256,44,44136,5,0,0:0:0:0:
181,139,44318,1,0,0:0:0:0:
354,224,44500,1,0,0:0:0:0:
279,130,44682,1,0,0:0:0:0:
246,309,44864,1,0,0:0:0:0:
279,130,45046,1,0,0:0:0:0:
279,130,45136,1,0,0:0:0:0:
279,130,45227,1,0,0:0:0:0:
169,223,45409,1,0,0:0:0:0:
289,384,45591,6,0,P|316:352|331:309,1,85
438,224,45955,2,0,P|396:215|352:225,1,85,0|0,0:0|0:0,0:0:0:0:
245,309,46318,2,0,P|203:317|162:309,1,85,0|0,0:0|0:0,0:0:0:0:
46,333,46682,2,0,P|60:292|87:261,1,85,0|0,0:0|0:0,0:0:0:0:
215,191,47046,5,0,0:0:0:0:
162,310,47227,1,0,0:0:0:0:
59,127,47409,1,0,0:0:0:0:
192,101,47591,1,0,0:0:0:0:
163,310,47773,1,0,0:0:0:0:
134,176,47955,1,0,0:0:0:0:
329,206,48136,1,0,0:0:0:0:
258,279,48318,1,0,0:0:0:0:
426,283,48500,6,0,P|443:244|449:202,1,85,0|0,0:0|0:0,0:0:0:0:
438,74,48864,2,0,P|398:89|364:115,1,85,0|0,0:0|0:0,0:0:0:0:
258,279,49227,1,0,0:0:0:0:
256,151,49409,1,0,0:0:0:0:
448,202,49591,2,0,P|442:244|426:283,1,85,0|0,0:0|0:0,0:0:0:0:
258,279,49955,6,0,L|168:275,1,85
14,320,50318,1,0,0:0:0:0:
89,218,50500,2,0,P|99:176|102:134,1,85
75,35,50864,1,0,0:0:0:0:
90,218,51046,1,0,0:0:0:0:
184,109,51227,1,0,0:0:0:0:
259,280,51409,6,0,P|301:283|342:275,1,85,0|0,0:0|0:0,0:0:0:0:
403,131,51773,2,0,P|360:127|319:135,1,85,0|0,0:0|0:0,0:0:0:0:
178,194,52136,1,0,0:0:0:0:
255,61,52318,1,0,0:0:0:0:
259,280,52500,1,0,0:0:0:0:
171,187,52682,1,0,0:0:0:0:
32,304,52864,6,0,P|68:324|110:331,1,85
259,280,53227,1,0,0:0:0:0:
192,380,53409,1,0,0:0:0:0:
165,177,53591,1,0,0:0:0:0:
259,280,53773,2,0,L|345:277,1,85
466,318,54136,1,0,0:0:0:0:
476,181,54318,6,0,P|396:201|327:156,2,170,0|0|0,0:0|0:0|0:0,0:0:0:0:
439,33,55227,1,0,0:0:0:0:
439,33,55409,2,0,P|418:69|410:111,1,85
468,319,55773,6,0,B|347:298|347:298|385:264,1,170
476,181,56318,1,0,0:0:0:0:
378,99,56500,1,0,0:0:0:0:
457,198,56682,1,0,0:0:0:0:
439,33,56864,1,0,0:0:0:0:
370,182,57046,1,0,0:0:0:0:
267,104,57227,6,0,P|188:83|117:126,2,170,0|0|0,0:0|0:0|0:0,0:0:0:0:
286,230,58136,1,0,0:0:0:0:
138,285,58318,1,0,0:0:0:0:
193,170,58500,1,0,0:0:0:0:
256,358,58682,5,0,0:0:0:0:
164,268,58864,1,0,0:0:0:0:
267,104,59046,1,0,0:0:0:0:
286,230,59227,1,0,0:0:0:0:
94,170,59409,1,0,0:0:0:0:
94,170,59500,1,0,0:0:0:0:
94,170,59591,1,0,0:0:0:0:
94,170,59682,1,0,0:0:0:0:
94,170,59773,1,0,0:0:0:0:
23,296,59955,1,0,0:0:0:0:
155,351,60136,6,0,P|164:309|163:267,1,85
26,122,60500,2,0,P|57:150|94:170,1,85,0|0,2:0|2:0,2:0:0:0:
267,104,60864,1,0,0:0:0:0:
172,190,61046,1,0,0:0:0:0:
254,318,61227,1,0,0:0:0:0:
426,241,61409,6,0,P|341:229|257:221,1,170
266,103,61955,2,0,P|310:111|355:111,1,85
463,50,62318,1,0,0:0:0:0:
406,164,62500,1,0,0:0:0:0:
267,104,62682,1,0,0:0:0:0:
308,258,62864,6,0,B|337:373|337:373|369:333,1,170
232,329,63409,2,0,P|190:320|147:321,1,85
39,204,63773,2,0,P|81:204|123:196,1,85
267,104,64136,1,0,0:0:0:0:
449,203,64318,6,0,P|366:199|309:258,1,170
396,366,64864,2,0,P|403:324|398:282,1,85
345,129,65227,1,0,0:0:0:0:
449,42,65409,1,0,0:0:0:0:
449,202,65591,1,0,0:0:0:0:
346,112,65773,1,0,0:0:0:0:
398,282,65955,5,0,0:0:0:0:
504,140,66136,2,0,P|464:124|421:126,1,85
224,170,66500,2,0,B|104:193|104:193|137:158,1,170
319,200,67046,2,0,L|300:288,1,85
193,377,67409,6,0,L|174:289,1,85
139,159,67773,1,0,0:0:0:0:
75,279,67955,1,0,0:0:0:0:
139,159,68136,2,0,L|139:55,1,85
47,175,68500,1,0,0:0:0:0:
172,226,68682,1,0,0:0:0:0:
139,76,68864,5,0,0:0:0:0:
243,163,69046,1,0,0:0:0:0:
75,279,69227,1,0,0:0:0:0:
139,159,69409,1,0,0:0:0:0:
247,240,69591,2,0,P|287:226|313:193,1,85
290,58,69955,1,0,0:0:0:0:
248,240,70136,6,0,B|225:351|225:351|192:304,1,170
329,310,70682,1,0,0:0:0:0:
243,163,70864,1,0,0:0:0:0:
193,305,71046,1,0,0:0:0:0:
327,233,71227,1,0,0:0:0:0:
291,382,71409,1,0,0:0:0:0:
128,360,71591,6,0,P|113:279|174:225,1,170
326,232,72136,2,0,P|368:239|407:223,1,85
440,117,72500,2,0,P|398:110|359:126,1,85
193,305,72864,1,0,0:0:0:0:
291,382,73046,1,0,0:0:0:0:
327,233,73227,5,0,0:0:0:0:
214,292,73409,1,0,0:0:0:0:
256,115,73591,1,0,0:0:0:0:
345,217,73773,1,0,0:0:0:0:
185,193,73955,2,0,L|100:184,1,85
100,184,74318,1,0,0:0:0:0:
193,47,74500,6,0,P|268:81|342:44,1,170
464,84,75046,2,0,P|438:117|407:147,1,85
327,267,75409,2,0,P|310:227|300:186,1,85
343,45,75773,1,0,0:0:0:0:
193,47,75955,6,0,B|75:26|75:26|103:71,1,170
186,193,76500,1,0,0:0:0:0:
70,319,76682,2,0,P|59:234|45:150,1,170
185,193,77227,2,0,P|179:235|177:277,1,85
58,237,77591,5,0,0:0:0:0:
151,353,77773,1,0,0:0:0:0:
186,193,77955,1,0,0:0:0:0:
257,297,78136,2,0,P|299:300|341:299,1,85
432,161,78500,2,0,P|389:157|347:158,1,85
186,193,78864,1,0,0:0:0:0:
256,86,79046,5,0,0:0:0:0:
305,223,79227,1,0,0:0:0:0:
97,192,79409,1,0,0:0:0:0:
168,297,79591,1,0,0:0:0:0:
257,162,79773,1,0,0:0:0:0:
98,192,79955,1,0,0:0:0:0:
243,260,80136,1,0,0:0:0:0:
178,111,80318,1,0,0:0:0:0:
350,67,80500,6,0,B|408:71|463:37|463:37|443:85,1,170
467,202,81046,1,0,0:0:0:0:
472,222,81136,1,0,0:0:0:0:
477,242,81227,1,0,0:0:0:0:
389,335,81409,1,0,0:0:0:0:
463,185,81591,1,0,0:0:0:0:
337,159,81773,1,0,0:0:0:0:
389,335,81955,5,0,0:0:0:0:
389,335,82046,1,0,0:0:0:0:
389,335,82136,1,0,0:0:0:0:
244,261,82318,2,0,P|201:258|159:262,1,85
38,137,82682,1,0,0:0:0:0:
75,158,82772,1,0,0:0:0:0:
117,159,82863,1,0,0:0:0:0:
155,140,82954,1,0,0:0:0:0:
180,106,83046,2,0,P|187:64|180:22,2,85
256,192,83500,12,0,86318,0:0:0:0:
432,120,94124,5,0,0:0:0:0:
377,235,94310,1,0,0:0:0:0:
377,235,94402,1,0,0:0:0:0:
377,235,94495,1,0,0:0:0:0:
305,129,94680,1,0,0:0:0:0:
305,129,94772,1,0,0:0:0:0:
305,129,94865,2,0,L|305:77,1,42.5
217,26,95050,2,0,L|217:68,1,42.5
216,157,95235,6,0,P|158:181|97:167,1,127.5
65,137,95606,1,0,0:0:0:0:
127,276,95791,1,0,0:0:0:0:
292,243,95976,2,0,P|334:237|376:235,1,85
453,345,96347,2,0,P|410:350|368:352,1,85
188,301,96717,6,0,P|130:276|69:290,1,127.5
37,314,97087,1,0,0:0:0:0:
131,193,97272,1,0,0:0:0:0:
292,244,97458,2,0,P|310:200|283:115,1,127.5
268,99,97828,2,0,L|184:96,1,85
373,55,98198,6,0,B|487:25|487:25|466:72,1,170
416,172,98754,1,0,0:0:0:0:
392,384,98939,2,0,P|423:355|438:316,1,85
416,172,99309,1,0,0:0:0:0:
326,286,99495,1,0,0:0:0:0:
216,191,99680,6,0,L|165:182,2,42.5
73,170,100050,1,0,0:0:0:0:
139,298,100235,1,0,0:0:0:0:
325,285,100421,2,0,P|283:282|241:289,1,85
81,362,100791,1,0,0:0:0:0:
139,219,100976,1,0,0:0:0:0:
39,71,101161,6,0,P|121:83|191:38,1,170
424,173,101717,2,0,P|354:127|271:140,1,170
139,219,102272,1,0,0:0:0:0:
254,306,102458,1,0,0:0:0:0:
354,128,102643,6,0,P|361:86|357:43,1,85
185,32,103013,2,0,P|217:59|255:77,1,85
442,203,103384,2,0,P|403:221|371:248,1,85
249,344,103754,2,0,L|120:333,1,127.5
87,329,104124,5,0,0:0:0:0:
189,240,104309,1,0,0:0:0:0:
7,145,104495,1,0,0:0:0:0:
111,231,104680,2,0,P|192:240|244:177,1,170
120,57,105235,2,0,L|150:139,1,85
319,235,105606,6,0,P|379:215|441:201,1,127.5
484,201,105976,1,0,0:0:0:0:
371,125,106161,1,0,0:0:0:0:
402,300,106347,1,0,0:0:0:0:
227,235,106532,1,0,0:0:0:0:
227,235,106624,1,0,0:0:0:0:
227,235,106717,1,0,0:0:0:0:
227,235,106809,1,0,0:0:0:0:
227,235,106902,1,0,0:0:0:0:
227,235,106995,1,0,0:0:0:0:
227,235,107087,6,0,P|237:172|244:108,1,127.5
236,36,107458,1,0,0:0:0:0:
344,146,107643,1,0,0:0:0:0:
159,164,107828,2,0,P|116:162|74:164,1,85
185,320,108198,2,0,P|227:321|269:319,1,85
408,207,108569,6,0,P|428:127|377:62,1,170
377,62,109124,1,0,0:0:0:0:
238,150,109309,2,0,L|226:253,1,85
355,353,109680,2,0,L|345:268,1,85
288,87,110050,6,0,P|208:76|159:141,1,170
