osu file format v14

[General]
AudioFilename: Anzu~~~.mp3
AudioLeadIn: 2000
PreviewTime: 111229
Countdown: 0
SampleSet: Soft
StackLeniency: 0.4
Mode: 0
LetterboxInBreaks: 0
WidescreenStoryboard: 0

[Editor]
DistanceSpacing: 1.6
BeatDivisor: 4
GridSize: 4
TimelineZoom: 1

[Metadata]
Title:Shiawase Gatari game ver.
TitleUnicode:しあわせがたり game ver.
Artist:Chata
ArtistUnicode:茶太
Creator:[Teichan]
Version:Yuki's Hard
Source:Clover Day's
Tags:eroge ALcot 10th Anniversary visual novel ending Minakami Yuki Laurier
BeatmapID:637451
BeatmapSetID:260117

[Difficulty]
HPDrainRate:4.5
CircleSize:4
OverallDifficulty:5.5
ApproachRate:7
SliderMultiplier:1
SliderTickRate:1

[Events]
//Background and Video events
0,0,"BG.png",0,0
Video,0,"ed.flv"
//Break Periods
2,95276,110329
//Storyboard Layer 0 (Background)
//Storyboard Layer 1 (Fail)
//Storyboard Layer 2 (Pass)
//Storyboard Layer 3 (Foreground)
//Storyboard Sound Samples

[TimingPoints]
-1078,384.615384615385,4,2,1,60,1,0
11806,-100,4,2,1,25,0,0
11902,-100,4,2,1,35,0,0
11999,-100,4,2,1,45,0,0
12191,-100,4,2,1,60,0,0
12768,-100,4,2,1,60,0,0
31229,-133.333333333333,4,2,1,45,0,0
55845,-111.111111111111,4,2,1,60,0,0
68152,-100,4,2,1,70,0,1
79499,-100,4,2,1,30,0,1
79595,-100,4,2,1,50,0,1
79691,-100,4,2,1,70,0,1
92768,-100,4,2,1,60,0,0
129691,-100,4,2,1,70,0,1
141037,-100,4,2,1,30,0,1
141133,-100,4,2,1,50,0,1
141229,-100,4,2,1,70,0,1
154306,-100,4,2,1,50,0,0
160460,-100,4,2,1,60,0,0
171806,-100,4,2,1,25,0,0
171902,-100,4,2,1,35,0,0
171999,-100,4,2,1,45,0,0
172191,-100,4,2,1,50,0,0
186614,-100,4,2,1,40,0,0
188152,-100,4,2,1,30,0,0
189691,-100,4,2,1,20,0,0
191229,-100,4,2,1,10,0,0

[Colours]
Combo1 : 0,255,255
Combo2 : 255,255,0
Combo3 : 255,176,60
Combo4 : 255,128,255

[HitObjects]
208,305,460,6,0,P|254:288|304:293,1,100,4|0,0:0|0:0,0:0:0:0:
453,349,1229,1,0,0:0:0:0:
453,349,1999,6,0,L|463:246,1,100,2|0,0:0|0:0,0:0:0:0:
471,169,2576,1,2,0:1:0:0:
471,169,3152,6,0,P|487:123|468:67,1,100,4|0,0:0|0:0,0:0:0:0:
399,44,3729,2,0,L|328:47,2,50,0|2|2,0:0|0:0|0:0,0:0:0:0:
408,121,4306,6,0,L|288:126,1,100,2|0,0:0|0:0,0:0:0:0:
237,86,4883,1,0,0:0:0:0:
237,86,5076,2,0,L|187:94,1,50,2|2,0:0|0:0,0:0:0:0:
116,131,5460,2,0,P|108:79|137:30,1,100,2|0,0:0|0:0,0:0:0:0:
397,211,6614,6,0,B|333:204|333:204|298:212,1,100,4|0,0:0|0:0,0:0:0:0:
147,266,7383,1,2,0:0:0:0:
147,266,8152,6,0,P|130:219|143:171,1,100,2|0,0:0|0:0,0:0:0:0:
195,111,8729,1,2,0:0:0:0:
195,111,9306,6,0,L|305:119,1,100,4|0,0:0|0:0,0:0:0:0:
374,120,9883,2,0,L|435:112,2,50,0|2|2,0:0|0:0|0:0,0:0:0:0:
329,186,10460,6,0,P|309:239|328:295,1,100,2|0,0:0|0:0,0:0:0:0:
271,345,11037,1,0,0:0:0:0:
271,345,11229,2,0,L|203:342,1,50,2|2,0:0|0:0,0:0:0:0:
159,290,11614,2,0,P|110:283|66:306,2,100,2|8|4,0:0|0:1|0:1,0:0:0:0:
317,265,12768,6,0,P|365:274|410:254,2,100,4|0|8,0:0|0:0|0:0,0:0:0:0:
260,208,13729,1,0,0:0:0:0:
309,144,13922,2,0,L|313:77,1,50
265,28,14306,6,0,P|216:18|171:38,2,100,2|2|8,0:0|0:1|0:0,0:0:0:0:
421,62,15460,1,0,0:0:0:0:
437,221,15845,6,0,L|444:292,1,50,2|0,0:1|0:0,0:0:0:0:
497,328,16229,1,0,0:0:0:0:
497,328,16422,2,0,P|452:349|404:341,1,100
335,299,16999,2,0,L|330:249,1,50
298,175,17383,6,0,P|253:153|205:161,2,100,2|2|8,0:0|0:1|0:0,0:0:0:0:
216,36,18537,2,0,L|166:31,1,50
120,96,18922,6,0,P|71:102|27:79,2,100,2|0|8,0:1|0:0|0:0,0:0:0:0:
171,158,19883,1,0,0:0:0:0:
171,158,20076,2,0,L|220:153,1,50
300,144,20460,6,0,L|302:94,1,50,2|0,0:0|0:0,0:0:0:0:
363,188,20845,1,2,0:1:0:0:
372,265,21037,1,0,0:0:0:0:
321,323,21229,2,0,P|272:320|231:347,1,100,8|0,0:0|0:0,0:0:0:0:
107,243,21999,6,0,P|148:270|197:267,1,100,2|0,0:1|0:0,0:0:0:0:
260,218,22576,2,0,L|369:227,1,100
439,232,23152,1,0,0:0:0:0:
394,298,23345,1,0,0:0:0:0:
403,159,23537,6,0,L|407:116,2,25,2|0|0,0:0|0:0|0:0,0:0:0:0:
359,226,23922,1,0,0:1:0:0:
439,232,24114,1,0,0:1:0:0:
483,165,24306,1,8,0:1:0:0:
450,93,24499,1,4,0:1:0:0:
370,86,24691,1,4,0:1:0:0:
323,150,24883,1,4,0:1:0:0:
403,159,25076,5,4,0:0:0:0:
403,159,25845,1,0,0:0:0:0:
403,159,26614,5,0,0:0:0:0:
428,276,26999,1,2,0:1:0:0:
310,300,27383,1,8,0:0:0:0:
285,183,27768,1,0,0:0:0:0:
358,230,28152,6,0,P|405:244|451:227,2,100,2|0|0,0:1|0:0|0:0,0:0:0:0:
285,183,29306,1,0,0:0:0:0:
211,135,29691,6,0,P|163:120|117:137,2,100,0|2|8,0:0|0:1|0:0,0:0:0:0:
285,183,30845,1,0,0:0:0:0:
224,286,31229,6,0,L|214:376,1,75.0000028610231,4|0,0:0|0:0,0:0:0:0:
104,313,31999,2,0,L|95:238,1,75.0000028610231,2|0,0:0|0:0,0:0:0:0:
76,119,32768,1,0,0:0:0:0:
76,119,33152,1,2,0:1:0:0:
75,119,33537,2,0,P|87:83|83:46,1,75.0000028610231,8|0,0:0|0:0,0:0:0:0:
25,185,34306,6,0,P|102:198|157:140,1,150.000005722046,2|2,0:1|0:0,0:0:0:0:
180,36,35460,1,0,0:0:0:0:
305,95,35845,2,0,L|232:109,1,75.0000028610231,0|2,0:0|0:1,0:0:0:0:
213,227,36614,2,0,L|286:213,1,75.0000028610231,8|0,0:0|0:0,0:0:0:0:
405,192,37383,5,2,0:1:0:0:
507,255,37768,2,0,P|510:292|498:327,2,75.0000028610231,0|2|0,0:0|0:0|0:0,0:0:0:0:
405,192,38922,1,0,0:0:0:0:
507,129,39306,2,0,P|510:91|498:56,2,75.0000028610231,2|8|0,0:1|0:0|0:0,0:0:0:0:
405,192,40460,6,0,L|315:192,1,75.0000028610231,2|0,0:1|0:0,0:0:0:0:
221,241,41229,1,2,0:0:0:0:
318,73,41999,1,0,0:0:0:0:
140,151,42383,1,2,0:1:0:0:
330,192,42768,1,8,0:0:0:0:
200,48,43152,1,0,0:0:0:0:
221,241,43537,6,0,L|141:234,1,75.0000028610231,2|0,0:1|0:0,0:0:0:0:
26,226,44306,2,0,L|36:276,2,37.5000014305115,2|0|0,0:0|0:0|0:0,0:0:0:0:
116,146,45076,1,0,0:0:0:0:
116,146,45460,2,0,P|124:100|110:60,1,75.0000028610231,2|8,0:1|0:0,0:0:0:0:
220,11,46229,1,0,0:0:0:0:
322,74,46614,6,0,P|390:48|460:83,1,150.000005722046,2|2,0:1|0:0,0:0:0:0:
497,192,47768,1,0,0:0:0:0:
387,143,48152,2,0,L|396:224,1,75.0000028610231,0|2,0:0|0:1,0:0:0:0:
454,351,48922,2,0,L|463:277,1,75.0000028610231,8|0,0:0|0:0,0:0:0:0:
296,117,49691,6,0,L|313:266,1,150.000005722046,2|2,0:1|0:0,0:0:0:0:
233,356,50845,1,0,0:0:0:0:
233,356,51229,2,0,P|198:346|160:350,1,75.0000028610231,0|2,0:0|0:1,0:0:0:0:
34,246,51999,2,0,P|70:236|108:240,1,75.0000028610231,8|0,0:0|0:0,0:0:0:0:
195,158,52768,5,0,0:0:0:0:
102,81,53152,2,0,L|91:-2,2,75.0000028610231,2|2|0,0:1|0:0|0:0,0:0:0:0:
195,158,54306,2,0,L|204:83,1,75.0000028610231,0|2,0:0|0:1,0:0:0:0:
108,240,55076,1,4,3:0:0:0:
108,240,55268,1,2,0:0:0:0:
184,286,55460,1,2,0:0:0:0:
184,286,55652,1,2,0:1:0:0:
267,251,55845,6,0,P|311:248|350:269,1,89.9999972534181,4|0,0:0|0:0,0:0:0:0:
393,343,56422,2,0,P|423:310|434:267,2,89.9999972534181
350,269,57383,2,0,L|340:180,1,89.9999972534181,2|0,0:1|0:0,0:0:0:0:
412,132,57960,2,0,P|348:97|284:115,1,134.999995880127
219,157,58729,1,0,0:0:0:0:
143,117,58922,6,0,L|151:27,1,89.9999972534181,2|0,0:1|0:0,0:0:0:0:
56,126,59499,2,0,P|72:167|105:197,1,89.9999972534181
105,197,60268,2,0,B|92:296|92:296|72:253,1,134.999995880127
216,226,61229,1,8,0:0:0:0:
77,264,61614,1,0,0:0:0:0:
206,327,61999,6,0,P|252:322|290:294,1,89.9999972534181,2|0,0:1|0:0,0:0:0:0:
363,258,62576,2,0,L|453:268,1,89.9999972534181
498,195,63152,2,0,L|453:190,1,44.999998626709
363,258,63537,6,0,P|349:301|367:358,2,89.9999972534181,2|0|8,0:1|0:0|0:1,0:0:0:0:
436,213,64499,1,0,0:0:0:0:
415,130,64691,2,0,L|370:125,1,44.999998626709
302,177,65076,6,0,P|258:194|209:179,1,89.9999972534181,2|0,0:1|0:0,0:0:0:0:
163,118,65652,1,0,0:0:0:0:
163,118,65845,2,0,L|154:9,1,89.9999972534181,8|0,0:1|0:0,0:0:0:0:
75,58,66422,1,0,0:0:0:0:
23,126,66614,5,2,0:1:0:0:
96,169,66806,2,0,L|99:213,2,44.999998626709,0|0|8,0:0|0:0|0:1,0:0:0:0:
23,253,67383,2,0,P|56:289|102:299,1,89.9999972534181,8|0,0:0|0:0,0:0:0:0:
333,355,68152,6,0,L|284:362,1,50,4|0,0:0|0:0,0:0:0:0:
292,282,68537,2,0,L|242:288,1,50
250,209,68922,1,8,0:1:0:0:
250,209,69306,6,0,L|243:160,1,50
323,168,69691,2,0,L|317:118,1,50
396,126,70076,2,0,L|384:26,1,100,2|8,0:1|0:1,0:0:0:0:
475,127,70652,2,0,P|467:161|454:183,2,50,0|2|0,0:0|0:1|0:0,0:0:0:0:
396,126,71229,6,0,P|352:146|304:135,1,100,0|2,0:0|0:1,0:0:0:0:
244,80,71806,2,0,P|196:68|151:89,1,100
100,151,72383,1,0,0:0:0:0:
100,151,72576,2,0,L|92:257,1,100
170,336,73152,6,0,P|186:289|171:243,1,100,2|8,0:1|0:1,0:0:0:0:
231,189,73729,1,0,0:0:0:0:
298,232,73922,2,0,L|359:224,1,50
400,165,74306,6,0,P|384:118|399:71,2,100,2|0|8,0:1|0:0|0:1,0:0:0:0:
468,206,75268,2,0,L|464:271,1,50
429,327,75652,1,0,0:0:0:0:
429,327,75845,6,0,B|387:344|387:344|318:339,1,100,0|2,0:0|0:1,0:0:0:0:
266,294,76422,1,0,0:0:0:0:
191,323,76614,2,0,L|195:381,2,50,8|0|2,0:1|0:0|0:1,0:0:0:0:
266,294,77191,6,0,L|259:194,1,100
318,139,77768,2,0,L|327:89,1,50,2|0,0:1|0:0,0:0:0:0:
264,40,78152,2,0,P|216:23|156:38,1,100,8|0,0:1|0:0,0:0:0:0:
20,92,78922,1,0,0:0:0:0:
106,225,79306,6,0,L|92:346,2,100,2|8|2,0:1|0:1|0:1,0:0:0:0:
173,181,80268,1,2,0:1:0:0:
233,232,80460,6,0,L|291:219,1,50,4|0,0:0|0:0,0:0:0:0:
280,140,80845,2,0,L|328:150,1,50
407,166,81229,1,8,0:1:0:0:
407,166,81614,6,0,L|420:224,1,50
499,213,81999,2,0,L|488:261,1,50
473,340,82383,2,0,P|422:332|374:363,1,100,2|8,0:1|0:1,0:0:0:0:
303,374,82960,2,0,L|242:368,2,50
323,296,83537,6,0,L|209:284,1,100,0|2,0:0|0:1,0:0:0:0:
153,324,84114,2,0,P|144:275|171:226,1,100
238,197,84691,1,0,0:0:0:0:
238,197,84883,2,0,P|247:148|220:99,1,100
155,64,85460,6,0,B|124:79|124:79|59:66,2,100,2|8|0,0:1|0:1|0:0,0:0:0:0:
226,27,86422,1,2,0:1:0:0:
302,50,86614,6,0,P|350:59|394:37,2,100,2|0|8,0:1|0:0|0:1,0:0:0:0:
401,175,87768,2,0,L|406:115,1,50
484,112,88152,6,0,L|475:211,1,100,0|2,0:0|0:1,0:0:0:0:
316,233,88922,2,0,L|324:133,1,100,8|0,0:1|0:0,0:0:0:0:
201,28,89691,6,0,P|155:14|108:28,1,100,0|2,0:0|0:1,0:0:0:0:
71,100,90268,1,0,0:0:0:0:
141,193,90460,2,0,L|153:94,1,100,8|0,0:1|0:0,0:0:0:0:
130,272,91229,5,2,0:1:0:0:
130,272,91422,2,0,P|70:267|32:230,1,100,4|8,3:0|0:1,0:0:0:0:
141,193,91999,2,0,L|202:198,2,50,0|8|2,0:0|0:1|0:0,0:0:0:0:
300,205,92768,5,4,0:0:0:0:
256,192,92864,12,0,95076,0:0:0:0:
354,261,111229,6,0,L|411:252,2,50,4|0|2,0:0|0:0|0:1,0:0:0:0:
284,221,111806,1,0,0:0:0:0:
223,273,111999,2,0,L|232:330,2,50,8|0|2,0:1|0:0|0:1,0:0:0:0:
146,249,112576,6,0,L|164:363,2,100
208,198,113537,2,0,P|222:145|204:99,1,100,8|2,0:1|0:1,0:0:0:0:
352,36,114306,6,0,B|392:49|392:49|471:40,1,100,2|0,0:1|0:0,0:0:0:0:
489,111,114883,1,0,0:0:0:0:
489,111,115076,2,0,P|474:158|488:205,1,100,8|0,0:1|0:0,0:0:0:0:
396,336,115845,5,0,0:0:0:0:
396,336,116037,2,0,L|403:276,1,50,2|2,0:1|0:1,0:0:0:0:
343,137,116614,2,0,L|331:236,1,100,8|0,0:1|0:0,0:0:0:0:
262,277,117191,1,0,0:0:0:0:
200,225,117383,6,0,P|152:212|106:230,1,100,2|2,0:1|0:1,0:0:0:0:
21,94,118152,2,0,P|68:106|114:88,1,100,8|0,0:1|0:0,0:0:0:0:
200,225,118922,6,0,L|185:345,1,100,2|2,0:1|0:1,0:0:0:0:
32,284,119691,2,0,L|19:184,1,100,8|2,0:1|0:1,0:0:0:0:
106,50,120460,6,0,P|153:37|199:55,1,100,2|0,0:1|0:0,0:0:0:0:
337,136,121229,2,0,P|384:148|430:130,1,100,8|0,0:1|0:0,0:0:0:0:
284,64,121999,6,0,L|255:115,1,50,2|2,0:1|0:1,0:0:0:0:
267,186,122383,2,0,B|281:223|281:223|276:301,2,100,2|8|0,0:1|0:1|0:0,0:0:0:0:
112,230,123537,6,0,P|157:250|205:238,1,100,2|2,0:1|0:1,0:0:0:0:
154,86,124306,2,0,P|109:66|61:78,1,100,8|0,0:1|0:0,0:0:0:0:
201,155,125076,6,0,L|259:138,2,50,2|2|2,0:1|0:1|0:1,0:0:0:0:
317,44,125845,2,0,P|364:55|409:35,1,100,8|0,0:1|0:0,0:0:0:0:
482,178,126614,6,0,B|473:223|473:223|482:284,1,100,2|0,0:1|0:0,0:0:0:0:
439,345,127191,2,0,P|397:319|348:321,1,100
272,349,127768,1,0,0:0:0:0:
144,252,128152,6,0,L|33:264,1,100,8|4,0:1|0:1,0:0:0:0:
113,117,128922,2,0,L|224:129,1,100,8|2,0:1|0:1,0:0:0:0:
368,91,129691,6,0,L|361:41,1,50,4|0,0:0|0:0,0:0:0:0:
446,106,130076,2,0,L|440:57,1,50
394,166,130460,1,8,0:1:0:0:
394,166,130845,6,0,L|387:215,1,50
473,151,131229,2,0,L|466:200,1,50
420,91,131614,2,0,P|378:74|313:89,1,100,2|8,0:1|0:1,0:0:0:0:
246,100,132191,2,0,L|253:51,2,50,0|2|0,0:0|0:1|0:0,0:0:0:0:
187,154,132768,6,0,P|138:162|92:145,1,100,0|2,0:0|0:1,0:0:0:0:
27,97,133345,2,0,L|36:217,1,100
44,276,133922,1,0,0:0:0:0:
44,276,134114,2,0,P|71:318|68:367,1,100
110,230,134691,6,0,P|106:180|133:139,1,100,2|8,0:1|0:1,0:0:0:0:
231,189,135268,1,0,0:0:0:0:
231,189,135460,2,0,L|183:201,1,50
282,253,135845,6,0,P|330:244|376:262,2,100,2|0|8,0:1|0:0|0:1,0:0:0:0:
221,305,136806,2,0,L|215:366,1,50
139,329,137191,1,0,0:0:0:0:
139,329,137383,6,0,L|148:229,1,100,0|2,0:0|0:1,0:0:0:0:
124,152,137960,1,0,0:0:0:0:
56,108,138152,2,0,L|-1:118,2,50,8|0|0,0:1|0:0|0:0,0:0:0:0:
123,151,138729,6,0,P|170:137|191:93,1,100
238,27,139306,2,0,L|293:29,1,50,2|0,0:1|0:0,0:0:0:0:
343,86,139691,2,0,L|453:90,1,100,8|0,0:1|0:0,0:0:0:0:
502,238,140460,1,0,0:0:0:0:
358,165,140845,6,0,L|258:161,2,100,2|8|4,0:1|0:1|0:1,0:0:0:0:
414,221,141806,1,4,0:1:0:0:
363,325,141999,6,0,L|356:276,1,50,4|0,0:0|0:0,0:0:0:0:
281,304,142383,2,0,L|273:254,1,50
199,283,142768,1,8,0:1:0:0:
199,283,143152,6,0,L|159:251,1,50
221,200,143536,2,0,L|181:168,1,50
244,119,143922,2,0,P|296:107|338:131,1,100,2|8,0:1|0:1,0:0:0:0:
404,86,144499,2,0,L|458:79,2,50,0|2|0,0:0|0:1|0:0,0:0:0:0:
357,20,145076,6,0,L|252:31,1,100,0|2,0:0|0:1,0:0:0:0:
183,60,145652,2,0,P|134:66|90:44,1,100
27,94,146229,1,0,0:0:0:0:
27,94,146422,2,0,B|21:136|21:136|32:192,1,100
99,294,146999,6,0,P|120:249|112:201,2,100,2|8|0,0:1|0:1|0:0,0:0:0:0:
153,353,147960,1,0,0:0:0:0:
226,322,148152,6,0,B|261:310|261:310|323:317,2,100,2|0|8,0:1|0:0|0:1,0:0:0:0:
367,247,149306,2,0,L|416:252,1,50
474,306,149691,6,0,P|494:260|485:212,1,100,0|2,0:0|0:1,0:0:0:0:
409,71,150460,2,0,P|389:117|398:165,1,100,8|0,0:1|0:0,0:0:0:0:
286,279,151229,6,0,B|254:276|254:276|220:289|220:289|173:285,1,100,0|2,0:0|0:1,0:0:0:0:
120,188,151806,1,0,0:0:0:0:
120,188,151999,2,0,P|169:183|211:209,1,100,8|0,0:1|0:0,0:0:0:0:
45,217,152768,5,2,0:1:0:0:
45,217,152960,2,0,L|36:109,1,100,4|8,0:3|0:1,0:0:0:0:
103,73,153537,2,0,L|97:8,2,50,0|8|2,0:0|0:1|0:0,0:0:0:0:
256,192,154306,12,0,157383,0:0:0:0:
304,79,160460,6,0,P|258:96|208:91,1,100,4|0,0:0|0:0,0:0:0:0:
59,35,161229,1,2,0:0:0:0:
59,35,161999,6,0,L|49:138,1,100,2|0,0:0|0:0,0:0:0:0:
41,215,162576,1,2,0:0:0:0:
41,215,163152,6,0,P|25:261|44:317,1,100
113,340,163729,2,0,L|184:337,2,50,0|2|2,0:0|0:0|0:0,0:0:0:0:
104,263,164306,6,0,L|224:258,1,100,2|0,0:0|0:0,0:0:0:0:
275,298,164883,1,0,0:0:0:0:
275,298,165076,2,0,L|325:290,1,50,2|2,0:0|0:0,0:0:0:0:
396,253,165460,2,0,P|404:305|375:354,1,100,2|0,0:0|0:0,0:0:0:0:
115,173,166614,6,0,B|179:180|179:180|214:172,1,100,4|0,0:0|0:0,0:0:0:0:
365,118,167383,1,2,0:0:0:0:
365,118,168152,6,0,P|382:165|369:213,1,100,2|0,0:0|0:0,0:0:0:0:
317,273,168729,1,2,0:0:0:0:
317,273,169306,6,0,L|207:265,1,100
138,264,169883,2,0,L|77:272,2,50,0|2|2,0:0|0:0|0:0,0:0:0:0:
183,198,170460,6,0,P|203:145|184:89,1,100,2|0,0:0|0:0,0:0:0:0:
241,39,171037,1,0,0:0:0:0:
241,39,171229,2,0,L|309:42,1,50,2|8,0:0|0:1,0:0:0:0:
353,94,171614,2,0,P|402:101|446:78,2,100,0|8|4,0:0|0:1|0:1,0:0:0:0:
195,119,172768,6,0,P|147:110|102:130,2,100,4|0|8,0:0|0:0|0:0,0:0:0:0:
252,176,173729,1,0,0:0:0:0:
203,240,173922,2,0,L|199:307,1,50
247,356,174306,6,0,P|296:366|341:346,2,100,0|2|8,0:0|0:1|0:0,0:0:0:0:
91,322,175460,1,0,0:0:0:0:
75,163,175845,6,0,L|68:92,1,50,2|0,0:1|0:0,0:0:0:0:
15,56,176229,1,0,0:0:0:0:
15,56,176422,2,0,P|60:35|108:43,1,100
177,85,176999,2,0,L|182:135,1,50
214,209,177383,6,0,P|259:231|307:223,2,100,0|2|8,0:0|0:1|0:0,0:0:0:0:
296,348,178537,2,0,L|346:353,1,50
392,288,178922,6,0,P|441:282|485:305,2,100,2|0|8,0:1|0:0|0:0,0:0:0:0:
341,226,179883,1,0,0:0:0:0:
341,226,180076,2,0,L|292:231,1,50
212,240,180460,6,0,L|210:290,1,50
149,196,180845,1,2,0:1:0:0:
140,119,181037,1,0,0:0:0:0:
191,61,181229,2,0,P|240:64|281:37,1,100,8|0,0:1|0:0,0:0:0:0:
405,141,181999,6,0,P|364:114|315:117,1,100,2|0,0:1|0:0,0:0:0:0:
252,166,182576,2,0,L|143:157,1,100
73,152,183152,1,0,0:0:0:0:
118,86,183345,1,0,0:0:0:0:
109,225,183537,6,0,L|105:268,2,25,2|0|0,0:0|0:0|0:0,0:0:0:0:
153,158,183922,1,0,0:0:0:0:
73,152,184114,1,8,0:1:0:0:
29,219,184306,1,8,0:1:0:0:
62,291,184499,1,8,0:1:0:0:
142,298,184691,1,2,0:1:0:0:
189,234,184883,1,2,0:1:0:0:
109,225,185845,5,4,0:0:0:0:
256,192,185941,12,0,191229,0:0:0:0:
