osu file format v14

[General]
AudioFilename: Anzu~~~.mp3
AudioLeadIn: 2000
PreviewTime: 111229
Countdown: 0
SampleSet: Soft
StackLeniency: 0.4
Mode: 0
LetterboxInBreaks: 0
WidescreenStoryboard: 0

[Editor]
DistanceSpacing: 1.5
BeatDivisor: 4
GridSize: 8
TimelineZoom: 1

[Metadata]
Title:Shiawase Gatari game ver.
TitleUnicode:しあわせがたり game ver.
Artist:Chata
ArtistUnicode:茶太
Creator:[Teichan]
Version:Insane
Source:Clover Day's
Tags:eroge ALcot 10th Anniversary visual novel ending Minakami Yuki Laurier
BeatmapID:594261
BeatmapSetID:260117

[Difficulty]
HPDrainRate:6
CircleSize:4
OverallDifficulty:7
ApproachRate:8
SliderMultiplier:1.2
SliderTickRate:1

[Events]
//Background and Video events
0,0,"BG.png",0,0
Video,0,"ed.flv"
//Break Periods
2,95276,108941
//Storyboard Layer 0 (Background)
//Storyboard Layer 1 (Fail)
//Storyboard Layer 2 (Pass)
//Storyboard Layer 3 (Foreground)
//Storyboard Sound Samples

[TimingPoints]
-1078,384.615384615385,4,2,1,35,1,0
556,-100,4,2,1,60,0,0
3152,-100,4,2,1,35,0,0
3249,-100,4,2,1,60,0,0
6614,-100,4,2,1,35,0,0
6710,-100,4,2,1,60,0,0
9306,-100,4,2,1,35,0,0
9402,-100,4,2,1,60,0,0
11806,-100,4,2,1,25,0,0
11902,-100,4,2,1,35,0,0
11999,-100,4,2,1,45,0,0
12191,-100,4,2,1,60,0,0
12768,-100,4,2,1,35,0,0
12864,-100,4,2,1,60,0,0
25076,-100,4,2,1,35,0,0
25172,-100,4,2,1,60,0,0
31229,-133.333333333333,4,2,1,30,0,0
31326,-133.333333333333,4,2,1,45,0,0
43537,-111.111111111111,4,2,1,45,0,0
55845,-111.111111111111,4,2,1,35,0,0
55941,-111.111111111111,4,2,1,60,0,0
68152,-100,4,2,1,35,0,1
68249,-100,4,2,1,70,0,1
79499,-100,4,2,1,30,0,1
79595,-100,4,2,1,50,0,1
79691,-100,4,2,1,70,0,1
80460,-100,4,2,1,35,0,1
80556,-100,4,2,1,70,0,1
92768,-100,4,2,1,40,0,0
111229,-100,4,2,1,50,0,0
129691,-100,4,2,1,40,0,1
129787,-100,4,2,1,70,0,1
141037,-100,4,2,1,30,0,1
141133,-100,4,2,1,50,0,1
141229,-100,4,2,1,70,0,1
141999,-100,4,2,1,40,0,1
142095,-100,4,2,1,70,0,1
154306,-100,4,2,1,35,0,0
154402,-100,4,2,1,50,0,0
159499,-100,4,2,1,70,0,0
160460,-100,4,2,1,35,0,0
160556,-100,4,2,1,60,0,0
163152,-100,4,2,1,35,0,0
163249,-100,4,2,1,60,0,0
166614,-100,4,2,1,35,0,0
166710,-100,4,2,1,60,0,0
169306,-100,4,2,1,35,0,0
169402,-100,4,2,1,60,0,0
171806,-100,4,2,1,25,0,0
171902,-100,4,2,1,35,0,0
171999,-100,4,2,1,45,0,0
172191,-100,4,2,1,50,0,0
186614,-100,4,2,1,40,0,0
188152,-100,4,2,1,30,0,0
189691,-100,4,2,1,20,0,0
191229,-100,4,2,1,10,0,0

[Colours]
Combo1 : 0,255,255
Combo2 : 255,255,0
Combo3 : 255,176,60
Combo4 : 255,128,255

[HitObjects]
360,337,460,5,4,0:0:0:0:
360,337,1229,1,2,0:0:0:0:
360,337,1999,5,2,0:0:0:0:
440,297,2191,1,0,0:0:0:0:
400,217,2384,1,0,0:0:0:0:
319,258,2576,2,0,P|268:279|201:271,1,120,2|0,0:0|0:0,0:0:0:0:
145,340,3152,2,0,L|93:167,1,180,4|0,0:0|0:0,0:0:0:0:
209,95,3922,5,2,0:0:0:0:
125,48,4114,1,2,0:0:0:0:
299,29,4306,2,0,L|351:207,1,180,2|0,0:0|0:0,0:0:0:0:
435,254,5076,2,0,L|443:194,1,60,2|2,0:0|0:0,0:0:0:0:
354,300,5460,2,0,P|395:341|454:345,2,120,2|0|0,0:0|0:0|0:0,0:0:0:0:
489,168,6614,6,0,L|375:113,1,120,4|0,0:0|0:0,0:0:0:0:
247,237,7383,2,0,P|181:227|139:167,1,120,2|0,0:0|0:0,0:0:0:0:
243,20,8152,5,2,0:0:0:0:
228,143,8345,1,0,0:0:0:0:
173,72,8537,1,0,0:0:0:0:
299,87,8729,2,0,L|366:96,2,60,2|0|0,0:0|0:0|0:0,0:0:0:0:
426,33,9306,2,0,P|449:108|384:184,1,180,4|0,0:0|0:0,0:0:0:0:
352,264,10076,5,2,0:0:0:0:
299,191,10268,1,2,0:0:0:0:
439,256,10460,2,0,P|410:337|325:352,1,180,2|0,0:0|0:0,0:0:0:0:
253,298,11229,5,2,0:0:0:0:
200,225,11421,1,8,0:1:0:0:
352,264,11614,2,0,L|335:323,1,60,2|8,0:0|0:1,0:0:0:0:
330,337,11902,1,8,0:1:0:0:
325,353,11999,1,8,0:1:0:0:
200,225,12191,1,8,0:1:0:0:
108,380,12383,1,4,0:1:0:0:
11,206,12768,6,0,P|3:154|30:82,1,120,4|0,0:0|0:0,0:0:0:0:
196,21,13537,2,0,P|204:69|177:142,1,120,8|0,0:0|0:0,0:0:0:0:
99,172,14114,1,0,0:0:0:0:
171,224,14306,2,0,L|183:297,1,60
251,339,14691,2,0,P|310:347|373:320,1,120,2|8,0:1|0:0,0:0:0:0:
460,172,15460,1,0,0:0:0:0:
324,53,15845,6,0,L|199:65,1,120,2|0,0:1|0:0,0:0:0:0:
62,175,16614,2,0,L|190:162,1,120,8|0,0:0|0:0,0:0:0:0:
260,205,17191,1,0,0:0:0:0:
338,249,17383,2,0,L|404:242,2,60,0|2|2,0:0|0:1|0:1,0:0:0:0:
142,373,18152,2,0,L|124:315,1,60,8|0,0:0|0:0,0:0:0:0:
194,262,18537,2,0,L|211:320,1,60
260,205,18922,6,0,P|304:166|372:168,1,120,2|0,0:1|0:0,0:0:0:0:
496,285,19691,1,8,0:0:0:0:
499,104,20076,2,0,L|430:92,1,60
364,45,20460,2,0,L|295:33,2,60,0|2|2,0:0|0:1|0:1,0:0:0:0:
184,60,21229,2,0,P|154:107|152:171,1,120,8|0,0:0|0:0,0:0:0:0:
203,361,21999,6,0,B|264:363|319:329,1,120,2|0,0:1|0:0,0:0:0:0:
331,150,22768,2,0,B|270:148|216:180,1,120,8|0,0:0|0:0,0:0:0:0:
142,232,23345,1,0,0:0:0:0:
212,291,23537,2,0,P|234:237|217:181,1,120
128,144,24114,1,8,0:1:0:0:
57,201,24306,1,8,0:1:0:0:
72,290,24499,1,8,0:1:0:0:
156,322,24691,1,4,0:1:0:0:
225,268,24884,1,4,0:1:0:0:
309,297,25076,6,0,P|372:310|425:300,1,120,4|0,0:0|0:0,0:0:0:0:
491,131,25845,2,0,P|430:117|375:128,1,120
205,189,26614,1,0,0:0:0:0:
78,316,26999,2,0,P|40:267|33:204,1,120,2|8,0:1|0:0,0:0:0:0:
159,83,27768,1,0,0:0:0:0:
327,145,28152,6,0,P|381:151|457:133,2,120,2|0|0,0:1|0:0|0:0,0:0:0:0:
159,83,29306,1,0,0:0:0:0:
189,260,29690,1,0,0:0:0:0:
351,337,30075,2,0,P|371:281|364:222,1,120,2|8,0:1|0:0,0:0:0:0:
266,177,30845,1,0,0:0:0:0:
189,260,31229,6,0,L|158:166,1,90.0000034332277,4|0,0:0|0:0,0:0:0:0:
96,72,31999,2,0,P|55:82|8:76,2,90.0000034332277,2|0|0,0:0|0:0|0:0,0:0:0:0:
226,48,33152,1,2,0:1:0:0:
357,15,33537,2,0,L|372:105,1,90.0000034332277,8|0,0:0|0:0,0:0:0:0:
473,188,34306,6,0,L|376:224,1,90.0000034332277,2|0,0:1|0:0,0:0:0:0:
268,282,35076,2,0,P|273:329|269:377,2,90.0000034332277,2|0|0,0:0|0:0|0:0,0:0:0:0:
153,210,36229,1,2,0:1:0:0:
237,104,36614,2,0,L|328:71,1,90.0000034332277,8|0,0:0|0:0,0:0:0:0:
447,24,37383,6,0,P|459:73|439:122,1,90.0000034332277,2|0,0:1|0:0,0:0:0:0:
352,205,38152,1,2,0:0:0:0:
321,73,38537,1,0,0:0:0:0:
423,160,38922,1,0,0:0:0:0:
423,160,39306,2,0,P|434:215|411:263,1,90.0000034332277,2|0,0:1|0:0,0:0:0:0:
316,328,40076,1,0,0:0:0:0:
184,355,40460,6,0,L|107:304,1,90.0000034332277,0|2,0:1|0:1,0:0:0:0:
237,240,41229,2,0,L|159:190,1,90.0000034332277,2|0,0:0|0:0,0:0:0:0:
79,95,41999,1,0,0:0:0:0:
40,208,42383,1,2,0:1:0:0:
192,102,42768,2,0,L|284:81,1,90.0000034332277,8|0,0:0|0:0,0:0:0:0:
440,60,43537,6,0,L|417:173,1,107.999996704102,2|0,0:1|0:0,0:0:0:0:
273,237,44306,2,0,L|250:344,2,107.999996704102,2|0|0,0:0|0:0|0:0,0:0:0:0:
224,82,45460,1,2,0:1:0:0:
382,116,45845,2,0,P|429:115|499:94,1,107.999996704102,8|0,0:0|0:0,0:0:0:0:
435,314,46614,6,0,P|429:260|402:214,1,107.999996704102,2|0,0:1|0:0,0:0:0:0:
320,102,47383,2,0,P|291:56|285:3,2,107.999996704102,2|0|0,0:0|0:0|0:0,0:0:0:0:
211,222,48537,1,2,0:1:0:0:
154,78,48922,2,0,L|261:59,1,107.999996704102,8|0,0:0|0:0,0:0:0:0:
406,52,49691,6,0,P|426:104|425:168,1,107.999996704102,2|0,0:1|0:0,0:0:0:0:
360,335,50460,1,2,0:0:0:0:
390,247,50652,2,0,L|317:223,1,53.9999983520508
285,207,51037,2,0,P|242:153|242:55,1,161.999995056153,0|2,0:0|0:1,0:0:0:0:
398,92,51999,5,8,0:0:0:0:
239,63,52191,2,0,L|174:49,1,53.9999983520508
106,36,52576,2,0,P|79:115|104:196,1,161.999995056153,0|2,0:0|0:1,0:0:0:0:
213,302,53537,2,0,L|325:286,1,107.999996704102,2|0,0:0|0:0,0:0:0:0:
470,225,54306,6,0,P|488:179|482:105,1,107.999996704102,0|2,0:0|0:1,0:0:0:0:
324,80,55076,1,4,0:1:0:0:
209,42,55268,1,4,0:1:0:0:
279,140,55460,1,4,0:1:0:0:
279,20,55653,1,4,0:1:0:0:
209,117,55845,6,0,P|176:152|165:217,1,107.999996704102,4|0,0:0|0:0,0:0:0:0:
11,146,56614,2,0,P|0:192|15:255,1,107.999996704102,8|0,0:0|0:0,0:0:0:0:
142,347,57383,2,0,L|250:332,1,107.999996704102,2|0,0:1|0:0,0:0:0:0:
366,220,58152,1,8,0:0:0:0:
422,161,58345,2,0,L|477:149,2,53.9999983520508,2|0|0,0:1|0:0|0:0,0:0:0:0:
347,135,58922,6,0,P|300:112|270:67,1,107.999996704102,2|0,0:1|0:0,0:0:0:0:
142,167,59691,2,0,P|113:127|109:59,1,107.999996704102,8|0,0:0|0:0,0:0:0:0:
270,68,60460,5,2,0:1:0:0:
424,40,60845,2,0,L|446:107,1,53.9999983520508
389,146,61229,2,0,L|378:209,1,53.9999983520508,8|0,0:0|0:0,0:0:0:0:
444,243,61614,2,0,L|454:302,1,53.9999983520508
409,357,61999,6,0,P|366:365|301:340,1,107.999996704102,2|0,0:1|0:0,0:0:0:0:
229,217,62768,2,0,P|274:208|330:233,1,107.999996704102,8|0,0:0|0:0,0:0:0:0:
269,287,63345,1,2,0:1:0:0:
188,292,63537,2,0,P|156:261|148:198,1,107.999996704102,2|0,0:1|0:0,0:0:0:0:
54,67,64306,2,0,L|1:34,2,53.9999983520508,8|0|0,0:1|0:0|0:0,0:0:0:0:
133,50,64883,1,0,0:0:0:0:
212,33,65076,6,0,L|317:97,1,107.999996704102,2|0,0:1|0:0,0:0:0:0:
378,233,65845,1,8,0:1:0:0:
426,297,66037,2,0,L|473:330,2,53.9999983520508
345,304,66614,5,2,0:1:0:0:
264,311,66806,2,0,P|262:258|296:203,1,107.999996704102,8|8,0:1|0:1,0:0:0:0:
426,297,67383,1,8,0:1:0:0:
264,311,67576,1,4,0:1:0:0:
264,311,67672,1,4,0:1:0:0:
264,311,67768,2,0,L|187:320,1,53.9999983520508,4|0,0:1|0:1,0:0:0:0:
121,329,68152,6,0,L|66:279,1,60,4|0,0:0|0:0,0:1:0:0:
106,197,68537,2,0,L|151:238,1,60
135,111,68922,1,8,0:1:0:0:
264,236,69306,6,0,L|209:186,1,60
248,103,69691,2,0,L|293:143,1,60
284,19,70075,2,0,P|341:16|398:45,1,120,2|8,0:1|0:1,0:1:0:0:
446,118,70652,2,0,L|506:82,2,60,0|2|0,0:0|0:1|0:0,0:1:0:0:
434,207,71229,6,0,L|441:330,1,120,0|2,0:0|0:1,0:1:0:0:
262,332,71999,2,0,L|255:203,1,120,8|0,0:1|0:0,0:1:0:0:
167,193,72576,1,0,0:1:0:0:
79,171,72768,6,0,L|75:98,1,60
125,36,73152,2,0,P|173:23|251:17,1,120,2|8,0:1|0:1,0:1:0:0:
402,88,73729,2,0,P|397:58|390:29,2,60,0|0|2,0:0|0:1|0:1,0:1:0:0:
411,177,74306,5,2,0:1:0:0:
293,301,74691,2,0,P|270:314|234:328,1,60
152,350,75075,1,8,0:1:0:0:
303,211,75460,2,0,P|277:211|241:206,1,60
154,187,75845,6,0,L|105:132,1,60
56,210,76229,2,0,P|30:163|48:84,1,120,2|8,0:1|0:1,0:1:0:0:
207,31,76999,2,0,L|264:49,1,60,2|0,0:1|0:0,0:0:0:0:
377,87,77383,5,0,0:1:0:0:
377,87,77768,2,0,P|399:141|386:204,1,120,2|8,0:1|0:1,0:1:0:0:
239,275,78537,1,0,0:1:0:0:
61,307,78922,6,0,L|56:246,1,60,0|2,0:1|0:1,0:1:0:0:
68,156,79306,1,2,0:1:0:0:
160,196,79499,1,8,0:1:0:0:
160,196,79595,1,8,0:1:0:0:
160,196,79691,1,8,0:1:0:0:
327,161,79883,1,4,0:1:0:0:
240,244,80076,1,4,0:1:0:0:
248,100,80268,1,4,0:1:0:0:
385,97,80460,6,0,L|417:147,1,60,4|0,0:0|0:1,0:1:0:0:
327,161,80845,2,0,L|326:227,1,60
414,235,81229,1,8,0:1:0:0:
240,244,81614,6,0,L|272:294,1,60,2|8,0:1|0:1,0:0:0:0:
182,308,81999,2,0,L|181:373,1,60,0|0,0:1|0:0,0:0:0:0:
266,384,82383,2,0,P|315:373|358:321,1,120,2|8,0:1|0:1,0:1:0:0:
414,235,82960,1,0,0:0:0:0:
272,295,83152,1,0,0:1:0:0:
397,383,83345,1,0,0:0:0:0:
327,222,83537,6,0,P|277:198|214:217,1,120,2|2,0:1|0:1,0:1:0:0:
399,138,84306,2,0,L|293:75,1,120,8|0,0:1|0:1,0:1:0:0:
208,54,84883,1,0,0:1:0:0:
146,135,85076,2,0,L|78:149,1,60
43,232,85460,6,0,L|104:243,1,60,2|0,0:1|0:1,0:1:0:0:
189,219,85844,2,0,L|263:206,1,60,0|0,0:1|0:0,0:1:0:0:
318,297,86229,2,0,L|385:311,1,60,0|2,0:1|0:1,0:1:0:0:
474,380,86614,6,0,P|497:333|487:265,1,120,2|0,0:1|0:1,0:1:0:0:
405,122,87383,2,0,L|289:89,1,120,8|0,0:1|0:1,0:1:0:0:
241,165,87960,1,0,0:1:0:0:
192,236,88152,2,0,L|132:217,1,60,0|0,0:0|0:0,0:1:0:0:
52,255,88537,6,0,L|35:313,1,60,2|0,0:1|0:0,0:1:0:0:
153,138,88922,2,0,L|170:77,1,60,8|0,0:1|0:0,0:1:0:0:
264,293,89306,2,0,L|246:354,1,60,2|0,0:1|0:0,0:1:0:0:
401,119,89691,6,0,P|401:63|357:15,1,120,2|0,0:1|0:1,0:1:0:0:
228,187,90460,2,0,L|311:101,1,120,8|0,0:1|0:1,0:1:0:0:
157,239,91229,1,8,0:1:0:0:
237,279,91422,2,0,P|287:267|317:208,1,120,4|8,0:1|0:1,0:1:0:0:
390,154,91999,1,0,0:1:0:0:
228,187,92191,1,8,0:1:0:0:
344,316,92383,1,8,0:1:0:0:
286,63,92768,5,4,0:0:0:0:
256,192,92864,12,8,95076,0:1:0:0:
256,192,109691,12,2,110845,0:1:0:0:
336,117,111229,6,0,L|393:90,4,60,4|0|2|0|8,0:0|0:0|0:1|0:0|0:1,0:0:0:0:
411,201,112383,2,0,L|476:214,4,60,0|2|0|0|2,0:0|0:1|0:0|0:0|0:1,0:0:0:0:
369,326,113537,2,0,P|312:330|244:305,1,120,8|2,0:1|0:1,0:0:0:0:
143,264,114306,6,0,L|86:291,4,60,2|0|0|0|8,0:1|0:0|0:0|0:0|0:1,0:0:0:0:
68,180,115460,2,0,L|3:167,4,60,0|2|0|0|2,0:0|0:1|0:0|0:0|0:1,0:0:0:0:
181,112,116614,2,0,P|233:127|283:180,1,120,8|2,0:1|0:1,0:0:0:0:
340,280,117383,6,0,L|384:331,4,60,2|0|2|0|8,0:1|0:0|0:1|0:0|0:1,0:0:0:0:
407,156,118537,2,0,L|477:145,4,60,2|2|0|0|2,0:1|0:1|0:0|0:0|0:1,0:0:0:0:
319,235,119691,2,0,P|259:232|212:195,1,120,8|2,0:1|0:1,0:0:0:0:
172,104,120460,6,0,L|128:53,4,60,2|0|0|0|8,0:1|0:0|0:0|0:0|0:1,0:0:0:0:
105,228,121614,2,0,L|35:239,4,60,2|2|0|2|2,0:1|0:1|0:0|0:1|0:1,0:0:0:0:
213,317,122768,1,8,0:1:0:0:
318,225,123152,2,0,L|341:160,1,60,2|2,0:1|0:1,0:0:0:0:
381,98,123537,6,0,L|443:66,4,60,2|0|2|0|8,0:1|0:0|0:1|0:0|0:1,0:0:0:0:
320,314,124691,2,0,L|383:344,4,60,2|0|0|2|2,0:1|0:1|0:0|0:1|0:1,0:0:0:0:
284,186,125845,2,0,P|225:182|172:155,1,120,8|2,0:1|0:1,0:0:0:0:
131,286,126614,6,0,L|69:318,4,60,2|0|0|0|8,0:1|0:0|0:0|0:0|0:1,0:0:0:0:
192,70,127768,2,0,L|129:40,4,60,0|0|8|2|2,0:0|0:0|0:1|0:1|0:1,0:0:0:0:
277,43,128729,1,0,0:0:0:0:
362,71,128922,2,0,P|401:115|405:173,1,120,8|2,0:1|0:1,0:1:0:0:
382,312,129691,6,0,L|365:242,1,60,4|0,0:0|0:1,0:1:0:0:
281,280,130076,2,0,L|267:221,1,60
305,367,130460,1,8,0:1:0:0:
267,221,130845,6,0,L|250:151,1,60
167,190,131230,2,0,L|153:131,1,60
191,277,131614,2,0,P|135:274|83:228,1,120,2|8,0:1|0:1,0:1:0:0:
64,146,132191,2,0,L|10:113,2,60,0|4|0,0:0|0:1|0:0,0:1:0:0:
153,132,132768,6,0,L|263:82,1,120,0|2,0:1|0:1,0:1:0:0:
440,109,133537,2,0,P|436:52|383:8,1,120,8|0,0:1|0:1,0:1:0:0:
354,91,134114,1,0,0:1:0:0:
383,176,134306,2,0,L|388:237,1,60
478,241,134691,2,0,P|461:296|398:327,1,120,2|8,0:1|0:1,0:1:0:0:
263,359,135460,2,0,L|197:349,1,60,0|2,0:1|0:1,0:1:0:0:
126,302,135845,6,0,P|102:253|100:182,1,120,2|0,0:1|0:1,0:1:0:0:
190,9,136614,1,8,0:1:0:0:
350,91,136999,2,0,L|348:154,1,60
434,125,137383,2,0,L|432:244,1,120,0|2,0:1|0:1,0:1:0:0:
257,289,138152,2,0,L|259:144,1,120,8|2,0:1|0:1,0:1:0:0:
80,138,138922,6,0,P|128:109|194:99,1,120,0|2,0:1|0:1,0:1:0:0:
354,23,139691,2,0,L|409:59,1,60,8|0,0:1|0:1,0:1:0:0:
334,112,140076,2,0,L|385:146,1,60
417,228,140460,2,0,L|467:261,2,60,0|2|2,0:0|0:1|0:1,0:1:0:0:
471,155,141037,1,8,0:1:0:0:
471,155,141133,1,8,0:1:0:0:
471,155,141229,1,8,0:1:0:0:
329,217,141422,1,4,0:1:0:0:
383,145,141614,1,4,0:1:0:0:
366,300,141806,1,4,0:1:0:0:
233,350,141999,6,0,L|209:295,1,60,4|0,0:0|0:1,0:1:0:0:
103,334,142384,2,0,L|152:366,1,60
134,253,142768,1,8,0:1:0:0:
316,152,143152,6,0,L|292:97,1,60,2|8,0:1|0:1,0:1:0:0:
186,136,143537,2,0,L|244:174,1,60
217,50,143922,2,0,P|154:52|105:97,1,120,2|8,0:1|0:1,0:1:0:0:
115,262,144499,1,0,0:1:0:0:
186,136,144691,1,0,0:1:0:0:
42,135,144883,1,0,0:1:0:0:
184,218,145076,6,0,P|232:226|309:198,1,120,2|2,0:1|0:1,0:1:0:0:
432,84,145845,2,0,L|425:210,1,120,8|0,0:1|0:1,0:1:0:0:
394,300,146422,1,0,0:1:0:0:
297,278,146614,2,0,L|227:300,1,60
128,366,146999,6,0,L|115:307,1,60,2|0,0:1|0:1,0:1:0:0:
175,235,147383,2,0,L|186:166,1,60,8|0,0:1|0:0,0:1:0:0:
97,134,147768,2,0,L|86:71,1,60,0|2,0:1|0:1,0:1:0:0:
186,25,148152,6,0,L|314:16,1,120,2|0,0:1|0:1,0:1:0:0:
467,100,148922,2,0,L|335:111,1,120,8|0,0:1|0:0,0:1:0:0:
299,186,149499,1,0,0:1:0:0:
255,264,149691,2,0,L|185:270,1,60,0|0,0:0|0:0,0:1:0:0:
116,225,150076,6,0,L|51:230,1,60,2|0,0:1|0:0,0:1:0:0:
299,186,150460,2,0,L|367:179,1,60,8|0,0:1|0:0,0:1:0:0:
202,91,150845,2,0,L|138:96,1,60,2|0,0:1|0:0,0:1:0:0:
436,120,151229,6,0,P|457:164|434:239,1,120,0|2,0:1|0:1,0:1:0:0:
236,251,151999,2,0,P|210:200|229:128,1,120,8|0,0:1|0:1,0:1:0:0:
320,296,152768,1,8,0:1:0:0:
240,345,152960,2,0,P|174:325|148:262,1,120,4|0,0:1|0:0,0:1:0:0:
120,197,153537,1,0,0:1:0:0:
307,173,153729,1,8,0:1:0:0:
240,345,153922,1,8,0:0:0:0:
194,55,154306,6,0,P|231:25|319:23,1,120,4|0,0:0|0:0,0:0:0:0:
445,126,155076,2,0,P|408:156|315:155,1,120,8|0,0:0|0:0,0:0:0:0:
248,152,155652,1,0,0:0:0:0:
167,192,155845,2,0,L|107:221,1,60
172,298,156229,2,0,L|64:350,1,120,2|8,0:0|0:0,0:0:0:0:
244,363,156999,1,0,0:0:0:0:
424,342,157383,6,0,L|443:220,1,120,2|0,0:1|0:0,0:0:0:0:
295,218,158152,2,0,L|314:99,1,120,8|0,0:0|0:0,0:0:0:0:
255,30,158729,1,0,0:0:0:0:
196,100,158922,2,0,L|217:226,1,120,2|2,0:1|0:1,0:0:0:0:
71,243,159499,1,4,0:1:0:0:
71,243,159595,1,4,0:1:0:0:
71,243,159691,2,0,L|91:364,1,120,4|4,0:1|0:1,0:1:0:0:
256,291,160460,5,0,0:0:0:0:
256,192,161229,1,0,0:0:0:0:
256,93,161999,5,2,0:0:0:0:
256,93,162191,1,0,0:3:0:0:
256,93,162383,1,0,0:3:0:0:
256,93,162576,2,0,P|203:109|160:175,1,120,2|0,0:0|0:0,0:0:0:0:
182,248,163152,2,0,L|352:310,1,180,4|0,0:0|0:0,0:0:0:0:
404,236,163922,5,2,0:0:0:0:
444,316,164114,1,2,0:0:0:0:
470,171,164306,2,0,P|389:143|321:197,1,180,2|0,0:0|0:0,0:0:0:0:
270,272,165076,5,2,0:0:0:0:
230,192,165268,1,2,0:0:0:0:
203,336,165460,2,0,P|255:365|313:355,2,120,2|0|0,0:0|0:0|0:0,0:0:0:0:
98,321,166614,6,0,L|115:195,1,120,4|0,0:0|0:0,0:0:0:0:
272,268,167383,2,0,L|287:149,1,120,2|0,0:0|0:0,0:0:0:0:
302,26,168152,5,2,0:0:0:0:
358,93,168345,1,0,0:0:0:0:
287,149,168537,1,0,0:0:0:0:
232,78,168729,2,0,L|163:69,2,60,2|0|0,0:0|0:0|0:0,0:0:0:0:
439,148,169306,2,0,P|463:220|398:301,1,180,4|0,0:0|0:0,0:0:0:0:
290,265,170076,5,2,0:0:0:0:
361,209,170268,1,2,0:0:0:0:
346,342,170460,2,0,P|261:358|200:297,1,180,2|0,0:0|0:0,0:0:0:0:
218,209,171229,5,2,0:1:0:0:
288,153,171422,1,8,0:1:0:0:
290,265,171614,2,0,L|225:213,1,60,2|8,0:0|0:1,0:0:0:0:
231,218,171902,1,8,0:1:0:0:
218,209,171999,1,8,0:1:0:0:
350,95,172191,1,8,0:1:0:0:
445,279,172383,1,4,0:1:0:0:
53,203,172768,6,0,P|45:151|70:74,1,120,2|0,0:1|0:0,0:0:0:0:
238,34,173537,2,0,P|246:82|224:157,1,120,8|0,0:0|0:0,0:0:0:0:
142,177,174114,1,0,0:0:0:0:
118,263,174306,2,0,L|118:329,1,60
201,357,174691,2,0,P|250:359|319:319,1,120,2|8,0:1|0:0,0:0:0:0:
353,130,175460,1,0,0:0:0:0:
197,223,175845,6,0,L|167:98,1,120
323,13,176614,2,0,L|353:130,1,120,8|0,0:0|0:0,0:0:0:0:
421,188,177191,1,0,0:0:0:0:
491,245,177383,2,0,L|507:307,2,60,0|2|2,0:0|0:1|0:1,0:0:0:0:
186,356,178152,2,0,L|177:294,1,60,8|0,0:0|0:1,0:0:0:0:
267,300,178537,2,0,L|274:238,1,60,0|0,0:0|0:1,0:0:0:0:
357,204,178922,6,0,P|373:153|350:81,1,120,2|0,0:1|0:0,0:0:0:0:
193,13,179691,2,0,L|78:47,1,120,8|0,0:0|0:0,0:0:0:0:
55,134,180268,1,0,0:0:0:0:
128,185,180460,2,0,L|187:165,1,60,2|2,0:1|0:1,0:0:0:0:
234,242,180845,2,0,L|368:200,2,120,2|8|0,0:1|0:0|0:0,0:0:0:0:
442,252,181999,6,0,P|452:204|422:138,1,120,2|0,0:1|0:0,0:0:0:0:
261,64,182768,2,0,P|250:111|283:177,1,120,8|0,0:0|0:0,0:0:0:0:
340,106,183345,1,0,0:0:0:0:
167,29,183537,2,0,P|154:136|216:253,1,240,2|8,0:1|0:1,0:0:0:0:
372,314,184499,1,8,0:1:0:0:
319,206,184691,1,2,0:1:0:0:
292,369,184883,1,2,0:1:0:0:
256,192,185845,5,4,0:0:0:0:
256,192,186037,12,0,191229,0:0:0:0:
