osu file format v14

[General]
AudioFilename: Anzu~~~.mp3
AudioLeadIn: 2000
PreviewTime: 111229
Countdown: 0
SampleSet: Soft
StackLeniency: 0.4
Mode: 0
LetterboxInBreaks: 0
WidescreenStoryboard: 0

[Editor]
DistanceSpacing: 1.4
BeatDivisor: 4
GridSize: 16
TimelineZoom: 1

[Metadata]
Title:Shiawase Gatari game ver.
TitleUnicode:しあわせがたり game ver.
Artist:Chata
ArtistUnicode:茶太
Creator:[Teichan]
Version:Normal
Source:Clover Day's
Tags:eroge ALcot 10th Anniversary visual novel ending Minakami Yuki Laurier
BeatmapID:604451
BeatmapSetID:260117

[Difficulty]
HPDrainRate:3
CircleSize:3
OverallDifficulty:3
ApproachRate:4
SliderMultiplier:0.8
SliderTickRate:2

[Events]
//Background and Video events
0,0,"BG.png",0,0
Video,0,"ed.flv"
//Break Periods
2,3352,5294
2,9506,11448
2,95276,109909
2,163352,165294
2,169505,171448
//Storyboard Layer 0 (Background)
//Storyboard Layer 1 (Fail)
//Storyboard Layer 2 (Pass)
//Storyboard Layer 3 (Foreground)
//Storyboard Sound Samples

[TimingPoints]
-1078,384.615384615385,4,2,1,35,1,0
556,-100,4,2,1,60,0,0
3152,-100,4,2,1,35,0,0
3249,-100,4,2,1,60,0,0
6614,-100,4,2,1,35,0,0
6710,-100,4,2,1,60,0,0
9306,-100,4,2,1,35,0,0
9402,-100,4,2,1,60,0,0
12768,-100,4,2,1,35,0,0
12864,-100,4,2,1,60,0,0
17479,-100,4,2,2,60,0,0
17672,-100,4,2,1,60,0,0
31229,-100,4,2,1,30,0,0
31326,-100,4,2,1,45,0,0
55845,-100,4,2,1,40,0,0
55941,-100,4,2,1,60,0,0
68152,-100,4,2,1,50,0,1
68249,-100,4,2,1,70,0,1
69402,-100,4,2,2,70,0,1
69595,-100,4,2,1,70,0,1
72479,-100,4,2,2,70,0,1
72672,-100,4,2,1,70,0,1
76133,-100,4,2,2,70,0,1
76326,-100,4,2,1,70,0,1
79402,-100,4,2,4,40,0,1
79595,-100,4,2,1,70,0,1
79979,-100,4,2,3,70,0,1
80172,-100,4,2,1,70,0,1
80460,-100,4,2,1,50,0,1
80556,-100,4,2,1,70,0,1
81710,-100,4,2,2,70,0,1
81902,-100,4,2,1,70,0,1
84787,-100,4,2,2,70,0,1
84979,-100,4,2,1,70,0,1
89979,-100,4,2,2,70,0,1
90172,-100,4,2,1,70,0,1
91326,-100,4,2,3,70,0,1
91518,-100,4,2,1,70,0,1
91710,-100,4,2,4,70,0,1
91902,-100,4,2,1,70,0,1
92095,-100,4,2,4,70,0,1
92287,-100,4,2,1,70,0,1
92768,-100,4,2,1,60,0,0
111229,-100,4,2,1,40,0,0
111326,-100,4,2,1,60,0,0
129691,-100,4,2,1,50,0,1
129787,-100,4,2,1,70,0,1
137095,-100,4,2,2,70,0,1
137287,-100,4,2,1,70,0,1
140941,-100,4,2,4,40,0,1
141133,-100,4,2,1,70,0,1
141518,-100,4,2,3,70,0,1
141710,-100,4,2,1,70,0,1
141999,-100,4,2,1,50,0,1
142095,-100,4,2,1,70,0,1
145364,-100,4,2,2,70,0,1
145556,-100,4,2,1,70,0,1
151518,-100,4,2,2,70,0,1
151710,-100,4,2,1,70,0,1
152864,-100,4,2,3,70,0,1
153056,-100,4,2,1,70,0,1
153249,-100,4,2,4,70,0,1
153441,-100,4,2,1,70,0,1
153633,-100,4,2,4,70,0,1
153826,-100,4,2,1,70,0,1
154306,-100,4,2,1,35,0,0
154402,-100,4,2,1,50,0,0
160460,-100,4,2,1,35,0,0
160556,-100,4,2,1,60,0,0
163152,-100,4,2,1,35,0,0
163249,-100,4,2,1,60,0,0
166614,-100,4,2,1,35,0,0
166710,-100,4,2,1,60,0,0
169306,-100,4,2,1,35,0,0
172864,-100,4,2,1,50,0,0
177479,-100,4,2,2,50,0,0
177672,-100,4,2,1,50,0,0
186614,-100,4,2,1,40,0,0
188152,-100,4,2,1,30,0,0
189691,-100,4,2,1,20,0,0
191229,-100,4,2,1,10,0,0

[Colours]
Combo1 : 0,255,255
Combo2 : 255,255,0
Combo3 : 255,176,60
Combo4 : 255,128,255

[HitObjects]
45,139,460,6,0,P|85:71|159:47,1,160,4|2,0:0|0:0,0:0:0:0:
378,92,1999,2,0,L|372:214,2,120,2|2|4,0:0|0:0|0:0,0:0:0:0:
467,139,6614,6,0,P|427:71|353:47,1,160,4|2,0:0|0:0,0:0:0:0:
134,92,8153,2,0,L|140:214,2,120,2|2|4,0:0|0:0|0:0,0:0:0:0:
48,336,12768,6,0,P|22:261|37:183,1,160,4|8,0:0|0:0,0:0:0:0:
146,160,13922,1,0,0:0:0:0:
253,130,14306,2,0,L|253:34,2,80,0|2|8,0:0|0:1|0:0,0:0:0:0:
361,160,15460,1,0,0:0:0:0:
467,194,15845,6,0,P|463:117|406:58,1,160,2|8,0:1|0:0,0:0:0:0:
361,160,16999,1,0,0:0:0:0:
263,214,17383,2,0,L|245:292,1,80,0|2,0:0|0:1,0:0:0:0:
356,272,18152,2,0,L|365:385,1,80,8|0,0:0|0:0,0:0:0:0:
472,328,18922,6,0,P|497:253|482:176,1,160,2|8,0:1|0:0,0:0:0:0:
370,160,20076,1,0,0:0:0:0:
259,140,20460,2,0,L|259:44,2,80,0|2|8,0:0|0:1|0:0,0:0:0:0:
148,158,21614,1,0,0:0:0:0:
97,58,21999,6,0,P|43:115|40:193,1,160,2|8,0:1|0:0,0:0:0:0:
111,278,23152,1,0,0:0:0:0:
203,341,23537,2,0,B|251:373|315:309|363:341,1,160
454,281,24691,1,4,0:1:0:0:
459,169,25076,6,0,P|395:121|299:121,1,160,2|0,0:1|0:0,0:0:0:0:
95,145,26614,1,0,0:0:0:0:
172,226,26999,2,0,L|189:306,1,80,2|8,0:1|0:0,0:0:0:0:
68,115,28152,6,0,P|116:51|212:35,1,160,2|0,0:1|0:0,0:0:0:0:
397,118,29690,1,0,0:0:0:0:
291,155,30076,2,0,L|275:251,1,80,2|8,0:1|0:0,0:0:0:0:
106,378,31229,5,4,0:0:0:0:
44,162,31999,2,0,P|39:84|99:21,1,160,2|0,0:0|0:0,0:0:0:0:
150,119,33152,2,0,L|246:87,1,80,2|8,0:1|0:0,0:0:0:0:
331,53,33922,1,0,0:0:0:0:
442,61,34306,5,2,0:1:0:0:
470,283,35076,2,0,P|414:337|336:338,1,160,2|0,0:0|0:0,0:0:0:0:
375,233,36229,2,0,L|263:249,1,80,2|8,0:1|0:0,0:0:0:0:
184,258,36999,1,0,0:0:0:0:
92,322,37383,6,0,P|37:267|36:189,1,160,2|2,0:1|0:0,0:0:0:0:
248,117,38922,2,0,L|234:36,2,80,0|2|8,0:0|0:1|0:0,0:0:0:0:
464,177,40460,6,0,L|404:251,1,80
428,350,41229,2,0,P|340:324|305:265,1,160,2|0,0:0|0:0,0:0:0:0:
222,194,42383,2,0,L|126:178,2,80,2|8|0,0:1|0:0|0:0,0:0:0:0:
328,159,43537,5,2,0:1:0:0:
180,327,44306,2,0,P|102:327|46:272,1,160,2|0,0:0|0:0,0:0:0:0:
144,219,45460,2,0,L|166:127,1,80,0|8,0:0|0:0,0:0:0:0:
234,55,46229,1,0,0:0:0:0:
346,60,46614,5,2,0:1:0:0:
404,276,47384,2,0,P|348:330|270:331,1,160,2|0,0:0|0:0,0:0:0:0:
305,225,48537,2,0,L|220:228,1,80,2|8,0:1|0:0,0:0:0:0:
113,214,49306,1,0,0:0:0:0:
15,159,49691,6,0,P|18:80|75:21,1,160,2|2,0:1|0:0,0:0:0:0:
122,124,50845,1,0,0:0:0:0:
183,217,51229,2,0,L|168:306,2,80,0|2|8,0:0|0:1|0:0,0:0:0:0:
365,347,52768,6,0,L|379:260,1,80,0|2,0:0|0:1,0:0:0:0:
488,251,53537,2,0,P|444:182|361:158,1,160,2|0,2:0|0:0,0:0:0:0:
282,223,54691,2,0,L|186:207,1,80,2|4,0:1|0:1,0:0:0:0:
128,126,55460,1,4,0:1:0:0:
32,67,55845,6,0,P|111:67|208:51,1,160,4|8,0:0|0:0,0:0:0:0:
390,157,57383,2,0,P|342:157|294:173,1,80,2|0,0:1|0:0,0:0:0:0:
214,221,58152,1,8,0:0:0:0:
166,250,58345,2,0,P|127:259|87:258,1,80,2|0,0:1|0:0,0:0:0:0:
52,302,58922,6,0,P|52:223|68:126,1,160,2|8,0:1|0:0,0:0:0:0:
272,61,60460,1,2,0:1:0:0:
356,135,60845,2,0,P|382:97|384:53,2,80,0|8|0,0:0|0:0|0:0,0:0:0:0:
368,246,61999,6,0,P|295:228|247:158,1,160,2|8,0:1|0:0,0:0:0:0:
143,202,63152,1,2,0:1:0:0:
68,285,63537,2,0,P|28:216|48:141,1,160,2|8,0:1|0:1,0:0:0:0:
257,64,65076,6,0,L|417:48,1,160,2|8,0:1|0:1,0:0:0:0:
469,265,66614,2,0,P|430:281|382:287,1,80,2|0,0:1|0:1,0:0:0:0:
283,261,67383,1,8,0:1:0:0:
187,319,67768,1,4,0:1:0:0:
87,269,68152,5,4,0:0:0:0:
141,51,68922,2,0,P|215:24|290:45,1,160,8|0,0:1|0:1,0:1:0:0:
379,114,70076,1,2,0:1:0:0:
437,209,70460,2,0,L|405:305,1,80,8|0,0:1|0:0,0:0:0:0:
302,308,71229,6,0,L|334:228,1,80,2|2,0:1|0:1,0:1:0:0:
331,121,71999,2,0,P|255:99|181:126,1,160,8|0,0:1|0:1,0:1:0:0:
130,226,73152,1,2,0:1:0:0:
223,288,73537,2,0,P|259:304|298:311,1,80,8|0,0:1|0:0,0:0:0:0:
405,347,74306,6,0,P|405:268|421:171,1,160,2|8,0:1|0:1,0:0:0:0:
229,64,75845,2,0,P|228:144|213:223,1,160,0|8,0:1|0:1,0:0:0:0:
101,225,76999,1,2,0:1:0:0:
62,329,77383,2,0,P|100:336|150:324,1,80,2|2,0:1|0:1,0:0:0:0:
247,361,78152,2,0,L|417:317,1,160,8|0,0:1|0:0,0:0:0:0:
469,232,79306,6,0,P|469:184|437:136,1,80,2|8,0:1|0:1,0:0:0:0:
415,116,79883,2,0,L|319:68,1,80,4|4,0:1|0:1,0:0:0:0:
294,52,80460,5,4,0:0:0:0:
183,68,80845,1,0,0:0:0:0:
82,118,81229,2,0,P|61:193|88:267,1,160,8|0,0:1|0:1,0:1:0:0:
195,302,82383,1,2,0:1:0:0:
194,189,82768,2,0,L|290:141,1,80,8|0,0:1|0:0,0:0:0:0:
364,100,83537,5,2,0:1:0:0:
437,184,83922,1,2,0:1:0:0:
471,290,84306,2,0,P|407:336|329:338,1,160,8|0,0:1|0:1,0:1:0:0:
259,250,85460,1,2,0:1:0:0:
365,211,85845,2,0,L|381:131,1,80,8|0,0:1|0:0,0:0:0:0:
414,25,86614,6,0,P|335:25|280:80,1,160,2|8,0:1|0:1,0:0:0:0:
230,297,88152,1,0,0:0:0:0:
196,189,88537,1,2,0:1:0:0:
135,95,88922,1,8,0:1:0:0:
229,34,89307,1,0,0:0:0:0:
290,128,89691,6,0,P|354:112|434:160,1,160,0|8,0:0|0:1,0:0:0:0:
263,304,91229,2,0,B|204:315|157:265|157:265|114:222|43:235,1,240,8|8,0:1|0:1,0:0:0:0:
77,342,92768,5,2,0:1:0:0:
256,192,92864,12,8,95076,0:1:0:0:
221,60,111229,5,4,0:0:0:0:
332,52,111614,1,2,0:1:0:0:
431,105,111999,6,0,L|424:190,1,80,8|2,0:1|0:1,0:0:0:0:
415,240,112576,2,0,P|370:278|311:285,1,120,2|2,0:1|0:1,0:0:0:0:
222,216,113537,1,8,0:1:0:0:
326,174,113922,1,2,0:1:0:0:
303,64,114306,6,0,L|240:114,1,80,2|0,0:1|0:1,0:0:0:0:
198,9,115076,2,0,L|111:33,1,80,8|2,0:1|0:1,0:0:0:0:
69,52,115653,2,0,P|30:96|23:155,1,120,2|2,0:1|0:1,0:0:0:0:
90,244,116614,1,8,0:1:0:0:
138,142,116999,1,2,0:1:0:0:
243,180,117383,6,0,P|279:195|319:191,1,80,2|2,0:1|0:1,0:0:0:0:
423,150,118152,1,8,0:1:0:0:
453,257,118537,1,2,0:1:0:0:
431,309,118729,2,0,P|374:328|315:324,1,120,2|2,0:1|0:1,0:0:0:0:
206,295,119691,2,0,P|167:287|118:290,1,80,8|2,0:1|0:1,0:0:0:0:
30,345,120460,6,0,P|15:309|19:269,1,80,2|0,0:1|0:1,0:0:0:0:
52,162,121229,1,8,0:1:0:0:
158,195,121614,1,2,0:1:0:0:
200,231,121806,2,0,P|260:233|315:213,1,120,2|2,0:1|0:1,0:0:0:0:
415,265,122768,2,0,P|427:226|420:177,1,80,8|0,0:1|0:1,0:0:0:0:
397,78,123537,5,2,0:1:0:0:
295,29,123922,1,2,0:1:0:0:
183,32,124306,2,0,L|100:42,1,80,8|2,0:1|0:1,0:0:0:0:
51,61,124883,2,0,P|26:118|36:177,1,120,2|2,0:1|0:1,0:0:0:0:
139,213,125845,2,0,P|146:171|131:123,1,80,8|0,0:1|0:1,0:0:0:0:
248,119,126614,6,0,L|255:198,1,80,2|0,0:1|0:0,0:0:0:0:
355,247,127383,2,0,P|332:280|298:300,1,80,8|0,0:1|0:0,0:0:0:0:
186,303,128152,2,0,L|161:353,2,40,8|2|2,0:1|0:1|0:1,0:0:0:0:
203,191,128922,2,0,P|164:200|124:201,1,80,8|4,0:1|0:1,0:0:0:0:
75,301,129691,6,0,P|90:211|91:125,1,160,4|8,0:0|0:1,0:0:0:0:
315,147,131229,2,0,P|306:116|309:65,2,80,0|2|8,0:0|0:1|0:1,0:0:0:0:
353,252,132383,1,2,0:1:0:0:
328,361,132768,5,2,0:1:0:0:
245,285,133152,1,2,0:1:0:0:
180,376,133537,2,0,P|145:348|136:308,1,80,8|0,0:1|0:0,0:0:0:0:
85,214,134306,2,0,P|54:222|3:219,2,80,0|2|8,0:0|0:1|0:1,0:0:0:0:
195,192,135460,2,0,L|240:179,1,40,0|2,0:1|0:1,0:1:0:0:
288,168,135845,6,0,P|325:167|371:179,1,80,2|0,0:1|0:0,0:0:0:0:
464,232,136614,2,0,P|458:310|404:366,1,160,8|2,0:1|0:1,0:0:0:0:
354,266,137768,1,0,0:0:0:0:
254,316,138152,2,0,L|165:301,1,80,8|2,0:1|0:1,0:0:0:0:
85,235,138922,5,0,0:0:0:0:
136,135,139306,1,0,0:0:0:0:
33,90,139691,2,0,P|85:34|177:28,1,160
276,30,140845,2,0,P|308:30|356:46,1,80,0|8,0:0|0:1,0:0:0:0:
402,72,141422,2,0,L|418:168,1,80,4|4,0:1|0:1,0:0:0:0:
424,206,141999,6,0,P|392:286|312:318,1,160,4|8,0:0|0:1,0:0:0:0:
205,130,143537,1,0,0:0:0:0:
205,242,143922,2,0,P|170:265|131:273,1,80,2|8,0:1|0:1,0:0:0:0:
41,208,144691,1,2,0:1:0:0:
99,112,145075,6,0,P|142:45|231:29,1,160,2|8,0:3|0:1,0:3:0:0:
431,90,146614,1,0,0:1:0:0:
366,182,146999,2,0,P|366:222|378:269,1,80,2|8,0:1|0:1,0:0:0:0:
299,344,147768,1,0,0:0:0:0:
187,334,148152,6,0,P|107:302|75:222,1,160,2|8,0:1|0:1,0:0:0:0:
138,23,149691,1,0,0:0:0:0:
213,105,150076,1,2,0:1:0:0:
322,83,150460,1,8,0:1:0:0:
288,189,150845,1,0,0:0:0:0:
397,167,151229,6,0,P|437:217|421:310,1,160,2|8,0:1|0:1,0:0:0:0:
475,88,152768,2,0,B|418:43|360:62|360:62|295:85|239:41,1,240,8|8,0:1|0:0,0:0:0:0:
138,26,154306,6,0,P|135:105|157:182,1,160,4|8,0:0|0:0,0:0:0:0:
335,46,155845,2,0,L|431:62,1,80,0|2,0:0|0:1,0:0:0:0:
378,165,156614,2,0,L|474:181,1,80,8|0,0:0|0:0,0:0:0:0:
455,290,157383,6,0,P|359:290|287:265,1,160,2|8,0:1|0:0,0:0:0:0:
75,248,158922,2,0,P|88:206|123:165,1,80,0|2,0:0|0:1,0:0:0:0:
216,141,159691,1,0,0:0:0:0:
326,157,160076,1,0,0:0:0:0:
287,52,160460,6,0,P|357:16|432:36,1,160,4|2,0:0|0:0,0:0:0:0:
448,262,161999,2,0,L|320:294,2,120,2|2|4,0:0|0:0|0:0,0:0:0:0:
224,64,166614,6,0,P|153:28|78:48,1,160,4|2,0:0|0:0,0:0:0:0:
64,271,168152,2,0,L|192:303,2,120,2|2|4,0:0|0:0|0:0,0:0:0:0:
464,336,172768,6,0,P|490:261|475:183,1,160,4|8,0:0|0:0,0:0:0:0:
371,140,173922,1,0,0:0:0:0:
260,122,174306,2,0,L|260:26,2,80,0|2|8,0:0|0:1|0:0,0:0:0:0:
149,139,175460,1,0,0:0:0:0:
43,176,175845,6,0,P|43:99|106:37,1,160,2|8,0:1|0:0,0:0:0:0:
149,139,176999,1,0,0:0:0:0:
128,248,177383,2,0,L|177:310,1,80,2|2,0:1|0:1,0:0:0:0:
235,214,178152,2,0,L|315:230,1,80,8|0,0:0|0:0,0:0:0:0:
387,314,178922,6,0,P|424:233|401:162,1,160,2|8,0:1|0:0,0:0:0:0:
297,136,180076,1,0,0:0:0:0:
187,115,180460,2,0,L|187:35,2,80,0|2|8,0:0|0:1|0:0,0:0:0:0:
297,136,181614,1,0,0:0:0:0:
354,39,181999,6,0,P|402:95|397:185,1,160,2|8,0:1|0:0,0:0:0:0:
381,287,183152,1,0,0:0:0:0:
278,240,183537,2,0,L|113:286,1,160,2|0,0:1|0:0,0:0:0:0:
256,192,185845,5,4,0:0:0:0:
256,192,186037,12,0,191229,0:0:0:0:
