osu file format v9

[General]
AudioFilename: Setsuna Triangle.mp3
AudioLeadIn: 0
PreviewTime: 83209
Countdown: 0
SampleSet: Soft
StackLeniency: 0.7
Mode: 0
LetterboxInBreaks: 1

[Editor]
Bookmarks: 9573,29552,83209,127055,167335,180762,197545
DistanceSpacing: 1.2
BeatDivisor: 4
GridSize: 8

[Metadata]
Title:Setsuna Triangle
Artist:Chata
Creator:Shinkuu
Version:Hard
Source:Nijiiro poppusu
Tags:M3-24 solfa karenying

[Difficulty]
HPDrainRate:7
CircleSize:5
OverallDifficulty:7
ApproachRate:8
SliderMultiplier:1.5
SliderTickRate:1

[Events]
//Background and Video events
0,0,"saki.jpg"
//Break Periods
2,117199,126319
//Storyboard Layer 0 (Background)
//Storyboard Layer 1 (Fail)
//Storyboard Layer 2 (Pass)
//Storyboard Layer 3 (Foreground)
//Storyboard Sound Samples
//Background Colour Transformations
3,100,163,162,255

[TimingPoints]
2874,419.58041958042,4,2,0,70,1,0
9482,-100,4,2,0,40,0,0
9692,-100,4,2,0,70,0,0
12839,-100,4,2,0,40,0,0
13048,-100,4,2,0,70,0,0
16195,-100,4,2,0,35,0,0
16405,-100,4,2,0,70,0,0
22908,-100,4,2,0,45,0,0
23118,-100,4,2,0,70,0,0
26265,-100,4,2,0,40,0,0
26475,-100,4,2,0,70,0,0
27996,-100,4,2,0,40,0,0
28101,-100,4,2,0,70,0,0
29461,-133.333333333333,4,2,0,40,0,0
29832,-133.333333333333,4,2,0,70,0,0
40531,-133.333333333333,4,2,0,25,0,0
40950,-133.333333333333,4,2,0,33,0,0
41370,-133.333333333333,4,2,0,43,0,0
41790,-133.333333333333,4,2,0,53,0,0
42209,-133.333333333333,4,2,0,63,0,0
42629,-133.333333333333,4,2,0,70,0,0
43048,-133.333333333333,4,2,0,40,0,0
43258,-133.333333333333,4,2,0,70,0,0
49762,-133.333333333333,4,2,0,35,0,0
49971,-133.333333333333,4,2,0,70,0,0
56475,-100,4,2,0,40,0,0
56685,-100,4,2,0,50,0,0
63188,-100,4,2,0,40,0,0
63398,-100,4,2,0,70,0,0
69901,-100,4,2,0,40,0,0
70111,-100,4,2,0,60,0,0
76615,-100,4,2,0,40,0,0
76825,-100,4,2,0,50,0,0
79971,-100,4,2,0,40,0,0
80181,-100,4,2,0,70,0,0
81440,-100,4,2,0,40,0,0
82384,-100,4,2,0,40,0,0
83433,-100,4,2,0,40,0,1
83538,-100,4,2,0,70,0,1
86685,-100,4,2,0,45,0,1
86894,-100,4,2,0,70,0,1
90041,-100,4,2,0,45,0,1
90251,-100,4,2,0,70,0,1
93398,-100,4,2,0,40,0,1
93608,-100,4,2,0,70,0,1
95076,-100,4,2,0,40,0,1
95286,-100,4,2,0,70,0,1
96755,-100,4,2,0,45,0,1
96964,-100,4,2,0,70,0,1
100111,-100,4,2,0,45,0,1
100321,-100,4,2,0,70,0,1
103468,-100,4,2,0,50,0,1
103678,-100,4,2,0,70,0,1
106825,-100,4,2,0,45,0,1
107034,-100,4,2,0,70,0,1
110391,-100,4,2,0,45,0,1
110601,-100,4,2,0,70,0,1
112279,-100,4,2,0,45,0,1
112489,-100,4,2,0,70,0,1
113538,-100,4,2,0,40,0,1
113748,-100,4,2,0,40,0,0
113853,-100,4,2,0,40,0,1
116894,-100,4,2,0,15,0,1
117419,-133.333333333333,4,2,0,70,0,0
133678,-133.333333333333,4,2,0,45,0,0
133887,-133.333333333333,4,2,0,70,0,0
140391,-100,4,2,0,40,0,0
140601,-100,4,2,0,50,0,0
147104,-100,4,2,0,40,0,0
147314,-100,4,2,0,70,0,0
153818,-100,4,2,0,40,0,0
154027,-100,4,2,0,50,0,0
160531,-100,4,2,0,40,0,0
160741,-100,4,2,0,50,0,0
163887,-100,4,2,0,40,0,0
164097,-100,4,2,0,70,0,0
165356,-100,4,2,0,40,0,0
166300,-100,4,2,0,70,0,0
167349,-100,4,2,0,70,0,1
170601,-100,4,2,0,45,0,1
170811,-100,4,2,0,70,0,1
173957,-100,4,2,0,40,0,1
174167,-100,4,2,0,70,0,1
177314,-100,4,2,0,50,0,1
177524,-100,4,2,0,70,0,1
178992,-100,4,2,0,40,0,1
179202,-100,4,2,0,70,0,1
179832,-100,4,2,0,55,0,1
180041,-100,4,2,0,70,0,1
180671,-100,4,2,0,40,0,1
180880,-100,4,2,0,70,0,1
184027,-100,4,2,0,45,0,1
184237,-100,4,2,0,70,0,1
187384,-100,4,2,0,50,0,1
187594,-100,4,2,0,70,0,1
190741,-100,4,2,0,50,0,1
190950,-100,4,2,0,70,0,1
193887,-100,4,2,0,40,0,1
194097,-100,4,2,0,70,0,1
194517,-100,4,2,0,70,0,1
197506,-100,4,2,0,45,0,1
197664,-100,4,2,0,45,0,0
197769,-100,4,2,0,45,0,1
200811,-100,4,2,0,20,0,1
200915,-100,4,2,0,20,0,0

[Colours]
Combo1 : 172,172,255
Combo2 : 255,170,255

[HitObjects]
394,84,9587,5,4
138,74,10006,1,0
239,309,10426,1,0
131,275,10636,1,0
215,200,10845,1,0
325,237,11265,5,0
351,129,11474,1,0
432,206,11684,1,0
405,313,11894,1,0
297,344,12104,1,0
217,267,12314,1,0
244,160,12524,1,0
383,52,12943,37,4
273,278,13362,1,0
120,72,13783,1,0
46,156,13992,1,0
156,178,14202,1,0
234,100,14621,5,0
156,178,14831,1,0
187,285,15041,1,0
295,312,15251,1,0
373,232,15461,1,0
342,125,15671,1,0
265,205,15880,1,0
69,230,16300,38,0,B|100:297,1,75,4|0
176,240,16720,1,2
176,240,16929,2,0,B|264:240,1,75
352,240,17349,1,0
352,240,17454,1,0
352,240,17559,1,2
424,320,17769,2,0,B|483:252|433:157,1,150
352,240,18398,1,2
264,280,18608,1,0
176,232,18818,1,0
76,200,19027,2,0,B|122:113|231:138,1,150,0|0
296,120,19657,5,0
296,120,19867,2,0,B|391:77,2,75,0|2|0
240,200,20496,1,0
240,200,20706,2,0,B|171:230,2,75,0|2|0
336,208,21335,1,0
336,208,21545,2,0,B|376:303,2,75,0|2|0
256,152,22174,1,0
256,152,22384,2,0,B|215:56,2,75,0|2|0
353,153,23013,38,0,B|432:194|413:309,1,150,4|2
175,215,23853,2,0,B|96:174|114:58,1,150,0|2
416,280,24692,5,0
289,326,24901,1,0
314,193,25111,1,2
112,88,25531,37,0
117,237,25741,1,0
249,161,25951,1,2
160,160,26370,5,4
256,144,26580,2,0,B|265:83,2,37.5,0|0|2
320,216,26999,1,0
416,216,27209,2,0,B|424:287,2,37.5,0|0|0
480,144,27629,1,2
384,112,27839,1,0
362,98,27943,1,0
337,89,28048,2,0,B|297:76|233:89,1,75,4|0
304,172,28468,1,2
229,234,28678,1,0
251,248,28782,1,0
276,257,28887,2,0,B|316:270|380:257,1,75,0|2
304,172,29307,1,2
92,95,29727,37,4
105,105,29936,1,0
118,114,30146,1,0
131,124,30356,2,0,B|174:171|158:232,1,112.499996647239,0|0
296,326,31195,2,0,B|314:261|389:244,1,112.499996647239,0|0
157,180,32034,2,0,B|143:116|80:86,1,112.499996647239,0|0
20,75,32664,1,0
90,91,32874,1,0
162,99,33083,2,0,B|221:108|280:81,1,112.499996647239,0|0
342,66,33713,1,0
398,244,34552,6,0,B|334:236|290:296,1,112.499996647239,0|0
64,176,35391,2,0,B|126:177|162:132,1,112.499996647239,0|0
216,80,36020,37,0
272,128,36230,1,0
328,80,36440,2,0,B|384:80,2,56.2499983236194,0|0|2
272,32,37069,2,0,B|272:152,1,112.499996647239
328,208,37699,2,0,B|392:208,2,56.2499983236194,2|0|0
240,256,38328,2,0,B|176:256,2,56.2499983236194,0|2|0
320,328,38957,2,0,B|384:328,2,56.2499983236194,0|0|2
246,256,39587,1,0
146,277,39797,2,0,B|94:243|89:165,1,112.499996647239,0|2
76,111,40426,1,0
63,38,40636,6,0,B|71:93,1,56.2499983236194,0|0
179,60,41055,2,0,B|168:131,1,56.2499983236194,0|0
283,128,41475,2,0,B|252:176,1,56.2499983236194
155,261,41894,2,0,B|208:243,1,56.2499983236194
258,344,42314,2,0,B|293:300,1,56.2499983236194
395,348,42734,2,0,B|407:293,1,56.2499983236194
421,221,43153,1,4
434,149,43363,37,0
434,149,43573,1,0
434,149,43783,2,0,B|376:155|326:103,1,112.499996647239,0|0
152,43,44622,2,0,B|137:100|72:128,1,112.499996647239,0|0
307,148,45461,2,0,B|328:207|384:224,1,112.499996647239,0|0
398,142,46090,1,0
398,142,46300,1,0
304,149,46510,2,0,B|240:151|206:199,1,112.499996647239,0|0
170,260,47139,1,0
448,199,47978,5,0
435,186,48188,1,0
420,179,48398,1,0
403,174,48608,1,0
385,177,48817,2,0,B|321:178|279:138,1,112.499996647239,0|0
221,98,49446,1,0
173,153,49656,1,0
232,195,49866,2,0,B|237:250,2,56.2499983236194,4|0|2
284,136,50495,2,0,B|229:91|164:138,1,112.499996647239
96,147,51125,38,0,B|70:129|54:97,2,56.2499983236194,2|0|0
178,167,51755,2,0,B|206:153|241:155,2,56.2499983236194,0|2|0
119,228,52384,2,0,B|116:259|97:288,2,56.2499983236194,0|0|2
141,155,53013,1,0
141,155,53223,2,0,B|188:115|264:128,1,112.499996647239,0|2
320,128,53852,1,0
392,128,54062,6,0,B|464:128,1,56.2499983236194
328,192,54482,2,0,B|256:192,1,56.2499983236194,2|0
392,248,54901,2,0,B|464:248,1,56.2499983236194
328,304,55321,2,0,B|256:304,1,56.2499983236194,2|0
200,304,55741,37,2
88,200,56055,1,2
160,64,56370,1,2
160,64,56580,2,0,B|221:113|306:86,1,150,4|8
380,63,57209,5,0
380,63,57419,2,0,B|443:115,1,75
364,148,57839,1,8
364,148,58048,2,0,B|362:230,1,75
418,283,58468,1,0
381,357,58678,1,8
299,344,58887,2,0,B|211:369|141:276,1,150
109,239,59517,6,0,B|91:201|44:187,1,75,8|0
41,110,59936,2,0,B|78:92|92:45,1,75
172,44,60356,2,0,B|189:81|236:95,1,75,8|0
241,173,60776,2,0,B|203:190|189:237,1,75
160,303,61195,5,8
160,303,61405,2,0,B|134:336|145:383,2,75
242,306,62034,2,0,B|271:335|309:331,1,75,8|0
316,249,62454,2,0,B|355:238|372:203,1,75,0|0
295,172,62874,1,8
295,172,63083,1,0
280,90,63293,2,0,B|240:100|223:135,1,75,4|0
232,232,63713,5,2
150,285,63922,1,0
73,226,64132,1,0
154,172,64342,1,0
232,232,64552,5,2
224,134,64761,1,0
315,98,64971,1,0
321,194,65181,1,0
232,232,65391,5,2
318,273,65600,1,0
305,371,65810,1,0
218,327,66020,1,0
232,232,66230,6,0,B|232:189|180:137,1,75,2|0
304,177,66650,2,0,B|330:143|399:128,1,75,0|0
263,93,67069,2,0,B|268:50|230:-8,2,75,2|0|0
256,175,67699,5,0
256,175,67908,2,0,B|248:257|328:302,1,150,2|0
356,186,68538,1,0
455,200,68748,2,0,B|463:117|383:72,1,150,2|0
356,186,69377,1,0
356,186,69587,1,2
356,186,69797,1,0
407,258,70006,6,0,B|369:283|311:270,1,75,4|0
253,262,70426,1,8
253,262,70636,1,0
206,335,70846,2,0,B|170:307|163:248,1,75
162,189,71266,1,8
162,189,71476,1,0
108,126,71685,6,0,B|70:118|35:140,2,75,0|0|8
161,188,72314,2,0,B|198:195|233:173,1,75
308,206,72734,2,0,B|342:184|379:191,1,75,0|8
437,250,73153,2,0,B|474:257|508:235,2,75
349,272,73783,5,8
278,338,73992,1,0
187,298,74202,1,0
175,201,74412,1,0
248,136,74621,1,8
336,175,74831,1,0
267,233,75041,1,0
168,112,75461,5,8
168,112,75671,1,0
168,112,75880,2,0,B|207:96|217:59,1,75,0|0
307,48,76300,2,0,B|317:85|356:100,1,75,8|0
270,127,76720,2,0,B|244:183|291:210|254:278,1,150,4|8
187,331,77349,6,0,B|107:339,2,75,0|0|0
254,271,77978,1,8
343,279,78188,2,0,B|400:334,2,75,0|0|0
254,271,78818,1,8
237,182,79027,2,0,B|269:108,2,75,0|0|0
254,271,79657,5,8
254,271,79867,1,0
254,270,80076,2,0,B|273:217|232:179|254:118,2,150,4|0|0
254,271,81125,1,0
77,300,81545,1,4
143,141,81964,1,4
143,141,82174,1,4
88,104,83433,5,4
165,164,83643,1,2
261,158,83853,2,0,B|297:142|320:82,2,75,8|0|0
164,172,84482,2,0,B|127:187|104:247,2,75,2|8|0
257,141,85111,2,0,B|342:103|420:167,1,150,0|8
323,235,85741,37,0
323,235,85950,2,0,B|347:269|337:318,1,75,0|2
217,216,86370,1,8
217,216,86580,2,0,B|192:181|202:132,1,75,0|6
90,62,86999,2,0,B|131:59|159:83,1,75,2|8
290,34,87419,2,0,B|272:71|236:83,1,75,0|0
151,131,87839,1,2
151,131,88048,1,8
151,131,88258,2,0,B|75:164|72:255,1,150,0|2
182,224,88887,1,8
413,217,89307,5,0
272,328,89621,1,0
103,264,89936,1,0
126,146,90146,2,0,B|173:70|285:91,1,150,4|8
339,136,90776,1,2
339,136,90880,1,0
339,136,90985,1,0
435,118,91195,38,0,B|392:110|358:128,1,75,2|8
278,178,91615,1,0
181,166,91824,1,0
86,141,92034,2,0,B|113:163|156:163,1,75,2|8
252,182,92454,1,0
336,229,92663,1,0
432,210,92874,2,0,B|389:203|355:221,1,75,2|8
260,289,93294,5,0
149,244,93503,1,4
111,129,93713,1,2
111,129,93818,1,0
111,129,93922,1,8
205,54,94132,1,0
242,168,94342,1,0
149,243,94552,1,2
149,243,94657,1,0
149,243,94762,1,8
408,192,95181,38,0,B|496:192,2,75,0|2|8
320,232,95811,1,0
232,176,96020,1,0
138,225,96230,1,2
138,225,96335,1,0
138,225,96440,1,8
228,281,96650,1,0
228,281,96860,2,0,B|280:352|384:323,1,150,4|8
456,304,97489,5,2
456,304,97699,2,0,B|441:267|400:236,1,75,0|2
349,159,98119,1,8
349,159,98329,2,0,B|326:191|280:214,1,75,0|0
238,297,98748,1,2
238,297,98958,2,0,B|201:280|170:238,1,75,8|2
75,244,99377,1,0
75,244,99587,2,0,B|73:204|97:158,1,75,2|8
164,96,100006,1,2
259,138,100216,1,4
367,106,100426,38,0,B|407:107|449:136,1,75,2|8
488,230,100846,2,0,B|485:269|456:311,1,75,0|0
361,346,101266,2,0,B|320:343|278:314,1,75,2|8
237,223,101685,2,0,B|239:181|267:139,1,75,0|0
327,72,102104,5,2
327,72,102209,1,0
327,72,102314,1,8
413,131,102524,1,0
400,235,102734,2,0,B|443:278|508:273,2,112.5,0|2|0
314,174,103573,2,0,B|249:125|171:162,1,150,4|8
82,218,104202,5,0
82,218,104412,2,0,B|82:262|106:299,2,75,0|2|8
147,136,105041,2,0,B|123:99|82:81,2,75,0|0|2
225,207,105671,2,0,B|215:249|183:280,2,75,8|0|0
256,106,106300,2,0,B|308:85|361:96,1,75,2|8
436,272,106929,37,4
266,318,107139,1,2
311,154,107349,1,8
158,66,107769,5,0
206,194,107978,1,2
70,170,108188,1,8
275,50,108608,37,0
277,155,108818,2,0,B|333:174,2,37.5,2|0|8
194,219,109237,1,0
242,313,109447,1,0
322,245,109657,1,2
322,245,109762,1,0
322,245,109867,1,8
385,328,110076,1,0
385,328,110286,2,0,B|432:280|432:240,1,75,0|4
504,192,110706,1,8
504,192,110915,2,0,B|450:151|410:156,1,75
352,96,111335,38,0,B|328:128|272:152,1,75,2|8
112,216,111755,2,0,B|136:184|192:160,1,75,0|2
294,277,112174,2,0,B|262:253|238:197,1,75,0|4
173,34,112594,1,0
173,34,112804,2,0,B|204:57|218:92,1,75,0|2
256,192,113223,5,0
256,192,113433,1,0
256,192,113643,1,4
256,192,113853,12,0,116999
445,183,127069,37,0
424,190,127279,1,2
402,189,127488,1,0
380,184,127698,2,0,B|319:164|270:205,1,112.499996647239,2|0
165,345,128537,2,0,B|147:280|72:263,1,112.499996647239,0|2
314,238,129376,2,0,B|321:166|391:144,1,112.499996647239,0|2
407,234,130006,1,0
407,234,130216,1,0
317,239,130425,2,0,B|257:257|199:221,1,112.499996647239
140,199,131055,1,2
256,351,131894,5,0
265,335,132104,1,0
268,318,132314,1,2
268,301,132524,1,0
260,284,132733,2,0,B|232:218|270:171,1,112.499996647239,2|2
249,105,133362,1,0
312,71,133572,1,2
331,142,133782,2,0,B|383:159,2,56.2499983236194,4|0|2
259,169,134411,2,0,B|237:111|296:71,1,112.499996647239
367,69,135041,6,0,B|402:125,1,56.2499983236194,2|0
327,141,135461,2,0,B|329:206,1,56.2499983236194
256,183,135880,2,0,B|225:240,3,56.2499983236194,2|0|0|0
242,314,136720,1,2
242,314,136929,1,0
242,314,137139,2,0,B|171:323|134:247,1,112.499996647239,0|2
220,236,137768,1,0
163,189,137978,6,0,B|133:171|123:128,1,56.2499983236194
199,124,138398,2,0,B|180:94|191:52,1,56.2499983236194,2|0
261,60,138818,2,0,B|279:89|268:131,1,56.2499983236194,0|0
344,118,139237,2,0,B|346:143|322:168,1,56.2499983236194,2|0
247,194,139657,37,2
403,255,139971,1,2
264,351,140286,1,0
264,351,140496,2,0,B|235:278|148:258,1,150,4|8
71,244,141125,6,0,B|32:263|-3:247,2,75,0|0|0
116,174,141755,2,0,B|149:157|190:170,1,75,8|0
237,236,142174,1,0
237,236,142383,1,0
287,301,142594,2,0,B|327:312|360:296,1,75,8|0
436,265,143013,2,0,B|471:275|492:311,2,75,0|0|8
370,214,143643,5,0
356,117,143853,1,0
260,99,144062,1,0
219,187,144272,1,8
280,262,144482,2,0,B|219:322|128:275,1,150
66,231,145111,1,8
92,144,145321,6,0,B|58:118|58:71,2,75,0|0|0
164,200,145950,1,8
254,197,146160,2,0,B|271:235|254:277,2,75,0|0|0
322,138,146789,1,8
408,164,146999,2,0,B|432:136|431:93,2,75,0|4|0
424,253,147629,5,2
357,307,147838,1,0
275,333,148048,1,0
189,329,148258,1,0
237,253,148468,5,2
148,235,148677,1,0
91,164,148887,1,0
73,75,149097,1,0
158,102,149307,6,0,B|206:113|249:68,1,75,2|0
294,155,149727,2,0,B|323:127|365:139,1,75,0|0
454,205,150146,2,0,B|423:233|383:221,1,75,2|0
293,155,150566,2,0,B|203:144|158:229,1,150,0|2
270,258,151195,1,0
270,258,151405,1,0
270,258,151615,1,0
244,367,151825,2,0,B|333:379|378:292,1,150,2|0
353,105,152664,5,2
368,99,152874,1,0
383,92,153084,1,0
397,85,153293,2,0,B|450:100|466:153,2,75,0|2|0
322,105,153922,2,0,B|282:122|250:106,1,75,4|0
177,160,154342,1,8
177,160,154552,1,0
87,149,154762,2,0,B|83:192|109:217,1,75,0|0
86,304,155181,1,8
86,304,155391,1,0
150,367,155601,38,0,B|181:339|176:298,1,75,0|0
131,213,156020,2,0,B|167:191|204:208,1,75,8|0
266,281,156440,2,0,B|305:275|322:237,1,75,0|0
266,99,156860,2,0,B|251:135|276:169,1,75,8|0
422,191,157279,2,0,B|397:160|355:164,1,75,0|0
236,214,157699,6,0,B|260:244|302:240,2,75,8|0|0
133,262,158328,1,0
133,262,158538,2,0,B|108:186|176:123,1,150,8|0
398,316,159377,5,8
316,325,159587,1,0
258,266,159797,2,0,B|242:231|200:222,1,75,0|0
119,219,160216,1,8
59,274,160426,1,0
121,218,160636,2,0,B|211:237|267:150,1,150,4|8
213,99,161265,6,0,B|133:107,2,75,0|0|0
213,99,161894,1,8
245,181,162104,2,0,B|302:236,2,75,0|0|0
245,181,162734,1,8
306,115,162943,2,0,B|338:41,2,75,0|0|0
306,115,163573,1,8
245,181,163783,5,0
245,182,163992,2,0,B|262:237|219:272|247:334,2,150,4|0|0
245,181,165041,1,0
422,152,165461,1,4
356,311,165880,1,4
356,311,166090,1,4
178,253,167349,6,0,B|194:289|254:312,1,75,0|2
256,192,167769,1,8
334,131,167978,2,0,B|318:95|258:72,2,75,0|0|2
356,226,168608,1,8
453,236,168818,1,0
453,236,169027,2,0,B|367:199|290:264,1,150,0|8
221,291,169657,37,0
221,291,169866,2,0,B|179:284|151:243,1,75,0|2
64,279,170286,1,8
64,279,170496,2,0,B|39:244|49:195,1,75,0|4
87,119,170915,2,0,B|92:79|69:47,2,75,2|8|0
148,195,171545,1,0
208,109,171755,1,2
266,196,171964,1,8
208,283,172174,2,0,B|270:337|353:299,1,150,0|2
432,253,172803,1,8
363,70,173223,5,0
260,188,173537,1,0
102,183,173852,1,0
102,183,174062,2,0,B|164:119|269:165,1,150,4|8
332,190,174692,1,2
332,190,174796,1,0
332,190,174901,1,0
425,238,175111,38,0,B|406:266|364:280,1,75,2|8
267,294,175531,1,0
173,267,175740,1,0
75,274,175950,2,0,B|108:284|148:269,1,75,2|8
225,208,176370,1,0
320,226,176579,1,0
409,281,176790,2,0,B|365:269|342:240,1,75,2|8
247,204,177210,5,0
237,84,177419,1,4
344,30,177629,1,2
344,30,177734,1,0
344,30,177838,1,8
355,149,178048,1,0
247,204,178258,1,0
236,84,178468,1,2
236,84,178573,1,0
236,84,178678,1,8
35,190,179097,38,0,B|27:229|63:273,1,75,4|2
151,244,179517,2,0,B|193:236|233:274,1,75,8|2
279,350,179936,1,4
375,308,180146,1,2
375,308,180251,1,0
375,308,180356,1,8
302,232,180566,1,0
302,232,180776,2,0,B|231:178|271:77,1,150,4|8
368,144,181405,5,2
465,180,181614,1,0
469,285,181824,1,2
369,251,182034,1,8
368,144,182244,5,0
286,66,182454,1,0
184,112,182663,1,2
270,184,182874,1,8
369,251,183083,5,2
285,336,183292,1,0
170,300,183502,1,2
257,217,183712,1,8
232,120,183922,6,0,B|198:101|152:104,1,75,2|4
276,199,184342,2,0,B|313:212|344:252,1,75,2|8
185,229,184762,2,0,B|151:210|105:213,1,75
227,309,185181,2,0,B|264:322|295:362,1,75,2|8
381,325,185601,2,0,B|392:284|429:249,1,75,0|0
316,263,186020,5,2
316,263,186125,1,0
316,263,186230,1,8
331,162,186440,1,0
331,162,186650,2,0,B|345:102|404:73,2,112.5,0|2|0
376,258,187489,2,0,B|300:288|234:232,1,150,4|8
146,194,188118,5,0
189,106,188328,1,0
278,144,188538,1,2
236,231,188748,2,0,B|229:187|200:153,2,75,8|0|0
108,89,189377,2,0,B|150:100|181:89,2,75,2|8|0
293,40,190006,2,0,B|261:70|255:103,2,75,0|2|8
414,255,190846,5,4
328,282,191055,1,2
243,312,191265,1,8
78,167,191685,5,0
182,207,191894,1,2
285,251,192104,1,8
332,72,192524,5,0
220,87,192734,1,2
193,195,192943,1,8
288,255,193153,1,0
379,189,193363,1,0
288,155,193573,1,2
288,155,193678,1,0
288,155,193783,1,8
193,106,193992,6,0,B|160:136|104:129,1,75,4|0
64,208,194412,2,0,B|105:212|130:239,1,75,6|0
207,179,194832,2,0,B|250:170|281:183,1,75,0|0
367,242,195251,1,2
461,181,195461,1,0
424,74,195671,1,0
311,70,195880,1,0
284,178,196090,1,2
348,270,196300,6,0,B|312:292|310:353,1,75,0|2
216,351,196720,2,0,B|207:309|163:276,1,75,0|2
263,241,197139,1,0
254,216,197244,1,0
254,189,197349,1,0
249,163,197454,1,0
237,139,197559,1,4
256,192,197769,12,0,200916
