osu file format v14

[General]
AudioFilename: SKIP.mp3
AudioLeadIn: 2000
PreviewTime: 54883
Countdown: 0
SampleSet: Soft
StackLeniency: 0.7
Mode: 0
LetterboxInBreaks: 0
WidescreenStoryboard: 0

[Editor]
DistanceSpacing: 0.9
BeatDivisor: 6
GridSize: 4
TimelineZoom: 2

[Metadata]
Title:SKIP
TitleUnicode:SKIP
Artist:Chata
ArtistUnicode:茶太
Creator:Asagi
Version:Normal
Source:グリザイアの果実 -LE FRUIT DE LA GRISAIA-
Tags:Matsushima Michiru frontwing eroge visual novel grisaia no kajitsu
BeatmapID:518412
BeatmapSetID:175655

[Difficulty]
HPDrainRate:3
CircleSize:3
OverallDifficulty:3
ApproachRate:4
SliderMultiplier:1.1
SliderTickRate:1

[Events]
//Background and Video events
0,0,"michiru.jpg",0,0
//Break Periods
2,87713,92908
2,167713,179423
//Storyboard Layer 0 (Background)
//Storyboard Layer 1 (Fail)
//Storyboard Layer 2 (Pass)
//Storyboard Layer 3 (Foreground)
//Storyboard Sound Samples

[TimingPoints]
322,434.751104992392,4,2,1,50,1,0
322,-100,4,2,1,50,0,0
7278,-100,4,2,2,50,0,0
7386,-100,4,2,1,50,0,0
13799,-100,4,2,2,50,0,0
13907,-100,4,2,1,50,0,0
18146,-100,4,2,4,50,0,0
18255,-100,4,2,1,50,0,0
19451,-100,4,2,2,50,0,0
19559,-100,4,2,1,50,0,0
26407,-100,4,2,2,50,0,0
26515,-100,4,2,1,50,0,0
27059,-100,4,2,2,50,0,0
27493,-100,4,2,1,50,0,0
39014,-100,4,2,4,50,0,0
39123,-100,4,2,1,50,0,0
42492,-100,4,2,4,50,0,0
42601,-100,4,2,1,50,0,0
45970,-100,4,2,4,50,0,0
46079,-100,4,2,1,50,0,0
55970,-100,4,2,1,50,0,1
62926,-100,4,2,2,50,0,1
63034,-100,4,2,1,50,0,1
64665,-100,4,2,2,50,0,1
64773,-100,4,2,1,50,0,1
66838,-100,4,2,4,50,0,1
66947,-100,4,2,1,50,0,1
67491,-100,4,2,2,50,0,1
67599,-100,4,2,1,50,0,1
68360,-100,4,2,2,50,0,1
68469,-100,4,2,1,50,0,0
69882,-100,4,2,1,50,0,1
79011,-100,4,2,4,50,0,1
79120,-100,4,2,1,50,0,1
80316,-100,4,2,2,50,0,1
80750,-100,4,2,4,50,0,1
80859,-100,4,2,1,50,0,1
81403,-100,4,2,2,50,0,1
81511,-100,4,2,1,50,0,1
87272,-100,4,2,2,50,0,0
94228,-100,4,2,1,50,0,0
95749,-100,4,2,2,50,0,0
95858,-100,4,2,1,50,0,0
96184,-100,4,2,2,50,0,0
96619,-100,4,2,1,50,0,0
97271,-100,4,2,1,50,0,0
97706,-100,4,2,2,50,0,0
97814,-100,4,2,1,50,0,0
98140,-100,4,2,4,50,0,0
98249,-100,4,2,1,50,0,0
99880,-100,4,2,4,50,0,0
99988,-100,4,2,1,50,0,0
106401,-100,4,2,2,50,0,0
106509,-100,4,2,1,50,0,0
107053,-100,4,2,2,50,0,0
107488,-100,4,2,1,50,0,0
108140,-100,4,2,1,50,0,0
119009,-100,4,2,4,50,0,0
119117,-100,4,2,1,50,0,0
122052,-100,4,2,1,50,0,0
122487,-100,4,2,4,50,0,0
122595,-100,4,2,1,50,0,0
125965,-100,4,2,4,50,0,0
126073,-100,4,2,1,50,0,0
135964,-100,4,2,1,50,0,1
142920,-100,4,2,2,50,0,1
143029,-100,4,2,1,50,0,1
144659,-100,4,2,2,50,0,1
144768,-100,4,2,1,50,0,1
146833,-100,4,2,4,50,0,1
146941,-100,4,2,1,50,0,1
147485,-100,4,2,2,50,0,1
147593,-100,4,2,1,50,0,1
148354,-100,4,2,2,50,0,1
148463,-100,4,2,1,50,0,0
149876,-100,4,2,1,50,0,1
160310,-100,4,2,2,50,0,1
160419,-100,4,2,1,50,0,1
160745,-100,4,2,4,50,0,1
160853,-100,4,2,1,50,0,1
161397,-100,4,2,2,50,0,1
162049,-100,4,2,1,50,0,1
163571,-100,4,2,1,50,0,1
167266,-100,4,2,2,50,0,0
180743,-100,4,2,1,50,0,0
186178,-100,4,2,2,50,0,0
186286,-100,4,2,1,50,0,0
186830,-100,4,2,2,50,0,0
187699,-100,4,2,1,50,0,0
192047,-100,4,2,3,50,0,0
192155,-100,4,2,1,50,0,0
192916,-100,4,2,3,50,0,0
193025,-100,4,2,1,50,0,0
193786,-100,4,2,3,50,0,0
193894,-100,4,2,1,50,0,0
194655,-100,4,2,3,50,0,0
194764,-100,4,2,1,50,0,0
198568,-100,4,2,1,50,0,1
205524,-100,4,2,2,50,0,1
205633,-100,4,2,1,50,0,1
207263,-100,4,2,2,50,0,1
207372,-100,4,2,1,50,0,1
209437,-100,4,2,4,50,0,1
209545,-100,4,2,1,50,0,1
210089,-100,4,2,2,50,0,1
210198,-100,4,2,1,50,0,1
210958,-100,4,2,2,50,0,1
211067,-100,4,2,1,50,0,0
212480,-100,4,2,1,50,0,1
221610,-100,4,2,4,50,0,1
221719,-100,4,2,1,50,0,1
222914,-100,4,2,2,50,0,1
223023,-100,4,2,1,50,0,1
223349,-100,4,2,4,50,0,1
223458,-100,4,2,1,50,0,1
224001,-100,4,2,2,50,0,1
224110,-100,4,2,1,50,0,1
229870,-100,4,2,1,30,0,0
234218,-100,4,2,1,30,0,0
234326,-100,4,2,1,30,0,0
235957,-100,4,2,1,50,0,0
236391,-100,4,2,1,45,0,0
236826,-100,4,2,1,40,0,0
237261,-100,4,2,1,35,0,0
237696,-100,4,2,1,30,0,0
238130,-100,4,2,1,25,0,0
238565,-100,4,2,1,20,0,0
239000,-100,4,2,1,15,0,0
239435,-100,4,2,1,10,0,0
240377,-100,4,2,1,30,0,0

[Colours]
Combo1 : 253,166,19
Combo2 : 238,252,67
Combo3 : 105,248,248

[HitObjects]
56,332,322,6,0,P|116:344|180:312,1,110
220,252,1191,2,0,L|196:88,1,165,8|0,0:0|0:0,0:0:0:0:
292,68,2278,2,0,L|304:132,1,55
324,220,2930,2,0,P|396:255|476:232,1,165,8|8,0:0|0:0,0:0:0:0:
496,188,3800,6,0,L|480:64,1,110
392,36,4669,1,8,0:0:0:0:
304,84,5104,1,8,0:0:0:0:
328,179,5539,6,0,P|224:142|216:40,2,220,0|0|6,0:0|0:0|0:0,0:0:0:0:
408,120,7712,6,0,P|424:172|400:244,1,110,8|0,0:0|0:0,0:0:0:0:
336,292,8582,1,8,0:0:0:0:
240,272,9017,2,0,L|130:268,1,110,0|8,0:0|0:0,0:0:0:0:
52,328,9886,1,2,0:3:0:0:
12,300,10103,2,0,L|8:224,1,55,0|8,0:0|0:0,0:0:0:0:
24,148,10756,6,0,P|84:128|140:140,1,110,0|8,0:0|0:0,0:0:0:0:
216,184,11625,2,0,L|204:308,1,110,0|8,0:0|0:0,0:0:0:0:
280,356,12495,2,0,P|333:364|384:340,1,110,0|8,0:0|0:0,0:0:0:0:
396,244,13364,2,0,L|390:189,1,55
384,140,13799,1,6,0:0:0:0:
332,56,14234,6,0,P|390:43|439:58,1,110,4|8,0:0|0:0,0:0:0:0:
384,140,15103,2,0,L|276:168,1,110,0|8,0:0|0:0,0:0:0:0:
184,132,15973,2,0,P|144:92|136:32,2,110,0|8|2,0:0|0:0|0:3,0:0:0:0:
276,168,17277,1,8,0:0:0:0:
236,260,17712,6,0,P|168:312|76:296,1,165,0|0,0:0|0:0,0:0:0:0:
60,268,18581,2,0,L|72:136,1,110,0|8,0:0|0:0,0:0:0:0:
3,84,19451,2,0,P|82:64|153:103,1,165,2|0,0:0|0:0,0:0:0:0:
176,148,20320,1,0,0:0:0:0:
164,248,20755,1,8,0:0:0:0:
108,328,21190,6,0,P|160:344|213:334,1,110,0|8,0:0|0:0,0:0:0:0:
300,284,22059,2,0,L|420:292,1,110,2|8,0:3|0:0,0:0:0:0:
444,200,22929,2,0,L|498:203,2,55,0|2|8,0:0|0:1|0:0,0:0:0:0:
395,183,23581,2,8,P|357:144|303:135,1,110,2|0,0:1|0:0,0:0:0:0:
256,144,24233,1,8,0:0:0:0:
312,232,24668,6,0,P|260:248|204:236,1,110,0|8,0:0|0:0,0:0:0:0:
164,212,25320,2,0,L|179:47,1,165,0|8,0:0|0:0,0:0:0:0:
84,16,26407,6,0,L|68:188,1,165,2|0,0:0|0:0,0:0:0:0:
60,228,27276,2,0,P|82:278|130:304,1,110,2|8,0:0|0:0,0:0:0:0:
224,276,28146,6,0,P|247:226|244:172,1,110,4|8,0:0|0:0,0:0:0:0:
148,204,29015,1,0,0:0:0:0:
127,299,29450,2,0,P|204:371|303:337,1,220,8|8,0:0|0:0,0:0:0:0:
328,240,30754,2,0,L|310:120,1,110,2|8,0:3|0:0,0:0:0:0:
244,56,31624,6,0,P|296:32|353:42,1,110,0|8,0:0|0:0,0:0:0:0:
396,64,32276,2,0,L|420:227,1,165,0|8,0:0|0:0,0:0:0:0:
436,324,33363,1,0,0:0:0:0:
344,360,33797,1,8,0:0:0:0:
256,316,34232,1,0,0:0:0:0:
160,340,34667,1,8,0:0:0:0:
84,280,35102,6,0,P|68:224|92:164,1,110,0|8,0:0|0:0,0:0:0:0:
164,120,35971,2,0,L|276:128,1,110,2|8,0:3|0:0,0:0:0:0:
324,128,36623,2,0,P|336:72|308:12,2,110,0|0|0,0:0|0:0|0:0,0:0:0:0:
284,220,37927,2,0,L|293:274,1,55,0|8,0:0|0:0,0:0:0:0:
232,352,38580,6,0,P|310:369|378:326,2,165,0|0|8,0:0|0:0|0:0,0:0:0:0:
168,276,40319,2,0,L|156:160,1,110,0|2,0:0|0:1,0:0:0:0:
68,120,41188,1,2,0:1:0:0:
148,64,41623,1,2,0:1:0:0:
235,107,42058,6,0,P|314:127|384:88,2,165,4|0|8,0:0|0:0|0:0,0:0:0:0:
148,64,43797,1,0,0:0:0:0:
72,128,44231,2,0,P|64:176|88:240,2,110,8|2|8,0:0|0:3|0:0,0:0:0:0:
164,168,45536,6,0,P|208:220|300:236,2,165,0|0|8,0:0|0:0|0:0,0:0:0:0:
200,76,47275,2,0,L|320:68,1,110,0|8,0:0|0:0,0:0:0:0:
408,84,48144,6,0,P|424:136|408:196,1,110,0|8,0:0|0:0,0:0:0:0:
388,232,48796,1,0,0:0:0:0:
308,288,49231,2,0,L|320:348,2,55,0|8|0,0:0|0:0|0:0,0:0:0:0:
204,288,50101,6,0,L|192:352,2,55,0|8|0,0:0|0:0|0:0,0:0:0:0:
120,232,50970,2,0,L|72:276,2,55,0|8|0,0:0|0:0|0:0,0:0:0:0:
76,144,51840,2,0,L|8:148,1,55,2|10,0:0|0:0,0:0:0:0:
256,192,52492,12,0,54883,0:0:0:0:
83,136,55970,6,0,P|136:121|189:133,1,110,4|8,0:0|0:0,0:0:0:0:
232,156,56622,1,0,0:0:0:0:
316,104,57057,2,0,L|312:48,2,55,0|8|0,0:0|0:0|0:0,0:0:0:0:
412,124,57926,2,0,L|436:72,2,55,0|8|0,0:0|0:0|0:0,0:0:0:0:
352,204,58796,2,0,L|364:260,1,55,0|8,0:0|0:0,0:0:0:0:
372,308,59230,6,0,P|320:332|216:288,1,165,0|8,0:0|0:0,0:0:0:0:
140,244,60317,1,0,0:0:0:0:
140,244,60535,2,0,L|88:272,1,55,0|8,0:0|0:0,0:0:0:0:
44,280,60969,2,0,P|-4:208|16:112,1,165,0|8,0:0|0:0,0:0:0:0:
40,100,61839,2,0,P|120:93|187:138,1,165,0|8,0:0|0:0,0:0:0:0:
140,224,62926,6,0,P|194:237|248:220,1,110,2|8,0:0|0:0,0:0:0:0:
332,168,63795,2,0,P|384:156|448:168,1,110,2|8,0:3|0:0,0:0:0:0:
472,256,64665,2,0,L|460:365,2,110,2|8|0,0:0|0:0|0:0,0:0:0:0:
424,168,65969,1,8,0:0:0:0:
488,92,66404,6,0,P|411:68|342:109,1,165,4|4,0:0|0:0,0:0:0:0:
312,204,67491,1,2,0:0:0:0:
236,140,67925,2,0,L|248:16,1,110,4|2,0:0|0:0,0:0:0:0:
148,40,68795,1,2,0:1:0:0:
140,140,69230,2,0,L|134:194,1,55,0|8,0:0|0:0,0:0:0:0:
72,272,69882,6,0,P|122:293|176:284,1,110,4|8,0:0|0:0,0:0:0:0:
220,264,70534,1,0,0:0:0:0:
308,312,70969,2,0,L|300:368,2,55,0|8|0,0:0|0:0|0:0,0:0:0:0:
408,304,71838,2,0,L|424:356,2,55,0|8|0,0:0|0:0|0:0,0:0:0:0:
356,220,72708,2,0,L|364:160,1,55,0|8,0:0|0:0,0:0:0:0:
368,116,73142,6,0,P|304:88|212:128,1,165,0|8,0:0|0:0,0:0:0:0:
176,212,74229,2,0,L|188:272,1,55
272,315,74881,6,0,P|204:359|124:340,1,165,0|8,0:0|0:0,0:0:0:0:
92,304,75751,1,0,0:0:0:0:
56,212,76186,1,0,0:0:0:0:
100,124,76620,2,0,P|180:152|264:120,1,165,0|8,0:0|0:0,0:0:0:0:
344,68,77707,6,0,P|360:120|344:184,1,110,2|8,0:3|0:0,0:0:0:0:
272,235,78577,2,0,P|343:272|418:243,2,165,0|0|8,0:0|0:0|0:0,0:0:0:0:
280,136,80316,6,0,P|354:106|425:143,1,165,2|4,0:0|0:0,0:0:0:0:
432,244,81403,2,0,L|420:360,1,110,2|6,0:0|0:0,0:0:0:0:
324,372,82272,2,0,L|332:304,1,55,2|8,0:1|0:0,0:0:0:0:
296,280,82707,2,0,L|316:108,1,165,0|2,0:0|0:1,0:0:0:0:
376,36,83794,6,0,P|326:16|272:24,1,110,4|8,0:0|0:0,0:0:0:0:
229,45,84446,2,0,P|172:56|121:41,1,110,2|2,0:1|0:1,0:0:0:0:
36,92,85315,2,0,P|24:144|47:207,1,110,4|0,0:0|0:0,0:0:0:0:
72,236,85967,2,0,L|144:228,1,55,2|0,0:1|0:0,0:0:0:0:
164,264,86402,2,0,L|228:268,1,55,2|0,0:1|0:0,0:0:0:0:
260,240,86837,1,8,0:0:0:0:
356,272,87272,5,6,0:0:0:0:
456,148,94228,6,0,L|344:136,1,110,0|4,0:0|0:0,0:0:0:0:
248,132,95097,2,0,P|232:192|248:244,1,110
268,280,95749,2,0,P|208:272|148:292,1,110,2|2,0:0|0:0,0:0:0:0:
72,332,96619,2,0,P|28:272|48:168,1,165,4|8,0:0|0:0,0:0:0:0:
96,96,97706,6,0,B|152:72|152:72|252:100,2,165,6|0|8,0:0|0:0|0:0,0:0:0:0:
164,168,99445,2,0,B|276:200|276:200|332:184,1,165
360,152,100314,2,0,L|348:36,1,110,0|8,0:0|0:0,0:0:0:0:
448,24,101184,6,0,L|464:152,1,110,0|8,0:0|0:0,0:0:0:0:
420,224,102053,2,0,P|368:241|314:232,1,110,2|8,0:3|0:0,0:0:0:0:
220,204,102923,2,0,L|213:258,2,55,0|2|8,0:0|0:1|0:0,0:0:0:0:
228,156,103575,2,0,L|107:163,1,110,2|0,0:1|0:0,0:0:0:0:
80,132,104227,1,8,0:0:0:0:
16,208,104662,6,0,L|26:317,1,110,0|8,0:0|0:0,0:0:0:0:
68,348,105314,2,0,P|145:367|212:323,1,165,0|8,0:0|0:0,0:0:0:0:
132,268,106401,6,0,L|112:88,1,165,2|0,0:0|0:0,0:0:0:0:
136,60,107270,2,0,P|192:40|245:53,1,110,2|8,0:0|0:0,0:0:0:0:
316,116,108140,6,0,L|308:232,1,110,4|8,0:0|0:0,0:0:0:0:
256,312,109009,1,0,0:0:0:0:
344,352,109444,2,0,P|400:368|468:344,2,110,8|0|8,0:0|0:0|0:0,0:0:0:0:
256,312,110748,2,0,L|140:316,1,110,2|8,0:3|0:0,0:0:0:0:
48,308,111618,6,0,P|29:256|41:203,1,110,0|8,0:0|0:0,0:0:0:0:
84,176,112270,2,0,B|108:160|136:160|136:160|184:184|184:184|216:184|238:165,1,165,0|8,0:0|0:0,0:0:0:0:
276,76,113357,1,0,0:0:0:0:
320,56,113574,2,0,L|376:60,1,55,2|8,0:1|0:0,0:0:0:0:
423,43,114009,2,0,P|454:88|452:142,1,110,2|0,0:1|0:0,0:0:0:0:
440,192,114661,1,8,0:0:0:0:
380,268,115096,6,0,P|328:280|264:260,1,110,0|8,0:0|0:0,0:0:0:0:
220,188,115965,2,0,L|108:192,1,110,2|8,0:3|0:0,0:0:0:0:
60,192,116617,2,0,P|41:243|54:296,2,110,0|0|0,0:0|0:0|0:0,0:0:0:0:
116,108,117922,2,0,L|180:104,1,55,0|8,0:0|0:0,0:0:0:0:
244,172,118574,6,0,P|268:92|224:16,2,165,0|0|8,0:0|0:0|0:0,0:0:0:0:
172,244,120313,2,0,P|160:296|180:356,1,110,0|2,0:0|0:1,0:0:0:0:
272,364,121182,1,2,0:1:0:0:
348,300,121617,1,2,0:1:0:0:
268,244,122052,6,0,P|346:264|416:225,2,165,4|0|8,0:0|0:0|0:0,0:0:0:0:
244,148,123791,1,0,0:0:0:0:
168,212,124226,2,0,L|175:321,2,110,8|2|8,0:0|0:3|0:0,0:0:0:0:
244,148,125530,6,0,P|170:115|95:144,2,165,0|0|8,0:0|0:0|0:0,0:0:0:0:
316,216,127269,2,0,L|436:208,1,110,0|8,0:0|0:0,0:0:0:0:
500,140,128138,6,0,P|512:86|496:34,1,110,0|8,0:0|0:0,0:0:0:0:
452,16,128790,1,0,0:0:0:0:
360,52,129225,2,0,L|305:49,2,55,0|8|0,0:0|0:0|0:0,0:0:0:0:
316,140,130095,6,0,L|248:136,2,55,0|8|0,0:0|0:0|0:0,0:0:0:0:
272,228,130964,2,0,L|216:224,2,55,0|8|0,0:0|0:0|0:0,0:0:0:0:
236,320,131834,2,0,L|180:316,1,55,0|8,0:0|0:0,0:0:0:0:
256,192,132486,12,0,134877,0:0:0:0:
40,128,135964,6,0,P|96:112|156:132,1,110,4|8,0:0|0:0,0:0:0:0:
184,156,136616,1,0,0:0:0:0:
244,236,137051,2,0,L|236:300,2,55,0|8|0,0:0|0:0|0:0,0:0:0:0:
300,156,137920,2,0,L|312:88,2,55,0|8|0,0:0|0:0|0:0,0:0:0:0:
344,244,138790,2,0,L|332:324,1,55,0|8,0:0|0:0,0:0:0:0:
332,348,139224,6,0,P|409:366|467:312,1,165,0|8,0:0|0:0,0:0:0:0:
472,212,140311,1,0,0:0:0:0:
472,212,140529,2,0,L|420:184,1,55,0|8,0:0|0:0,0:0:0:0:
396,144,140963,2,0,B|292:104|292:104|228:124,1,165,0|8,0:0|0:0,0:0:0:0:
204,156,141833,2,0,B|152:172|152:172|44:120,1,165,0|8,0:0|0:0,0:0:0:0:
36,220,142920,6,0,L|140:272,1,110,2|8,0:0|0:0,0:0:0:0:
188,352,143789,2,0,P|222:309|229:255,1,110,2|8,0:3|0:0,0:0:0:0:
204,160,144659,2,0,P|206:105|234:59,2,110,2|8|0,0:0|0:0|0:0,0:0:0:0:
236,252,145963,1,8,0:0:0:0:
328,216,146398,6,0,P|392:168|396:84,1,165,4|4,0:0|0:0,0:0:0:0:
324,20,147485,1,2,0:0:0:0:
232,60,147920,2,0,P|216:108|232:172,1,110,4|2,0:0|0:0,0:0:0:0:
296,236,148789,1,2,0:1:0:0:
204,268,149224,2,0,L|132:260,1,55,0|8,0:0|0:0,0:0:0:0:
56,300,149876,6,0,P|48:240|76:196,1,110,4|8,0:0|0:0,0:0:0:0:
116,172,150528,1,0,0:0:0:0:
200,120,150963,2,0,L|176:48,2,55,0|8|0,0:0|0:0|0:0,0:0:0:0:
300,108,151832,2,0,L|304:40,2,55,0|8|0,0:0|0:0|0:0,0:0:0:0:
264,200,152702,2,0,L|271:254,1,55,0|8,0:0|0:0,0:0:0:0:
280,304,153137,6,0,P|360:336|436:300,1,165,0|8,0:0|0:0,0:0:0:0:
452,212,154223,2,0,L|444:144,1,55
424,60,154876,2,0,B|384:72|360:108|360:108|324:76|284:80,1,165,0|8,0:0|0:0,0:0:0:0:
236,92,155745,1,0,0:0:0:0:
144,56,156180,1,0,0:0:0:0:
56,104,156615,6,0,L|72:288,1,165,0|8,0:0|0:0,0:0:0:0:
28,360,157701,2,0,P|81:369|131:348,1,110,2|8,0:3|0:0,0:0:0:0:
216,300,158571,2,0,L|344:308,2,110,0|8|0,0:0|0:0|0:0,0:0:0:0:
148,228,159875,1,8,0:0:0:0:
223,163,160310,6,0,P|150:131|75:160,1,165,2|4,0:0|0:0,0:0:0:0:
56,256,161397,2,0,L|64:372,1,110,2|4,0:0|0:0,0:0:0:0:
164,368,162266,2,0,L|160:313,1,55,2|8,0:1|0:0,0:0:0:0:
188,272,162701,2,0,P|258:233|339:241,1,165,0|2,0:0|0:1,0:0:0:0:
420,300,163788,6,0,P|439:249|428:191,1,110,4|8,0:0|0:0,0:0:0:0:
408,152,164440,2,0,L|420:40,1,110,2|2,0:1|0:1,0:0:0:0:
320,28,165310,2,0,L|308:137,1,110,4|0,0:0|0:0,0:0:0:0:
304,188,165962,2,0,L|248:196,1,55,2|0,0:1|0:0,0:0:0:0:
204,176,166396,2,0,L|140:184,1,55,2|0,0:1|0:0,0:0:0:0:
104,164,166831,1,8,0:0:0:0:
48,244,167266,5,4,0:0:0:0:
76,260,180743,5,8,0:0:0:0:
128,344,181178,6,0,P|180:356|232:339,1,110,4|8,0:0|0:0,0:0:0:0:
304,272,182047,2,0,L|293:162,1,110,0|8,0:0|0:0,0:0:0:0:
288,64,182917,2,0,P|338:44|392:52,2,110,0|8|2,0:0|0:0|0:3,0:0:0:0:
248,156,184221,1,8,0:0:0:0:
164,104,184656,6,0,P|150:156|166:208,1,110,0|8,0:0|0:0,0:0:0:0:
204,244,185308,1,0,0:0:0:0:
304,248,185743,2,0,L|358:251,1,55,0|8,0:0|0:0,0:0:0:0:
407,252,186178,6,0,P|464:196|454:117,1,165,2|2,0:0|0:0,0:0:0:0:
372,64,187264,2,0,L|260:76,1,110,2|4,0:0|0:0,0:0:0:0:
176,128,188134,6,0,P|160:68|176:18,2,110,4|8|2,0:0|0:0|0:3,0:0:0:0:
268,164,189438,1,8,0:0:0:0:
192,228,189873,2,0,L|72:220,1,110,0|8,0:0|0:0,0:0:0:0:
64,320,190742,2,0,L|173:327,1,110,0|8,0:0|0:0,0:0:0:0:
264,364,191612,5,4,0:0:0:0:
355,328,192047,2,0,P|399:296|416:244,1,110,4|8,0:0|0:0,0:0:0:0:
320,228,192916,2,0,P|316:172|280:128,1,110,4|0,0:0|0:0,0:0:0:0:
220,208,193786,2,0,P|170:184|116:184,1,110,4|8,0:0|0:0,0:0:0:0:
148,280,194655,1,4,0:0:0:0:
256,192,195090,12,0,197699,0:0:0:0:
400,72,198568,6,0,P|416:128|392:181,1,110,4|8,0:0|0:0,0:0:0:0:
364,208,199220,1,0,0:0:0:0:
392,304,199655,2,0,L|452:308,2,55,0|8|0,0:0|0:0|0:0,0:0:0:0:
292,304,200524,2,0,L|236:300,1,55,0|8,0:0|0:0,0:0:0:0:
187,291,200959,2,0,P|138:228|146:148,1,165,0|8,0:0|0:0,0:0:0:0:
220,80,202046,6,0,L|332:88,1,110,0|8,0:0|0:0,0:0:0:0:
336,188,202916,2,0,L|280:184,1,55,2|0,0:1|0:0,0:0:0:0:
184,192,203568,2,0,B|108:224|108:224|80:316,1,165,0|8,0:0|0:0,0:0:0:0:
116,344,204437,2,0,B|204:344|204:344|260:264,1,165,0|8,0:0|0:0,0:0:0:0:
288,188,205524,6,0,L|400:184,1,110,2|8,0:0|0:0,0:0:0:0:
400,84,206394,2,0,L|280:88,1,110,2|8,0:3|0:0,0:0:0:0:
204,140,207263,2,0,P|188:84|212:24,2,110,2|8|0,0:0|0:0|0:0,0:0:0:0:
284,196,208567,1,8,0:0:0:0:
247,288,209002,6,0,P|182:334|103:319,1,165,4|4,0:0|0:0,0:0:0:0:
40,244,210089,1,2,0:0:0:0:
88,156,210524,2,0,L|197:159,1,110,4|2,0:0|0:0,0:0:0:0:
280,104,211393,1,2,0:1:0:0:
308,200,211828,2,0,L|296:256,1,55,0|8,0:0|0:0,0:0:0:0:
388,288,212480,6,0,L|412:180,1,110,4|8,0:0|0:0,0:0:0:0:
420,132,213132,1,0,0:0:0:0:
340,72,213567,2,0,L|337:17,2,55,0|8|0,0:0|0:0|0:0,0:0:0:0:
244,96,214436,2,0,L|216:32,2,55,0|8|0,0:0|0:0|0:0,0:0:0:0:
312,168,215306,2,0,L|304:240,1,55,0|8,0:0|0:0,0:0:0:0:
296,272,215741,6,0,P|223:236|144:272,1,165,0|8,0:0|0:0,0:0:0:0:
52,288,216828,2,0,L|56:228,1,55
48,136,217480,6,0,B|124:168|124:168|202:142,1,165,0|8,0:0|0:0,0:0:0:0:
248,124,218349,1,0,0:0:0:0:
332,72,218784,1,0,0:0:0:0:
428,104,219219,6,0,P|472:168|458:253,1,165,0|8,0:0|0:0,0:0:0:0:
380,308,220306,2,0,L|264:304,1,110,2|8,0:3|0:0,0:0:0:0:
216,219,221175,2,0,P|172:287|188:366,2,165,0|0|8,0:0|0:0|0:0,0:0:0:0:
304,172,222914,6,0,B|352:160|352:160|416:188|416:188|459:173,1,165,2|4,0:0|0:0,0:0:0:0:
472,76,224001,2,0,B|416:88|416:88|368:64,1,110,2|4,0:0|0:0,0:0:0:0:
272,40,224870,2,0,L|196:36,1,55,2|8,0:1|0:0,0:0:0:0:
168,48,225305,2,0,P|136:120|176:204,1,165,0|2,0:0|0:1,0:0:0:0:
268,212,226392,6,0,L|252:332,1,110,4|8,0:0|0:0,0:0:0:0:
214,356,227044,2,0,P|160:360|112:336,1,110,2|2,0:1|0:1,0:0:0:0:
56,256,227914,2,0,L|76:136,1,110,4|0,0:0|0:0,0:0:0:0:
80,100,228566,2,0,L|152:92,1,55,2|0,0:1|0:0,0:0:0:0:
176,120,229001,2,0,L|252:132,1,55,2|0,0:1|0:0,0:0:0:0:
268,104,229435,1,8,0:0:0:0:
364,76,229870,5,2,0:1:0:0:
468,244,230740,1,8,0:0:0:0:
292,324,231609,2,0,P|240:336|176:324,2,110,2|2|2,0:1|0:1|0:1,0:0:0:0:
344,240,232913,2,0,L|332:112,1,110,2|2,0:1|0:1,0:0:0:0:
144,80,234218,6,0,B|144:120|156:144|156:144|184:196|184:196|196:220|196:264,1,183.333333333333,8|2,0:0|0:1,0:0:0:0:
256,192,235957,12,0,240377,0:0:0:0:
