osu file format v14

[General]
AudioFilename: Chata - Reviver.mp3
AudioLeadIn: 1054
PreviewTime: 49078
Countdown: 0
SampleSet: Normal
StackLeniency: 0.7
Mode: 0
LetterboxInBreaks: 0
WidescreenStoryboard: 1

[Editor]
DistanceSpacing: 1.3
BeatDivisor: 4
GridSize: 8
TimelineZoom: 1

[Metadata]
Title:Reviver
TitleUnicode:リバイバー
Artist:Chata
ArtistUnicode:茶太
Creator:DakeDekaane
Version:Insane
Source:太鼓の達人
Tags:Taiko no Tatsujin
BeatmapID:427241
BeatmapSetID:177490

[Difficulty]
HPDrainRate:7
CircleSize:5.5
OverallDifficulty:8
ApproachRate:8
SliderMultiplier:2
SliderTickRate:2

[Events]
//Background and Video events
0,0,"Chata - Reviver - Background.jpg",0,0
//Break Periods
//Storyboard Layer 0 (Background)
//Storyboard Layer 1 (Fail)
//Storyboard Layer 2 (Pass)
//Storyboard Layer 3 (Foreground)
//Storyboard Sound Samples

[TimingPoints]
946,379.746835443038,4,1,0,60,1,0
49553,-90.9090909090909,4,1,0,70,0,1
61705,-90.9090909090909,4,1,0,80,0,1
73857,-100,4,1,0,60,0,0
101199,-90.9090909090909,4,1,0,70,0,1
113351,-90.9090909090909,4,1,0,80,0,1
125502,-100,4,1,0,60,0,0
137654,-100,4,1,0,50,0,0
139173,-100,4,1,0,40,0,0
140692,-100,4,1,0,30,0,0

[Colours]
Combo1 : 255,48,0
Combo2 : 64,255,0
Combo3 : 0,128,255
Combo4 : 255,182,0

[HitObjects]
384,280,946,6,0,P|390:231|372:185,1,100,4|0,0:2|0:0,0:0:0:0:
281,143,1325,2,0,L|232:132,1,50,2|0,0:3|0:0,0:0:0:0:
193,221,1610,1,0,0:0:0:0:
193,221,1705,2,0,L|291:243,1,100,0|0,0:0|0:0,0:0:0:0:
372,185,2085,2,0,P|379:159|381:134,1,50,2|0,0:3|0:0,0:0:0:0:
386,35,2370,1,0,0:0:0:0:
386,35,2464,2,0,L|271:30,1,100
195,73,2844,6,0,L|96:86,1,100,2|0,0:2|3:0,0:0:0:0:
259,135,3224,2,0,L|358:122,1,100,2|0,0:2|3:0,0:0:0:0:
180,170,3604,2,0,L|81:183,1,100,2|0,0:2|3:0,0:0:0:0:
242,233,3983,6,0,L|341:221,1,100,4|0,0:2|0:0,0:0:0:0:
451,186,4363,2,0,P|464:165|471:141,1,50,2|0,0:3|0:0,0:0:0:0:
373,121,4648,1,0,0:0:0:0:
373,121,4743,1,0,0:0:0:0:
356,220,4933,1,0,0:0:0:0:
432,286,5123,2,0,L|432:336,1,50,2|0,0:3|0:0,0:0:0:0:
338,372,5408,1,0,0:0:0:0:
338,372,5502,1,0,0:0:0:0:
256,313,5692,1,0,0:0:0:0:
175,372,5882,6,0,L|84:332,1,100,2|0,0:2|3:0,0:0:0:0:
28,202,6262,2,0,L|119:243,1,100,2|0,0:2|3:0,0:0:0:0:
253,194,6642,2,0,L|162:153,1,100,2|0,0:2|3:0,0:0:0:0:
124,135,6927,1,0,0:0:0:0:
88,116,7021,6,0,P|87:67|111:24,1,100,4|0,0:2|0:0,0:0:0:0:
211,18,7401,2,0,L|260:23,1,50,2|0,0:3|0:0,0:0:0:0:
352,64,7686,1,0,0:0:0:0:
352,64,7781,1,2,0:2:0:0:
312,155,7971,1,0,0:0:0:0:
218,115,8161,2,0,P|212:139|212:163,1,50,2|0,0:3|0:0,0:0:0:0:
271,245,8446,1,0,0:0:0:0:
271,245,8540,1,2,0:2:0:0:
370,239,8730,5,0,0:0:0:0:
469,233,8920,2,0,L|480:184,1,50,2|0,0:3|0:0,0:0:0:0:
490,84,9205,1,0,0:0:0:0:
490,84,9300,1,2,0:2:0:0:
390,80,9490,1,0,0:0:0:0:
390,80,9680,2,0,L|378:179,1,100,2|0,0:3|0:0,0:0:0:0:
360,296,10059,6,0,B|288:340|217:313|173:296|120:242|120:144|226:118|333:144|333:242|280:296|235:313|164:340|93:296,1,600,4|0,0:2|0:0,0:0:0:0:
49,184,11389,5,0,0:0:0:0:
49,184,11483,1,0,0:0:0:0:
49,184,11578,2,0,L|32:120,2,66.6666666666667,4|0|0,0:2|0:0|0:0,0:0:0:0:
105,203,11958,2,0,L|122:267,2,66.6666666666667,4|0|0,0:2|0:0|0:0,0:0:0:0:
116,143,12338,1,4,0:2:0:0:
163,106,12464,1,0,0:0:0:0:
222,113,12591,1,0,0:0:0:0:
273,144,12718,1,4,0:2:0:0:
332,146,12844,1,0,0:0:0:0:
379,108,12971,1,0,0:0:0:0:
487,275,13287,5,0,0:0:0:0:
404,330,13477,1,2,0:3:0:0:
404,330,13572,2,0,L|304:335,1,100
263,337,13857,2,0,P|213:335|167:315,1,100,2|0,0:2|0:0,0:0:0:0:
114,230,14237,1,2,0:3:0:0:
143,133,14427,5,0,0:0:0:0:
143,133,14521,1,0,0:0:0:0:
143,133,14616,2,0,L|189:44,1,100,2|0,0:2|0:0,0:0:0:0:
289,59,14996,2,0,L|242:147,1,100,2|0,0:3|0:0,0:0:0:0:
195,236,15376,1,2,0:2:0:0:
233,328,15566,1,0,0:0:0:0:
233,328,15661,1,2,0:3:0:0:
330,300,15851,1,0,0:0:0:0:
330,300,15946,2,0,L|379:301,2,50,2|0|0,0:3|0:0|0:0,0:0:0:0:
285,210,16325,5,0,0:0:0:0:
384,201,16515,1,2,0:3:0:0:
383,201,16610,2,0,P|431:215|465:250,1,100
488,216,16895,2,0,L|495:116,1,100,2|0,0:2|0:0,0:0:0:0:
429,40,17275,1,2,0:3:0:0:
336,76,17464,5,0,0:0:0:0:
336,76,17559,1,0,0:0:0:0:
336,76,17654,2,0,P|287:76|237:68,1,100,2|0,0:2|0:0,0:0:0:0:
146,23,18034,2,0,P|146:72|138:122,1,100,2|0,0:3|0:0,0:0:0:0:
76,201,18414,1,2,0:2:0:0:
100,299,18604,1,0,0:0:0:0:
100,313,18699,1,0,0:0:0:0:
100,328,18794,1,2,0:3:0:0:
198,316,18983,1,2,0:3:0:0:
201,330,19078,1,0,0:0:0:0:
203,345,19173,1,2,0:2:0:0:
302,355,19363,5,0,0:0:0:0:
378,290,19553,1,2,0:3:0:0:
377,290,19648,2,0,P|426:279|475:286,1,100
500,318,19933,2,0,L|489:218,1,100,2|0,0:2|0:0,0:0:0:0:
415,150,20313,1,2,0:3:0:0:
320,180,20502,5,0,0:0:0:0:
320,180,20597,1,0,0:0:0:0:
320,180,20692,2,0,P|270:185|221:178,1,100
174,89,21072,2,0,P|223:83|272:90,1,100,2|0,0:3|0:0,0:0:0:0:
373,94,21452,1,2,0:2:0:0:
454,152,21642,1,0,0:0:0:0:
454,152,21737,1,2,0:3:0:0:
401,238,21927,1,0,0:0:0:0:
401,238,22021,2,0,P|394:262|393:287,2,50,2|0|0,0:3|0:0|0:0,0:0:0:0:
492,280,22401,5,0,0:0:0:0:
499,179,22591,1,2,0:3:0:0:
499,179,22686,2,0,P|482:133|445:100,1,100
406,92,22971,2,0,L|306:88,1,100,2|0,0:2|0:0,0:0:0:0:
246,168,23351,1,2,0:3:0:0:
161,113,23540,5,0,0:0:0:0:
161,113,23635,1,0,0:0:0:0:
161,113,23730,2,0,P|145:160|154:209,1,100,2|0,0:2|0:0,0:0:0:0:
251,68,24110,2,0,P|218:30|172:13,1,100,2|0,0:3|0:0,0:0:0:0:
246,168,24490,2,0,P|294:158|332:126,1,100,2|0,0:2|0:0,0:0:0:0:
161,113,24870,1,2,0:3:0:0:
158,212,25059,1,0,0:0:0:0:
160,226,25154,1,0,0:0:0:0:
162,240,25249,1,4,0:0:0:0:
125,333,25439,5,0,0:0:0:0:
30,298,25629,1,2,0:3:0:0:
30,298,25724,1,0,0:0:0:0:
81,212,25914,1,0,0:0:0:0:
81,212,26009,1,2,0:2:0:0:
20,132,26199,1,0,0:0:0:0:
26,118,26294,1,0,0:0:0:0:
32,104,26389,1,2,0:3:0:0:
105,36,26578,5,0,0:0:0:0:
105,35,26768,2,0,P|153:27|200:43,1,100,2|0,0:2|0:0,0:0:0:0:
282,102,27148,2,0,P|330:110|377:94,1,100,2|0,0:3|0:0,0:0:0:0:
436,12,27528,1,2,0:2:0:0:
502,86,27718,1,0,0:0:0:0:
504,100,27813,1,2,0:3:0:0:
436,173,28002,1,0,0:0:0:0:
434,187,28097,1,2,0:3:0:0:
432,201,28192,1,0,0:0:0:0:
430,215,28287,1,0,0:0:0:0:
369,295,28477,5,0,0:0:0:0:
280,249,28667,1,2,0:3:0:0:
280,249,28762,1,0,0:0:0:0:
305,152,28952,1,0,0:0:0:0:
305,152,29047,1,0,0:2:0:0:
260,62,29237,1,0,0:0:0:0:
246,56,29332,1,0,0:0:0:0:
232,50,29427,1,2,0:3:0:0:
137,79,29616,5,0,0:0:0:0:
137,79,29806,2,0,L|32:72,1,100,2|0,0:2|0:0,0:0:0:0:
4,167,30186,2,0,L|103:173,1,100,2|0,0:3|0:0,0:0:0:0:
202,156,30566,1,2,0:2:0:0:
273,225,30756,1,0,0:0:0:0:
288,224,30851,1,0,0:0:0:0:
303,223,30946,1,2,0:3:0:0:
284,320,31135,1,2,0:3:0:0:
299,321,31230,1,0,0:0:0:0:
314,322,31325,1,0,0:0:0:0:
413,328,31515,5,0,0:0:0:0:
493,268,31705,1,2,0:3:0:0:
493,268,31800,1,0,0:0:0:0:
461,172,31990,1,0,0:0:0:0:
461,172,32085,1,2,0:2:0:0:
361,177,32275,1,0,0:0:0:0:
345,176,32370,1,0,0:0:0:0:
330,175,32464,1,2,0:3:0:0:
249,114,32654,5,0,0:0:0:0:
249,113,32844,2,0,P|229:159|235:208,1,100,2|0,0:2|0:0,0:0:0:0:
311,274,33224,2,0,P|316:323|297:368,1,100,2|0,0:3|0:0,0:0:0:0:
217,308,33604,1,2,0:2:0:0:
127,353,33794,1,0,0:0:0:0:
112,352,33889,1,2,0:3:0:0:
76,259,34078,1,0,0:0:0:0:
75,245,34173,1,2,0:3:0:0:
74,230,34268,1,0,0:0:0:0:
73,215,34363,1,0,0:0:0:0:
24,126,34553,5,0,0:0:0:0:
83,45,34743,1,2,0:3:0:0:
83,45,34838,1,0,0:0:0:0:
173,88,35028,1,0,0:0:0:0:
173,88,35123,1,2,0:2:0:0:
175,188,35313,1,0,0:0:0:0:
183,200,35408,1,0,0:0:0:0:
190,212,35502,1,2,0:3:0:0:
274,266,35692,5,0,0:0:0:0:
365,226,35882,1,2,0:2:0:0:
456,186,36072,1,0,0:0:0:0:
458,171,36167,1,0,0:0:0:0:
460,156,36262,1,2,0:3:0:0:
421,61,36452,1,0,0:0:0:0:
327,26,36642,1,4,0:3:0:0:
316,125,36832,1,4,0:3:0:0:
223,91,37022,1,4,0:3:0:0:
213,190,37211,1,4,0:3:0:0:
119,155,37401,6,0,P|80:280|210:293,2,300,4|0|0,0:0|0:0|0:0,0:0:0:0:
392,154,38920,6,0,P|431:280|301:293,2,300,4|0|0,0:0|0:0|0:0,0:0:0:0:
256,8,40439,6,0,B|232:56|256:104|256:104|280:152|256:200,1,200,4|0,0:0|0:0,0:0:0:0:
343,57,41199,5,2,0:2:0:0:
416,125,41389,1,0,0:0:0:0:
420,139,41483,1,0,0:0:0:0:
424,153,41578,1,2,0:3:0:0:
450,249,41768,2,0,P|420:338|326:340,1,200,2|0,0:2|0:0,0:0:0:0:
233,301,42338,2,0,L|133:296,1,100,2|0,0:2|0:0,0:0:0:0:
51,236,42718,1,2,0:2:0:0:
133,178,42908,1,0,0:0:0:0:
51,118,43097,1,2,0:3:0:0:
133,62,43287,1,0,0:0:0:0:
147,63,43382,1,0,0:0:0:0:
161,64,43477,1,4,0:2:0:0:
225,140,43667,5,0,0:0:0:0:
239,141,43762,1,0,0:0:0:0:
253,142,43857,1,2,0:2:0:0:
327,208,44047,1,0,0:0:0:0:
426,220,44237,2,0,P|444:265|440:315,1,100,2|0,0:2|0:0,0:0:0:0:
415,319,44521,1,0,0:0:0:0:
390,323,44616,1,2,0:2:0:0:
365,327,44711,1,0,0:0:0:0:
340,331,44806,1,2,0:2:0:0:
315,335,44901,1,0,0:0:0:0:
290,339,44996,1,2,0:2:0:0:
257,244,45186,5,0,0:0:0:0:
243,243,45281,1,0,0:0:0:0:
229,242,45376,1,2,0:2:0:0:
136,204,45566,1,0,0:0:0:0:
137,103,45756,2,0,P|153:56|190:23,1,100,2|0,0:2|0:0,0:0:0:0:
216,25,46040,1,0,0:0:0:0:
242,27,46135,1,2,0:2:0:0:
340,46,46325,1,2,0:2:0:0:
373,140,46515,5,4,0:2:0:0:
399,237,46705,1,2,0:2:0:0:
303,263,46895,1,4,0:2:0:0:
277,166,47085,1,2,0:2:0:0:
139,140,47275,1,4,0:2:0:0:
113,237,47464,1,2,0:2:0:0:
209,263,47654,1,4,0:2:0:0:
235,166,47844,1,2,0:2:0:0:
256,304,48034,5,4,0:0:0:0:
324,115,48224,1,2,0:2:0:0:
157,224,48414,1,4,0:0:0:0:
355,224,48604,1,2,0:2:0:0:
188,115,48794,1,4,0:0:0:0:
324,269,49553,5,4,0:0:0:0:
414,206,49743,1,0,0:0:0:0:
416,189,49838,1,0,0:0:0:0:
418,172,49933,1,2,0:3:0:0:
392,64,50123,1,0,0:0:0:0:
295,117,50313,1,2,0:2:0:0:
295,117,50408,1,0,0:0:0:0:
222,34,50597,1,0,0:0:0:0:
222,34,50692,1,2,0:3:0:0:
120,77,50882,1,0,0:0:0:0:
110,90,50977,1,0,0:0:0:0:
100,103,51072,1,0,0:0:0:0:
36,192,51262,5,0,0:0:0:0:
36,192,51357,1,0,0:0:0:0:
36,192,51452,2,0,P|21:263|32:296,1,110.000003356934,2|0,0:2|0:0,0:0:0:0:
58,326,51737,1,0,0:0:0:0:
58,326,51832,2,0,L|168:321,1,110.000003356934,2|0,0:2|0:0,0:0:0:0:
206,317,52116,1,0,0:0:0:0:
206,317,52211,2,0,P|262:304|318:320,1,110.000003356934,2|0,0:2|0:0,0:0:0:0:
344,337,52496,1,0,0:0:0:0:
344,337,52591,1,4,0:2:0:0:
451,312,52781,5,0,0:0:0:0:
448,295,52876,1,0,0:0:0:0:
445,278,52971,1,2,0:3:0:0:
428,169,53161,1,0,0:0:0:0:
453,61,53351,1,2,0:2:0:0:
453,61,53446,1,0,0:0:0:0:
344,69,53635,1,0,0:0:0:0:
344,69,53730,1,2,0:3:0:0:
300,169,53920,1,0,0:0:0:0:
283,172,54015,1,0,0:0:0:0:
266,175,54110,1,0,0:0:0:0:
165,220,54300,5,0,0:0:0:0:
165,220,54395,1,0,0:0:0:0:
165,220,54490,2,0,P|142:269|153:322,1,110.000003356934,2|0,0:2|0:0,0:0:0:0:
185,345,54775,1,0,0:0:0:0:
185,345,54870,2,0,L|294:353,1,110.000003356934,2|0,0:2|0:0,0:0:0:0:
333,355,55154,1,0,0:0:0:0:
333,355,55249,2,0,P|390:341|412:294,1,110.000003356934,2|0,0:2|0:0,0:0:0:0:
415,260,55534,1,0,0:0:0:0:
415,260,55629,1,4,0:2:0:0:
387,153,55819,5,0,0:0:0:0:
387,137,55914,1,0,0:0:0:0:
387,121,56009,1,2,0:3:0:0:
352,16,56199,1,0,0:0:0:0:
352,16,56294,1,2,0:2:0:0:
242,20,56483,1,0,0:0:0:0:
242,20,56578,1,0,0:0:0:0:
208,124,56768,1,2,0:3:0:0:
296,189,56958,1,0,0:0:0:0:
294,205,57053,1,0,0:0:0:0:
292,221,57148,1,0,0:0:0:0:
274,329,57338,5,0,0:0:0:0:
274,329,57433,1,0,0:0:0:0:
274,329,57528,2,0,P|220:338|174:311,1,110.000003356934,2|0,0:2|0:0,0:0:0:0:
156,277,57813,1,0,0:0:0:0:
156,277,57908,2,0,P|114:242|60:242,1,110.000003356934,2|0,0:2|0:0,0:0:0:0:
27,261,58192,1,0,0:0:0:0:
27,261,58287,2,0,L|15:151,1,110.000003356934,2|0,0:2|0:0,0:0:0:0:
11,113,58572,1,0,0:0:0:0:
11,113,58667,6,0,P|101:56|196:101,1,220.000006713867,4|2,0:2|0:3,0:0:0:0:
247,198,59237,2,0,P|336:254|432:209,1,220.000006713867,2|0,0:2|0:0,0:0:0:0:
445,98,59806,5,2,0:3:0:0:
445,98,59901,1,0,0:0:0:0:
445,98,59996,1,0,0:0:0:0:
343,141,60186,2,0,L|331:360,1,220.000006713867,4|2,0:2|0:3,0:0:0:0:
220,360,60756,1,0,0:0:0:0:
220,360,60851,1,0,0:0:0:0:
220,360,60946,2,0,L|228:195,1,165.000005035401,4|0,0:2|0:0,0:0:0:0:
230,150,61325,1,8,0:3:0:0:
230,150,61515,1,4,0:3:0:0:
168,58,61705,6,0,L|44:44,1,110.000003356934,4|0,0:2|0:0,0:0:0:0:
4,142,62085,1,2,0:3:0:0:
27,249,62275,1,2,0:2:0:0:
43,252,62370,1,0,0:0:0:0:
58,255,62464,1,0,0:0:0:0:
74,259,62559,1,0,0:0:0:0:
180,231,62749,1,0,0:0:0:0:
196,235,62844,1,2,0:3:0:0:
302,207,63034,1,0,0:0:0:0:
408,228,63224,6,0,P|431:278|425:332,1,110.000003356934,0|2,0:0|0:2,0:0:0:0:
410,355,63509,1,2,0:3:0:0:
300,360,63699,1,0,0:0:0:0:
300,360,63794,1,2,0:3:0:0:
205,304,63983,1,2,0:2:0:0:
205,304,64078,1,2,0:3:0:0:
105,351,64268,1,0,0:1:0:0:
105,351,64363,1,2,0:3:0:0:
58,251,64553,1,0,0:0:0:0:
158,204,64743,6,0,L|168:88,1,110.000003356934,4|0,0:2|0:0,0:0:0:0:
84,21,65123,1,2,0:3:0:0:
8,101,65313,1,2,0:2:0:0:
10,117,65408,1,0,0:0:0:0:
12,133,65502,1,0,0:0:0:0:
14,149,65597,1,0,0:0:0:0:
58,249,65787,1,0,0:0:0:0:
60,265,65882,1,2,0:3:0:0:
158,314,66072,1,0,0:0:0:0:
253,260,66262,6,0,L|362:271,1,110.000003356934,0|2,0:0|0:2,0:0:0:0:
389,266,66547,1,2,0:3:0:0:
474,195,66737,1,0,0:0:0:0:
474,195,66832,1,2,0:3:0:0:
454,87,67021,1,2,0:2:0:0:
454,87,67116,1,0,0:0:0:0:
351,49,67306,1,0,0:0:0:0:
351,49,67401,1,2,0:3:0:0:
267,120,67591,1,0,0:0:0:0:
286,228,67781,6,0,L|219:315,1,110.000003356934,4|0,0:2|0:0,0:0:0:0:
113,348,68161,1,2,0:3:0:0:
42,263,68351,1,2,0:2:0:0:
37,248,68446,1,0,0:0:0:0:
33,232,68540,1,0,0:0:0:0:
28,217,68635,1,0,0:0:0:0:
98,132,68825,1,0,0:0:0:0:
93,117,68920,1,2,0:3:0:0:
174,43,69110,1,0,0:0:0:0:
231,137,69300,2,0,P|279:162|333:162,1,110.000003356934,0|2,0:0|0:2,0:0:0:0:
305,54,69680,6,0,P|203:28|126:99,2,220.000006713867,2|2|2,0:3|0:2|0:3,0:0:0:0:
334,173,70629,1,0,0:0:0:0:
334,173,70724,1,0,0:0:0:0:
334,173,70819,2,0,P|256:244|154:217,1,220.000006713867,4|2,0:2|0:3,0:0:0:0:
49,181,71389,1,0,0:0:0:0:
49,181,71483,1,0,0:0:0:0:
49,181,71578,6,0,L|40:290,1,110.000003356934,2|0,0:2|0:0,0:0:0:0:
129,356,71958,1,2,0:3:0:0:
129,356,72053,1,0,0:0:0:0:
129,356,72148,1,0,0:0:0:0:
230,312,72338,2,0,L|339:303,1,110.000003356934,4|0,0:3|0:0,0:0:0:0:
381,266,72623,2,0,L|271:274,1,110.000003356934,4|0,0:3|0:0,0:0:0:0:
224,244,72908,1,4,0:3:0:0:
194,115,73097,5,4,0:2:0:0:
322,85,73287,1,2,0:2:0:0:
352,214,73477,1,4,0:2:0:0:
224,244,73667,1,2,0:2:0:0:
256,192,73857,12,0,76515,1:0:0:0:
360,272,76895,5,2,0:2:0:0:
264,300,77085,1,0,0:0:0:0:
168,272,77275,1,0,0:0:0:0:
156,170,77464,2,0,P|245:206|264:300,1,200,2|2,0:2|0:2,0:0:0:0:
337,369,78034,1,2,0:2:0:0:
360,268,78224,2,0,B|361:217|336:174|336:174|396:189|439:151|448:80|400:48,1,300,0|0,0:0|0:0,0:0:0:0:
205,3,79173,1,4,0:3:0:0:
205,3,79363,1,0,0:0:0:0:
358,107,79743,5,0,0:0:0:0:
358,107,79838,1,0,0:0:0:0:
358,107,79933,2,0,P|290:136|262:204,2,150,2|2|0,0:2|0:2|0:0,0:0:0:0:
447,152,80692,2,0,P|455:79|410:21,2,150,2|2|0,0:2|0:2|0:0,0:0:0:0:
362,206,81452,2,0,P|421:249|493:239,2,150,2|2|2,0:2|0:2|0:3,0:0:0:0:
358,106,82211,1,2,0:3:0:0:
358,106,82401,1,2,0:3:0:0:
269,59,82591,1,2,0:3:0:0:
269,59,82781,1,2,0:3:0:0:
184,111,82971,1,2,0:3:0:0:
184,111,83161,1,2,0:3:0:0:
188,211,83351,1,8,0:3:0:0:
276,259,83540,5,0,0:0:0:0:
276,259,83635,1,0,0:0:0:0:
276,259,83730,2,0,P|251:302|224:344,1,100,2|0,0:2|0:0,0:0:0:0:
191,368,84015,2,0,B|152:376|120:352|120:352|88:328|49:343,1,150,2|0,0:2|0:0,0:0:0:0:
170,287,84490,2,0,P|195:194|131:122,1,200,4|0,0:3|0:0,0:0:0:0:
37,91,85059,1,0,0:0:0:0:
4,185,85249,1,2,0:3:0:0:
99,219,85439,1,8,0:3:0:0:
131,122,85629,5,2,0:2:0:0:
155,113,85724,1,0,0:0:0:0:
177,103,85819,1,2,0:2:0:0:
200,93,85914,1,0,0:0:0:0:
223,83,86009,2,0,B|280:48|368:96|368:168|368:168|368:240|456:288|512:256,1,400,6|2,0:2|0:3,0:0:0:0:
469,165,86958,2,0,L|488:16,1,150,2|0,0:2|0:0,0:0:0:0:
465,4,87338,1,2,0:2:0:0:
366,22,87528,2,0,B|293:42|293:42|219:32,2,150,2|2|0,0:2|0:2|0:0,0:0:0:0:
375,121,88287,2,0,B|302:141|302:141|228:131,2,150,2|2|0,0:2|0:2|0:0,0:0:0:0:
457,63,89047,5,2,0:2:0:0:
470,89,89142,1,0,0:0:0:0:
475,118,89237,1,2,0:2:0:0:
472,147,89332,1,0,0:0:0:0:
460,174,89427,1,2,0:3:0:0:
381,234,89616,1,0,0:0:0:0:
351,236,89711,1,2,0:2:0:0:
324,250,89806,1,2,0:2:0:0:
299,266,89901,1,0,0:0:0:0:
273,282,89996,1,0,0:0:0:0:
185,331,90186,1,0,0:0:0:0:
156,321,90281,1,2,0:2:0:0:
127,311,90376,1,2,0:2:0:0:
98,301,90471,1,0,0:0:0:0:
69,291,90566,1,0,0:0:0:0:
17,205,90756,5,0,0:0:0:0:
15,175,90851,1,2,0:2:0:0:
21,145,90946,1,0,0:0:0:0:
38,120,91040,1,0,0:0:0:0:
64,105,91135,1,2,0:2:0:0:
94,104,91230,1,0,0:0:0:0:
123,111,91325,1,2,0:2:0:0:
144,131,91420,1,0,0:0:0:0:
158,157,91515,1,0,0:0:0:0:
177,179,91610,1,0,0:0:0:0:
204,189,91705,1,2,0:2:0:0:
234,188,91800,1,2,0:2:0:0:
259,171,91895,1,0,0:0:0:0:
327,99,92085,6,0,P|363:65|412:62,1,100,6|0,0:2|0:0,0:0:0:0:
445,77,92370,2,0,L|464:176,1,100,2|0,0:2|0:0,0:0:0:0:
495,190,92654,1,2,0:2:0:0:
510,288,92844,1,2,0:2:0:0:
480,293,92939,1,0,0:0:0:0:
450,298,93034,1,0,0:0:0:0:
420,303,93129,1,0,0:0:0:0:
390,308,93224,1,2,0:2:0:0:
361,298,93319,1,0,0:0:0:0:
332,288,93414,1,0,0:0:0:0:
303,278,93509,1,0,0:0:0:0:
274,268,93604,5,2,0:2:0:0:
244,273,93699,1,0,0:0:0:0:
214,278,93794,1,0,0:0:0:0:
184,283,93889,2,0,L|88:256,1,100,2|0,0:2|0:0,0:0:0:0:
58,261,94173,1,2,0:2:0:0:
20,353,94363,1,2,0:2:0:0:
49,347,94458,1,0,0:0:0:0:
148,356,94648,1,0,0:0:0:0:
172,339,94743,1,2,0:2:0:0:
190,315,94838,1,0,0:0:0:0:
200,286,94933,1,0,0:0:0:0:
202,256,95028,1,0,0:0:0:0:
194,226,95123,6,0,B|166:191|166:119|214:95|214:95|254:127|310:127|350:87,2,300,6|0|2,0:2|0:0|0:2,0:0:0:0:
307,340,96642,5,4,0:2:0:0:
426,324,96832,1,2,0:3:0:0:
401,207,97021,1,2,0:3:0:0:
282,222,97211,1,2,0:3:0:0:
205,340,97401,1,4,0:2:0:0:
86,324,97591,1,2,0:3:0:0:
111,207,97780,1,2,0:3:0:0:
230,222,97970,1,2,0:3:0:0:
205,44,98161,5,4,0:2:0:0:
86,60,98351,1,2,0:3:0:0:
111,177,98540,1,2,0:3:0:0:
230,162,98730,1,2,0:3:0:0:
307,44,98920,1,4,0:2:0:0:
426,60,99110,1,2,0:3:0:0:
401,177,99299,1,2,0:3:0:0:
282,162,99490,1,2,0:3:0:0:
449,123,99680,5,4,0:2:0:0:
472,167,99776,1,2,0:3:0:0:
462,216,99871,1,2,0:3:0:0:
423,247,99965,1,2,0:3:0:0:
373,245,100060,1,4,0:2:0:0:
336,211,100155,1,2,0:3:0:0:
331,161,100250,1,2,0:3:0:0:
341,112,100345,1,2,0:3:0:0:
330,63,100440,1,4,0:2:0:0:
96,56,101199,5,4,0:0:0:0:
56,158,101389,1,2,0:3:0:0:
60,174,101483,1,0,0:0:0:0:
64,190,101578,1,0,0:0:0:0:
24,292,101768,1,0,0:0:0:0:
109,360,101958,1,2,0:2:0:0:
125,356,102053,1,0,0:0:0:0:
234,360,102243,1,0,0:0:0:0:
249,356,102338,1,2,0:3:0:0:
264,352,102433,1,0,0:0:0:0:
279,348,102528,1,0,0:0:0:0:
388,360,102718,1,0,0:0:0:0:
461,278,102908,5,0,0:0:0:0:
461,278,103002,1,0,0:0:0:0:
460,278,103097,2,0,P|467:224|446:174,1,110.000003356934,2|0,0:2|0:0,0:0:0:0:
415,150,103382,1,0,0:0:0:0:
415,150,103477,2,0,P|361:143|311:164,1,110.000003356934,2|0,0:2|0:0,0:0:0:0:
283,191,103762,1,0,0:0:0:0:
283,191,103857,2,0,P|229:198|178:178,1,110.000003356934,2|0,0:2|0:0,0:0:0:0:
150,151,104142,1,0,0:0:0:0:
150,151,104237,1,4,0:0:0:0:
242,90,104427,5,0,0:0:0:0:
257,87,104521,1,0,0:0:0:0:
273,83,104616,1,2,0:3:0:0:
358,13,104806,1,0,0:0:0:0:
428,97,104996,1,2,0:2:0:0:
426,113,105091,1,0,0:0:0:0:
339,180,105281,1,0,0:0:0:0:
344,195,105376,1,2,0:3:0:0:
349,210,105471,1,0,0:0:0:0:
354,225,105566,1,0,0:0:0:0:
444,288,105756,1,0,0:0:0:0:
355,353,105946,5,0,0:0:0:0:
355,353,106040,1,0,0:0:0:0:
355,352,106135,2,0,P|305:375|252:367,1,110.000003356934,2|0,0:2|0:0,0:0:0:0:
219,345,106420,1,0,0:0:0:0:
219,345,106515,2,0,P|167:327|115:341,1,110.000003356934,2|0,0:2|0:0,0:0:0:0:
92,372,106800,1,0,0:0:0:0:
92,372,106895,2,0,L|86:262,1,110.000003356934,2|0,0:2|0:0,0:0:0:0:
85,223,107180,1,0,0:0:0:0:
85,223,107275,6,0,P|21:139|57:39,1,220.000006713867,6|0,0:2|0:0,0:0:0:0:
133,122,107844,1,0,0:0:0:0:
133,122,107939,1,0,0:0:0:0:
133,122,108034,2,0,L|352:114,1,220.000006713867,4|2,0:2|0:3,0:0:0:0:
443,178,108604,5,0,0:0:0:0:
443,178,108699,1,0,0:0:0:0:
443,178,108794,2,0,P|387:267|432:363,1,220.000006713867,6|0,0:2|0:0,0:0:0:0:
500,274,109363,1,0,0:0:0:0:
500,274,109458,1,0,0:0:0:0:
500,274,109553,2,0,L|281:262,1,220.000006713867,4|2,0:2|0:3,0:0:0:0:
224,166,110123,5,0,0:0:0:0:
224,166,110218,1,0,0:0:0:0:
224,166,110313,2,0,L|443:178,1,220.000006713867,6|2,0:2|0:3,0:0:0:0:
508,89,110882,2,0,L|289:77,1,220.000006713867,2|0,0:2|0:0,0:0:0:0:
195,20,111452,5,2,0:3:0:0:
101,78,111642,1,0,0:0:0:0:
101,78,111737,1,0,0:0:0:0:
101,78,111832,2,0,L|27:72,2,73.3333355712891,4|0|0,0:2|0:0|0:0,0:0:0:0:
144,127,112211,2,0,L|217:132,2,73.3333355712891,4|0|0,0:2|0:0|0:0,0:0:0:0:
80,146,112591,1,4,0:2:0:0:
44,201,112718,1,0,0:0:0:0:
49,266,112844,1,0,0:0:0:0:
96,312,112971,1,4,0:2:0:0:
161,319,113097,1,0,0:0:0:0:
221,291,113224,1,0,0:0:0:0:
239,227,113351,6,0,L|348:231,1,110.000003356934,4|0,0:2|0:0,0:0:0:0:
456,205,113730,1,2,0:3:0:0:
425,310,113920,1,2,0:2:0:0:
408,313,114015,1,0,0:0:0:0:
391,316,114110,1,0,0:0:0:0:
374,319,114205,1,0,0:0:0:0:
268,350,114395,1,0,0:0:0:0:
251,347,114490,1,2,0:3:0:0:
184,259,114680,1,0,0:0:0:0:
80,297,114870,6,0,P|74:242|95:192,1,110.000003356934,0|2,0:0|0:2,0:0:0:0:
196,149,115249,1,2,0:3:0:0:
212,149,115344,1,0,0:0:0:0:
288,228,115534,1,2,0:2:0:0:
304,228,115629,1,2,0:3:0:0:
320,229,115724,1,0,0:0:0:0:
336,228,115819,1,0,0:1:0:0:
439,190,116009,1,2,0:3:0:0:
427,80,116199,1,0,0:0:0:0:
320,52,116389,6,0,L|208:56,1,110.000003356934,4|0,0:2|0:0,0:0:0:0:
108,12,116768,1,2,0:3:0:0:
31,90,116958,1,2,0:2:0:0:
33,106,117053,1,0,0:0:0:0:
35,122,117148,1,0,0:0:0:0:
37,138,117243,1,0,0:0:0:0:
102,226,117433,1,0,0:0:0:0:
104,242,117528,1,2,0:3:0:0:
60,343,117718,1,0,0:0:0:0:
169,330,117908,6,0,L|278:341,1,110.000003356934,0|2,0:0|0:2,0:0:0:0:
388,341,118287,1,0,0:0:0:0:
404,337,118382,1,2,0:3:0:0:
417,227,118572,1,0,0:0:0:0:
421,210,118667,1,2,0:2:0:0:
425,193,118762,1,0,0:0:0:0:
429,176,118857,1,0,0:0:0:0:
412,67,119047,1,2,0:3:0:0:
327,136,119237,1,0,0:0:0:0:
226,92,119427,6,0,P|259:49|309:26,1,110.000003356934,4|0,0:2|0:0,0:0:0:0:
327,136,119806,1,2,0:3:0:0:
239,203,119996,1,2,0:2:0:0:
222,202,120091,1,0,0:0:0:0:
205,201,120186,1,0,0:0:0:0:
188,200,120281,1,0,0:0:0:0:
100,266,120471,1,0,0:0:0:0:
83,265,120566,1,2,0:3:0:0:
4,187,120756,1,0,0:0:0:0:
100,135,120946,2,0,P|125:86|125:32,1,110.000003356934,0|2,0:0|0:2,0:0:0:0:
19,60,121325,6,0,P|-7:162|64:239,2,220.000006713867,2|2|2,0:3|0:2|0:3,0:0:0:0:
138,31,122275,1,0,0:0:0:0:
138,31,122370,1,0,0:0:0:0:
138,31,122464,2,0,P|209:109|182:211,1,220.000006713867,4|2,0:2|0:3,0:0:0:0:
145,315,123034,1,0,0:0:0:0:
145,315,123129,1,0,0:0:0:0:
145,315,123224,6,0,L|254:324,1,110.000003356934,2|0,0:2|0:0,0:0:0:0:
364,333,123604,1,2,0:3:0:0:
364,333,123699,1,0,0:0:0:0:
364,333,123794,1,0,0:0:0:0:
406,232,123983,2,0,L|416:123,1,110.000003356934,4|0,0:3|0:0,0:0:0:0:
387,75,124268,2,0,L|375:184,1,110.000003356934,4|0,0:3|0:0,0:0:0:0:
338,226,124553,1,4,0:3:0:0:
206,233,124743,5,4,0:2:0:0:
199,102,124933,1,2,0:2:0:0:
331,94,125123,1,4,0:2:0:0:
338,226,125313,1,2,0:2:0:0:
256,192,125502,12,0,128161,1:0:0:0:
320,152,128540,5,4,0:2:0:0:
389,223,128730,1,0,0:0:0:0:
392,237,128825,1,0,0:0:0:0:
394,251,128920,1,2,0:3:0:0:
352,344,129110,1,0,0:0:0:0:
352,344,129300,2,0,B|312:368|256:344|256:344|200:320|160:344,1,200,2|2,0:2|0:3,0:0:0:0:
320,232,130059,5,4,0:2:0:0:
389,161,130249,1,0,0:0:0:0:
392,147,130344,1,0,0:0:0:0:
394,133,130439,1,2,0:3:0:0:
352,40,130629,1,0,0:0:0:0:
352,40,130819,2,0,B|312:16|256:40|256:40|200:64|160:40,1,200,2|2,0:2|0:3,0:0:0:0:
38,69,131389,1,0,0:0:0:0:
32,192,131578,5,4,0:2:0:0:
126,158,131768,1,0,0:0:0:0:
123,144,131863,1,0,0:0:0:0:
121,130,131958,1,2,0:3:0:0:
160,40,132148,1,0,0:0:0:0:
160,40,132338,2,0,B|200:16|256:40|256:40|312:64|352:40,1,200,2|2,0:2|0:3,0:0:0:0:
480,192,133097,5,4,0:2:0:0:
386,226,133287,1,0,0:0:0:0:
389,240,133382,1,0,0:0:0:0:
391,254,133477,1,2,0:3:0:0:
352,344,133667,1,0,0:0:0:0:
352,344,133857,2,0,L|253:351,1,100,2|0,0:2|0:0,0:0:0:0:
170,291,134237,5,2,0:3:0:0:
164,277,134331,1,0,0:0:0:0:
157,263,134426,1,0,0:0:0:0:
151,250,134521,1,0,0:0:0:0:
145,237,134617,2,0,L|46:227,1,100,4|0,0:2|0:0,0:0:0:0:
199,152,134996,2,0,L|298:162,1,100,2|0,0:3|0:0,0:0:0:0:
389,204,135376,6,0,P|415:272|386:339,2,150,4|4|4,0:2|0:2|0:2,0:0:0:0:
256,192,136135,12,0,140692,3:0:0:0:
