osu file format v14

[General]
AudioFilename: Chata - Reviver.mp3
AudioLeadIn: 1054
PreviewTime: 49078
Countdown: 0
SampleSet: Normal
StackLeniency: 0.7
Mode: 0
LetterboxInBreaks: 0
WidescreenStoryboard: 1

[Editor]
DistanceSpacing: 1
BeatDivisor: 2
GridSize: 8
TimelineZoom: 1

[Metadata]
Title:Reviver
TitleUnicode:リバイバー
Artist:Chata
ArtistUnicode:茶太
Creator:DakeDekaane
Version:Hard
Source:太鼓の達人
Tags:Taiko no Tatsujin
BeatmapID:501754
BeatmapSetID:177490

[Difficulty]
HPDrainRate:6
CircleSize:4.8
OverallDifficulty:6
ApproachRate:7
SliderMultiplier:1.6
SliderTickRate:2

[Events]
//Background and Video events
0,0,"Chata - Reviver - Background.jpg",0,0
//Break Periods
//Storyboard Layer 0 (Background)
//Storyboard Layer 1 (Fail)
//Storyboard Layer 2 (Pass)
//Storyboard Layer 3 (Foreground)
//Storyboard Sound Samples

[TimingPoints]
946,379.746835443038,4,1,0,60,1,0
49553,-90.9090909090909,4,1,0,70,0,1
61705,-90.9090909090909,4,1,0,80,0,1
73857,-100,4,1,0,60,0,0
101199,-90.9090909090909,4,1,0,70,0,1
113351,-90.9090909090909,4,1,0,80,0,1
125502,-100,4,1,0,60,0,0
137654,-100,4,1,0,50,0,0
139173,-100,4,1,0,40,0,0
140692,-100,4,1,0,30,0,0

[Colours]
Combo1 : 255,48,0
Combo2 : 64,255,0
Combo3 : 0,128,255
Combo4 : 255,182,0

[HitObjects]
444,296,946,6,0,L|356:288,1,80,4|0,0:2|0:0,0:0:0:0:
285,304,1325,2,0,L|245:300,1,40,2|0,0:3|0:0,0:0:0:0:
165,291,1610,1,0,0:0:0:0:
165,291,1705,2,0,P|148:255|151:215,1,80,0|0,0:0|0:0,0:0:0:0:
177,140,2085,2,0,L|181:96,1,40,2|0,0:3|0:0,0:0:0:0:
259,85,2370,1,0,0:0:0:0:
259,85,2464,2,0,L|251:164,1,80,0|0,0:0|0:0,0:0:0:0:
273,240,2844,6,0,P|307:259|347:259,1,80,2|0,0:2|3:0,0:0:0:0:
328,181,3224,2,0,P|362:160|382:126,1,80,2|0,0:2|3:0,0:0:0:0:
305,102,3604,2,0,P|304:62|285:27,1,80,2|0,0:2|3:0,0:0:0:0:
227,83,3983,6,0,L|147:87,1,80,4|0,0:2|0:0,0:0:0:0:
126,164,4363,2,0,L|166:162,1,40,2|0,0:3|0:0,0:0:0:0:
195,236,4648,1,0,0:0:0:0:
195,236,4743,2,0,L|115:240,1,80,0|0,0:0|0:0,0:0:0:0:
95,318,5123,2,0,L|97:358,1,40,2|0,0:3|0:0,0:0:0:0:
175,339,5408,1,0,0:0:0:0:
175,339,5502,2,0,L|255:335,1,80,0|0,0:0|0:0,0:0:0:0:
311,278,5882,6,0,L|396:270,1,80,2|0,0:2|3:0,0:0:0:0:
351,200,6262,2,0,L|430:192,1,80,2|0,0:2|3:0,0:0:0:0:
391,122,6642,2,0,L|470:114,1,80,2|0,0:2|3:0,0:0:0:0:
510,36,7021,6,0,L|431:44,1,80,4|0,0:2|0:0,0:0:0:0:
350,51,7401,2,0,L|310:55,1,40,2|0,0:3|0:0,0:0:0:0:
235,24,7686,1,0,0:0:0:0:
234,24,7781,2,0,P|228:63|241:100,1,80,2|0,0:2|0:0,0:0:0:0:
314,135,8161,2,0,L|317:174,1,40,2|0,0:3|0:0,0:0:0:0:
289,250,8446,5,0,0:0:0:0:
289,250,8540,2,0,P|251:263|212:256,1,80,2|0,0:2|0:0,0:0:0:0:
161,194,8920,2,0,L|164:154,1,40,2|0,0:3|0:0,0:0:0:0:
208,86,9205,1,0,0:0:0:0:
208,86,9300,2,0,P|283:63|359:86,1,160,2|2,0:2|0:3,0:0:0:0:
392,244,10059,6,0,B|334:279|277:257|242:244|198:200|198:122|284:101|370:122|370:200|328:244|292:257|235:279|179:245,1,480,4|0,0:2|0:0,0:0:0:0:
170,165,11389,5,0,0:0:0:0:
170,165,11483,1,0,0:0:0:0:
170,165,11578,2,0,L|174:111,2,53.3333333333333,4|0|0,0:2|0:0|0:0,0:0:0:0:
118,179,11958,2,0,L|113:232,2,53.3333333333333,4|0|0,0:2|0:0|0:0,0:0:0:0:
68,157,12338,2,0,L|72:103,2,53.3333333333333,4|0|0,0:2|0:0|0:0,0:0:0:0:
16,171,12718,2,0,L|11:224,2,53.3333333333333,4|0|0,0:2|0:0|0:0,0:0:0:0:
46,41,13287,5,0,0:0:0:0:
123,59,13477,1,2,0:3:0:0:
201,41,13667,1,0,0:0:0:0:
201,41,13857,1,2,0:2:0:0:
278,59,14047,2,0,L|356:41,1,80,0|2,0:0|0:3,0:0:0:0:
434,23,14427,2,0,P|495:69|499:146,1,160,0|0,0:0|0:0,0:0:0:0:
442,204,14996,2,0,P|427:240|430:280,1,80,2|0,0:3|0:0,0:0:0:0:
506,254,15376,2,0,L|341:310,2,160,2|2|0,0:2|0:3|0:0,0:0:0:0:
508,173,16325,5,0,0:0:0:0:
510,92,16515,1,2,0:3:0:0:
440,52,16705,1,0,0:0:0:0:
440,52,16895,1,2,0:2:0:0:
363,76,17085,2,0,P|324:84|285:80,1,80,0|2,0:0|0:3,0:0:0:0:
210,48,17464,2,0,P|135:42|94:106,1,160,0|0,0:0|0:0,0:0:0:0:
96,186,18034,2,0,L|101:265,1,80,2|0,0:3|0:0,0:0:0:0:
174,230,18414,2,0,L|179:309,1,80,2|0,0:2|0:0,0:0:0:0:
252,274,18794,2,0,L|257:353,2,80,2|2|2,0:3|0:3|0:2,0:0:0:0:
246,194,19363,5,0,0:0:0:0:
179,149,19553,1,2,0:3:0:0:
107,185,19743,1,0,0:0:0:0:
107,185,19933,1,2,0:2:0:0:
102,264,20123,2,0,L|97:343,1,80,0|2,0:0|0:3,0:0:0:0:
176,353,20502,2,0,P|251:332|321:365,1,160,0|0,0:0|0:0,0:0:0:0:
402,370,21072,2,0,L|406:290,1,80,2|0,0:3|0:0,0:0:0:0:
411,208,21452,2,0,P|463:159|508:214,2,160,2|2|0,0:2|0:3|0:0,0:0:0:0:
407,290,22401,5,0,0:0:0:0:
331,315,22591,1,2,0:3:0:0:
264,271,22781,1,0,0:0:0:0:
264,271,22971,1,2,0:2:0:0:
269,189,23161,2,0,L|256:110,1,80,0|2,0:0|0:3,0:0:0:0:
269,30,23540,2,0,P|196:56|178:130,1,160,0|0,0:0|0:0,0:0:0:0:
192,209,24110,2,0,L|112:216,1,80,2|0,0:3|0:0,0:0:0:0:
106,296,24490,2,0,L|186:289,1,80,2|0,0:2|0:0,0:0:0:0:
264,271,24870,1,2,0:3:0:0:
344,278,25059,1,0,0:0:0:0:
344,278,25154,1,0,0:0:0:0:
344,278,25249,1,4,0:0:0:0:
422,260,25439,5,0,0:0:0:0:
475,200,25629,2,0,L|480:157,1,40,2|0,0:3|0:0,0:0:0:0:
403,186,25914,2,0,L|398:146,1,40,2|0,0:3|0:0,0:0:0:0:
365,73,26199,2,0,P|328:64|286:66,1,80,0|2,0:0|0:3,0:0:0:0:
214,101,26578,2,0,P|138:85|110:14,1,160,0|0,0:0|0:0,0:0:0:0:
191,23,27148,2,0,P|230:21|265:38,1,80,2|0,0:3|0:0,0:0:0:0:
291,114,27528,2,0,P|243:173|167:165,1,160,2|2,0:2|0:3,0:0:0:0:
214,101,28097,1,2,0:3:0:0:
214,101,28192,1,0,0:0:0:0:
214,101,28287,1,0,0:0:0:0:
291,114,28477,5,0,0:0:0:0:
323,187,28667,2,0,L|318:230,1,40,2|0,0:3|0:0,0:0:0:0:
398,226,28952,2,0,L|402:265,1,40,2|0,0:3|0:0,0:0:0:0:
483,265,29237,2,0,L|474:344,1,80,0|2,0:0|0:3,0:0:0:0:
394,345,29616,2,0,B|362:321|318:341|318:341|274:361|242:337,1,160,0|0,0:0|0:0,0:0:0:0:
206,264,30186,2,0,P|245:256|282:267,1,80,2|0,0:3|0:0,0:0:0:0:
361,252,30566,2,0,L|380:171,1,80,2|0,0:2|0:0,0:0:0:0:
361,95,30946,1,2,0:3:0:0:
292,53,31135,1,2,0:3:0:0:
292,53,31230,1,0,0:0:0:0:
292,53,31325,1,0,0:0:0:0:
218,85,31515,5,0,0:0:0:0:
146,49,31705,2,0,L|141:6,1,40,2|0,0:3|0:0,0:0:0:0:
68,43,31990,2,0,L|72:82,1,40,2|0,0:3|0:0,0:0:0:0:
54,159,32275,2,0,L|63:238,1,80,0|2,0:0|0:3,0:0:0:0:
74,318,32654,2,0,P|136:364|213:349,1,160,0|0,0:0|0:0,0:0:0:0:
270,293,33224,2,0,L|349:288,1,80,2|0,0:3|0:0,0:0:0:0:
380,214,33604,2,0,P|456:207|505:273,1,160,2|2,0:2|0:3,0:0:0:0:
425,283,34173,1,2,0:3:0:0:
429,287,34268,1,0,0:0:0:0:
433,291,34363,1,0,0:0:0:0:
353,302,34553,5,0,0:0:0:0:
274,315,34743,2,0,L|269:272,1,40,2|0,0:3|0:0,0:0:0:0:
189,287,35028,2,0,L|194:327,1,40,2|0,0:3|0:0,0:0:0:0:
114,339,35313,2,0,L|34:326,1,80,0|2,0:0|0:3,0:0:0:0:
60,250,35692,2,0,P|95:181|74:105,1,160
45,31,36262,2,0,L|124:18,1,80,2|0,0:3|0:0,0:0:0:0:
166,87,36642,1,4,0:3:0:0:
244,74,36832,1,4,0:3:0:0:
287,142,37021,2,0,L|366:129,1,80,4|4,0:3|0:3,0:0:0:0:
343,51,37401,6,0,P|441:101|399:201,2,240,4|0|0,0:0|0:0|0:0,0:0:0:0:
168,51,38920,6,0,P|70:101|112:201,2,240,4|0|0,0:0|0:0|0:0,0:0:0:0:
256,184,40439,6,0,B|276:224|256:260|256:260|236:296|254:337,1,160,4|0,0:0|0:0,0:0:0:0:
187,222,41199,5,2,0:2:0:0:
128,158,41389,1,0,0:0:0:0:
128,158,41578,1,2,0:3:0:0:
45,174,41768,2,0,P|63:100|135:73,1,160,2|0,0:2|0:0,0:0:0:0:
128,158,42338,2,0,L|116:237,1,80,2|0,0:2|0:0,0:0:0:0:
106,317,42718,1,2,0:2:0:0:
262,368,43097,1,2,0:3:0:0:
341,360,43287,1,0,0:0:0:0:
341,360,43382,1,0,0:0:0:0:
341,360,43477,1,4,0:2:0:0:
420,352,43667,5,0,0:0:0:0:
420,352,43857,2,0,L|424:272,1,80,2|0,0:2|0:0,0:0:0:0:
493,232,44237,2,0,L|497:152,1,80,2|0,0:2|0:0,0:0:0:0:
498,124,44521,2,0,P|425:63|340:103,1,200,0|2,0:0|0:2,0:0:0:0:
336,184,45186,5,0,0:0:0:0:
336,184,45376,2,0,L|256:180,1,80,2|0,0:2|0:0,0:0:0:0:
216,111,45756,2,0,L|136:107,1,80,2|0,0:2|0:0,0:0:0:0:
107,105,46040,2,0,P|61:140|47:198,1,120,0|2,0:0|0:2,0:0:0:0:
77,272,46515,5,4,0:2:0:0:
107,345,46705,1,2,0:2:0:0:
181,315,46895,1,4,0:2:0:0:
151,242,47085,1,2,0:2:0:0:
181,167,47275,2,0,L|201:89,1,80,4|2,0:2|0:2,0:0:0:0:
289,53,47654,2,0,L|269:131,1,80,4|2,0:2|0:2,0:0:0:0:
255,224,48034,5,4,0:0:0:0:
340,265,48224,1,2,0:2:0:0:
406,193,48414,1,4,0:0:0:0:
360,110,48604,1,2,0:2:0:0:
269,131,48794,1,4,0:0:0:0:
60,48,49553,6,0,B|36:132|36:132|44:180|44:180|36:224,1,176.000005371094,4|2,0:0|0:3,0:0:0:0:
125,225,50123,2,0,B|132:185|132:185|124:137|124:137|148:53,1,176.000005371094,0|0,0:0|0:0,0:0:0:0:
229,20,50692,1,2,0:3:0:0:
310,53,50882,1,0,0:0:0:0:
310,53,50977,1,0,0:0:0:0:
310,53,51072,1,0,0:0:0:0:
391,20,51262,1,0,0:0:0:0:
378,107,51452,6,0,B|415:129|415:129|460:129,1,88.000002685547,2|0,0:2|0:0,0:0:0:0:
397,192,51832,2,0,B|485:192,1,88.000002685547,2|0,0:2|0:0,0:0:0:0:
378,277,52211,2,0,B|415:255|415:255|460:255,1,88.000002685547,2|0,0:2|0:0,0:0:0:0:
319,331,52591,6,0,B|231:325|231:325|192:303|192:303|149:299,1,176.000005371094,4|2,0:2|0:3,0:0:0:0:
175,214,53161,2,0,B|218:218|218:218|257:240|257:240|345:246,1,176.000005371094,0|0,0:0|0:0,0:0:0:0:
403,311,53730,1,2,0:3:0:0:
483,273,53920,1,0,0:0:0:0:
483,273,54015,1,0,0:0:0:0:
483,273,54110,1,0,0:0:0:0:
474,186,54300,1,0,0:0:0:0:
387,167,54490,6,0,B|355:136|355:136|355:93,1,88.000002685547,2|0,0:2|0:0,0:0:0:0:
298,160,54870,2,0,B|255:173|255:173|214:160,1,88.000002685547,2|0,0:2|0:0,0:0:0:0:
157,93,55249,2,0,B|157:136|157:136|125:167,1,88.000002685547,2|0,0:2|0:0,0:0:0:0:
173,21,55629,6,0,B|256:47|256:47|298:32|298:32|340:47,1,176.000005371094,4|2,0:2|0:3,0:0:0:0:
340,135,56199,2,0,B|298:120|298:120|256:135|256:135|173:109,1,176.000005371094,0|0,0:0|0:0,0:0:0:0:
85,112,56768,1,2,0:3:0:0:
48,192,56958,1,0,0:0:0:0:
48,192,57053,1,0,0:0:0:0:
48,192,57148,1,0,0:0:0:0:
10,271,57338,1,0,0:0:0:0:
96,276,57528,6,0,B|140:276|140:276|164:312,1,88.000002685547,2|0,0:2|0:0,0:0:0:0:
215,239,57908,2,0,B|256:226|256:226|299:238,1,88.000002685547,2|0,0:2|0:0,0:0:0:0:
416,276,58287,2,0,B|371:276|371:276|341:322,1,88.000002685547,2|0,0:2|0:0,0:0:0:0:
500,293,58667,6,0,P|476:213|394:190,1,176.000005371094,4|2,0:2|0:3,0:0:0:0:
311,219,59237,2,0,P|229:196|205:115,1,176.000005371094,2|0,0:2|0:0,0:0:0:0:
290,133,59806,5,2,0:3:0:0:
290,133,60186,2,0,L|167:259,1,176.000005371094,4|2,0:2|0:3,0:0:0:0:
209,336,60756,1,0,0:0:0:0:
209,336,60946,2,0,L|300:240,1,132.00000402832,4|0,0:2|0:0,0:0:0:0:
323,220,61325,1,8,0:3:0:0:
323,220,61515,1,4,0:3:0:0:
387,159,61705,6,0,P|400:118|392:75,1,88.000002685547,4|0,0:2|0:0,0:0:0:0:
312,113,62085,1,2,0:3:0:0:
236,67,62275,1,2,0:2:0:0:
153,96,62464,1,0,0:0:0:0:
153,96,62559,1,0,0:0:0:0:
70,125,62749,1,0,0:0:0:0:
69,124,62844,2,0,P|65:80|83:40,1,88.000002685547,2|0,0:3|0:0,0:0:0:0:
153,96,63224,5,0,0:0:0:0:
135,182,63414,1,2,0:2:0:0:
135,182,63509,1,2,0:3:0:0:
135,182,63604,2,0,P|138:225|120:265,1,88.000002685547,0|2,0:0|0:3,0:0:0:0:
33,252,63983,2,0,L|51:211,1,44.0000013427735,2|2,0:2|0:3,0:0:0:0:
135,182,64268,1,0,0:1:0:0:
135,182,64363,2,0,L|222:187,1,88.000002685547,2|0,0:3|0:0,0:0:0:0:
196,271,64743,6,0,L|283:276,1,88.000002685547,4|0,0:2|0:0,0:0:0:0:
337,346,65123,1,2,0:3:0:0:
424,339,65313,1,2,0:2:0:0:
453,256,65502,1,0,0:0:0:0:
453,256,65597,1,0,0:0:0:0:
393,190,65787,1,0,0:0:0:0:
393,190,65882,2,0,L|404:102,1,88.000002685547,2|0,0:3|0:0,0:0:0:0:
336,46,66262,5,0,0:0:0:0:
256,83,66452,1,2,0:2:0:0:
256,83,66547,1,2,0:3:0:0:
256,83,66642,2,0,L|168:80,1,88.000002685547,0|2,0:0|0:3,0:0:0:0:
133,161,67021,2,0,L|176:162,1,44.0000013427735,2|0,0:2|0:0,0:0:0:0:
208,244,67306,1,0,0:0:0:0:
208,244,67401,2,0,L|120:241,1,88.000002685547,2|0,0:3|0:0,0:0:0:0:
30,238,67781,6,0,P|15:278|18:322,1,88.000002685547,4|0,0:2|0:0,0:0:0:0:
98,360,68161,1,2,0:3:0:0:
184,341,68351,1,2,0:2:0:0:
269,360,68540,1,0,0:0:0:0:
269,360,68635,1,0,0:0:0:0:
355,341,68825,1,0,0:0:0:0:
355,341,68920,2,0,L|440:360,1,88.000002685547,2|0,0:3|0:0,0:0:0:0:
500,294,69300,5,0,0:0:0:0:
481,207,69490,1,2,0:2:0:0:
478,118,69680,2,0,P|402:81|330:126,2,176.000005371094,2|2|2,0:3|0:2|0:3,0:0:0:0:
483,212,70629,1,0,0:0:0:0:
483,212,70819,2,0,P|411:257|335:220,1,176.000005371094,4|2,0:2|0:3,0:0:0:0:
258,178,71389,1,0,0:0:0:0:
176,144,71578,6,0,P|100:107|28:152,1,176.000005371094,2|2,0:2|0:3,0:0:0:0:
28,240,72148,1,0,0:0:0:0:
28,240,72338,2,0,L|44:372,2,132.00000402832,4|4|4,0:3|0:3|0:3,0:0:0:0:
38,134,73097,5,4,0:2:0:0:
143,144,73287,1,2,0:2:0:0:
133,249,73477,1,4,0:2:0:0:
28,240,73667,1,2,0:2:0:0:
256,192,73857,12,0,76515,1:0:0:0:
464,248,76895,5,2,0:2:0:0:
384,256,77085,1,0,0:0:0:0:
304,248,77275,1,0,0:0:0:0:
224,256,77465,2,0,P|189:197|256:184,1,160,2|2,0:2|0:2,0:0:0:0:
304,248,78034,1,2,0:2:0:0:
270,320,78224,2,0,P|157:303|115:197,1,240,0|0,0:0|0:0,0:0:0:0:
168,48,79173,1,4,0:3:0:0:
168,48,79363,1,0,0:0:0:0:
408,68,79933,6,0,B|428:124|428:124|417:183,2,120,2|2|0,0:2|0:2|0:0,0:0:0:0:
328,74,80692,2,0,B|348:130|348:130|337:189,2,120,2|2|0,0:2|0:2|0:0,0:0:0:0:
248,80,81452,2,0,B|268:136|268:136|257:195,2,120,2|2|2,0:2|0:2|0:3,0:0:0:0:
176,44,82211,1,2,0:3:0:0:
176,44,82401,1,2,0:3:0:0:
98,65,82591,1,2,0:3:0:0:
98,65,82781,1,2,0:3:0:0:
87,144,82971,2,0,L|84:224,2,80,2|2|8,0:3|0:3|0:3,0:0:0:0:
165,129,83540,5,0,0:0:0:0:
165,129,83635,1,0,0:0:0:0:
165,129,83730,2,0,L|160:249,2,120,2|2|0,0:2|0:2|0:0,0:0:0:0:
172,48,84490,2,0,B|204:16|280:20|316:64|316:64|352:108|424:112|460:80,1,320,4|2,0:3|0:3,0:0:0:0:
233,134,85629,5,2,0:2:0:0:
233,147,85724,1,0,0:0:0:0:
227,159,85819,1,2,0:2:0:0:
220,171,85914,1,0,0:0:0:0:
210,181,86009,2,0,P|268:303|359:203,1,320,6|2,0:2|0:3,0:0:0:0:
371,122,86958,2,0,P|298:148|280:222,1,160,2|2,0:2|0:2,0:0:0:0:
359,203,87528,2,0,P|416:190|450:142,2,120,2|2|0,0:2|0:2|0:0,0:0:0:0:
281,183,88287,2,0,P|223:195|190:243,2,120,2|2|0,0:2|0:2|0:0,0:0:0:0:
268,262,89047,5,2,0:2:0:0:
276,270,89142,1,0,0:0:0:0:
284,278,89237,2,0,L|280:357,1,80,2|2,0:2|0:3,0:0:0:0:
200,356,89616,1,0,0:0:0:0:
192,364,89711,1,2,0:2:0:0:
184,372,89806,2,0,L|104:368,1,80,2|0,0:2|0:0,0:0:0:0:
106,287,90186,1,0,0:0:0:0:
98,279,90281,1,2,0:2:0:0:
90,271,90376,2,0,L|93:191,1,80,2|0,0:2|0:0,0:0:0:0:
132,120,90756,5,0,0:0:0:0:
136,108,90851,1,2,0:2:0:0:
140,96,90946,1,0,0:0:0:0:
217,115,91135,1,2,0:2:0:0:
221,103,91230,1,0,0:0:0:0:
225,91,91325,1,2,0:2:0:0:
302,110,91515,1,0,0:0:0:0:
306,98,91610,1,0,0:0:0:0:
310,86,91705,1,2,0:2:0:0:
387,105,91895,1,0,0:0:0:0:
466,100,92085,6,0,P|443:46|389:23,2,120,6|2|2,0:2|0:2|0:2,0:0:0:0:
461,180,92844,1,2,0:2:0:0:
412,244,93034,1,0,0:0:0:0:
409,255,93129,1,0,0:0:0:0:
406,266,93224,1,2,0:2:0:0:
403,277,93319,1,0,0:0:0:0:
400,288,93414,1,0,0:0:0:0:
346,347,93604,6,0,P|400:368|454:346,2,120,2|2|2,0:2|0:2|0:2,0:0:0:0:
308,276,94363,1,2,0:2:0:0:
320,196,94553,1,0,0:0:0:0:
317,185,94648,1,0,0:0:0:0:
314,174,94743,1,2,0:2:0:0:
311,163,94838,1,0,0:0:0:0:
308,152,94933,1,0,0:0:0:0:
284,76,95123,6,0,B|240:24|176:40|176:40|144:96|72:84,2,240,6|0|2,0:2|0:0|0:2,0:0:0:0:
359,216,96642,6,0,L|368:296,1,80,4|2,0:2|0:3,0:0:0:0:
289,280,97021,2,0,L|298:360,1,80,2|2,0:3|0:3,0:0:0:0:
217,360,97401,2,0,L|137:369,1,80,4|2,0:2|0:3,0:0:0:0:
153,290,97781,2,0,L|73:299,1,80,2|2,0:3|0:3,0:0:0:0:
73,218,98161,6,0,L|64:138,1,80,4|2,0:2|0:3,0:0:0:0:
143,154,98540,2,0,L|134:74,1,80,2|2,0:3|0:3,0:0:0:0:
215,74,98920,2,0,L|295:65,1,80,4|2,0:2|0:3,0:0:0:0:
279,144,99300,2,0,L|359:135,1,80,2|2,0:3|0:3,0:0:0:0:
359,216,99680,5,4,0:2:0:0:
360,227,99774,1,2,0:3:0:0:
361,239,99869,1,2,0:3:0:0:
363,251,99964,1,2,0:3:0:0:
364,263,100059,2,0,L|361:303,4,40,4|2|2|2|4,0:2|0:3|0:3|0:3|0:2,0:0:0:0:
200,48,101199,6,0,B|116:24|116:24|68:32|68:32|24:24,1,176.000005371094,4|2,0:0|0:3,0:0:0:0:
23,113,101769,2,0,B|63:120|63:120|111:112|111:112|195:136,1,176.000005371094,0|0,0:0|0:0,0:0:0:0:
273,96,102338,1,2,0:3:0:0:
351,56,102528,1,0,0:0:0:0:
351,56,102623,1,0,0:0:0:0:
351,56,102718,1,0,0:0:0:0:
391,134,102908,1,0,0:0:0:0:
391,134,103097,6,0,B|378:175|378:175|335:187,1,88.000002685547,2|0,0:2|0:0,0:0:0:0:
358,272,103477,2,0,B|400:261|400:261|430:292,1,88.000002685547,2|0,0:2|0:0,0:0:0:0:
494,230,103857,2,0,B|462:198|462:198|474:155,1,88.000002685547,2|0,0:2|0:0,0:0:0:0:
500,72,104237,6,0,B|416:44|416:44|372:48|372:48|330:36,1,176.000005371094,4|2,0:0|0:3,0:0:0:0:
319,123,104806,2,0,B|361:135|361:135|405:131|405:131|489:159,1,176.000005371094,0|0,0:0|0:0,0:0:0:0:
500,246,105376,1,2,0:3:0:0:
428,297,105566,1,0,0:0:0:0:
428,297,105661,1,0,0:0:0:0:
428,297,105756,1,0,0:0:0:0:
352,251,105946,1,0,0:0:0:0:
352,251,106135,6,0,B|311:238|311:238|299:195,1,88.000002685547,2|0,0:2|0:0,0:0:0:0:
213,217,106515,2,0,B|224:259|224:259|193:289,1,88.000002685547,2|0,0:2|0:0,0:0:0:0:
256,354,106895,2,0,B|288:322|288:322|331:334,1,88.000002685547,2|0,0:2|0:0,0:0:0:0:
415,352,107275,6,0,P|492:324|484:243,1,176.000005371094,4|2,0:2|0:3,0:0:0:0:
411,192,107845,1,0,0:0:0:0:
484,140,108034,2,0,P|492:59|415:31,1,176.000005371094,2|2,0:2|0:3,0:0:0:0:
326,40,108604,1,0,0:0:0:0:
238,48,108794,6,0,L|62:56,1,176.000005371094,6|2,0:2|0:3,0:0:0:0:
20,133,109363,1,0,0:0:0:0:
63,209,109553,2,0,L|239:201,1,176.000005371094,4|2,0:2|0:3,0:0:0:0:
323,225,110123,1,0,0:0:0:0:
302,139,110313,6,0,P|383:160|409:240,1,176.000005371094,6|2,0:2|0:3,0:0:0:0:
344,311,110882,2,0,P|262:289|236:209,1,176.000005371094,2|0,0:2|0:0,0:0:0:0:
256,124,111452,5,2,0:3:0:0:
192,63,111642,1,0,0:0:0:0:
192,63,111737,1,0,0:0:0:0:
192,63,111832,2,0,L|132:52,2,58.6666684570313,4|0|0,0:2|0:0|0:0,0:0:0:0:
162,119,112211,2,0,L|104:108,2,58.6666684570313,4|0|0,0:2|0:0|0:0,0:0:0:0:
180,180,112591,2,0,L|237:190,2,58.6666684570313,4|0|0,0:2|0:0|0:0,0:0:0:0:
150,237,112971,2,0,L|207:247,2,58.6666684570313,4|0|0,0:2|0:0|0:0,0:0:0:0:
122,289,113351,6,0,L|35:273,1,88.000002685547,4|0,0:2|0:0,0:0:0:0:
8,189,113731,1,2,0:3:0:0:
45,109,113920,1,2,0:2:0:0:
58,108,114015,1,0,0:0:0:0:
71,107,114110,1,0,0:0:0:0:
140,53,114300,1,0,0:0:0:0:
212,103,114490,2,0,L|300:103,1,88.000002685547,2|0,0:3|0:0,0:0:0:0:
372,53,114870,5,0,0:0:0:0:
441,107,115059,1,2,0:2:0:0:
454,108,115154,1,0,0:0:0:0:
467,109,115249,1,2,0:3:0:0:
504,189,115438,1,0,0:0:0:0:
476,273,115629,2,0,L|390:289,1,88.000002685547,2|0,0:3|0:1,0:0:0:0:
446,357,116009,2,0,L|359:372,1,88.000002685547,2|0,0:3|0:0,0:0:0:0:
301,303,116389,6,0,P|303:260|327:223,1,88.000002685547,4|0,0:2|0:0,0:0:0:0:
409,192,116768,1,2,0:3:0:0:
437,108,116958,1,2,0:2:0:0:
435,95,117053,1,0,0:0:0:0:
433,82,117148,1,0,0:0:0:0:
365,24,117338,1,0,0:0:0:0:
299,82,117528,2,0,B|256:92|256:92|213:83,1,88.000002685547,2|0,0:3|0:0,0:0:0:0:
147,24,117908,5,0,0:0:0:0:
79,82,118098,1,2,0:2:0:0:
77,95,118193,1,0,0:0:0:0:
75,108,118288,1,0,0:0:0:0:
103,192,118477,1,0,0:0:0:0:
185,223,118667,2,0,P|208:259|210:303,1,88.000002685547,2|0,0:2|0:0,0:0:0:0:
122,288,119047,2,0,P|102:326|65:349,1,88.000002685547,2|0,0:3|0:0,0:0:0:0:
37,264,119427,6,0,P|57:226|94:203,1,88.000002685547,4|0,0:2|0:0,0:0:0:0:
180,222,119806,1,2,0:3:0:0:
265,241,119996,1,2,0:2:0:0:
278,239,120091,1,0,0:0:0:0:
291,237,120186,1,0,0:0:0:0:
377,223,120376,1,0,0:0:0:0:
463,208,120566,2,0,P|448:168|453:124,1,88.000002685547,2|0,0:3|0:0,0:0:0:0:
469,37,120946,5,0,0:0:0:0:
382,22,121136,1,2,0:2:0:0:
367,108,121326,2,0,P|291:145|219:100,2,176.000005371094,2|2|2,0:3|0:2|0:3,0:0:0:0:
296,55,122275,1,0,0:0:0:0:
296,55,122464,2,0,L|285:230,1,176.000005371094,4|2,0:2|0:3,0:0:0:0:
222,293,123035,1,0,0:0:0:0:
141,257,123224,6,0,L|151:81,1,176.000005371094,2|2,0:2|0:3,0:0:0:0:
64,97,123794,1,0,0:0:0:0:
64,97,123983,2,0,L|56:228,2,132.00000402832,4|4|4,0:3|0:3|0:3,0:0:0:0:
94,13,124743,5,4,0:2:0:0:
176,43,124933,1,2,0:2:0:0:
146,127,125123,1,4,0:2:0:0:
64,97,125313,1,2,0:2:0:0:
256,192,125503,12,0,128161,1:0:0:0:
336,104,128540,6,0,L|333:183,1,80,4|0,0:2|0:0,0:0:0:0:
261,147,128920,2,0,L|263:67,1,80,2|0,0:3|0:0,0:0:0:0:
331,21,129300,2,0,P|401:53|413:129,1,160,2|2,0:2|0:3,0:0:0:0:
344,272,130059,6,0,L|265:269,1,80,4|0,0:2|0:0,0:0:0:0:
301,197,130439,2,0,L|381:199,1,80,2|0,0:3|0:0,0:0:0:0:
426,267,130819,2,0,P|394:337|318:349,1,160,2|2,0:2|0:3,0:0:0:0:
176,280,131578,6,0,L|179:201,1,80,4|0,0:2|0:0,0:0:0:0:
251,237,131958,2,0,L|249:317,1,80,2|0,0:3|0:0,0:0:0:0:
180,362,132338,2,0,P|110:330|98:254,1,160,2|2,0:2|0:3,0:0:0:0:
168,112,133097,6,0,L|247:115,1,80,4|0,0:2|0:0,0:0:0:0:
211,187,133477,2,0,L|131:185,1,80,2|0,0:3|0:0,0:0:0:0:
85,116,133857,2,0,P|117:46|193:34,1,160,2|2,0:2|0:3,0:0:0:0:
263,73,134427,5,0,0:0:0:0:
263,73,134521,1,0,0:0:0:0:
263,73,134616,2,0,L|258:153,1,80,4|0,0:2|0:0,0:0:0:0:
283,229,134996,1,2,0:3:0:0:
257,311,135186,1,0,0:0:0:0:
195,361,135376,6,0,P|179:305|202:251,2,120,4|4|4,0:2|0:2|0:2,0:0:0:0:
256,192,136135,12,0,140692,3:0:0:0:
