osu file format v14

[General]
AudioFilename: Chata - Reviver.mp3
AudioLeadIn: 1054
PreviewTime: 49078
Countdown: 0
SampleSet: Normal
StackLeniency: 0.7
Mode: 0
LetterboxInBreaks: 0
WidescreenStoryboard: 1

[Editor]
DistanceSpacing: 1
BeatDivisor: 2
GridSize: 4
TimelineZoom: 1

[Metadata]
Title:Reviver
TitleUnicode:リバイバー
Artist:Chata
ArtistUnicode:茶太
Creator:DakeDekaane
Version:Beginner
Source:太鼓の達人
Tags:Taiko no Tatsujin
BeatmapID:430703
BeatmapSetID:177490

[Difficulty]
HPDrainRate:1
CircleSize:2.8
OverallDifficulty:1
ApproachRate:3
SliderMultiplier:0.8
SliderTickRate:2

[Events]
//Background and Video events
0,0,"Chata - Reviver - Background.jpg",0,0
//Break Periods
//Storyboard Layer 0 (Background)
//Storyboard Layer 1 (Fail)
//Storyboard Layer 2 (Pass)
//Storyboard Layer 3 (Foreground)
//Storyboard Sound Samples

[TimingPoints]
946,379.746835443038,4,1,0,60,1,0
49553,-90.9090909090909,4,1,0,70,0,1
61705,-90.9090909090909,4,1,0,80,0,1
73857,-100,4,1,0,60,0,0
101199,-90.9090909090909,4,1,0,70,0,1
113351,-90.9090909090909,4,1,0,80,0,1
125502,-100,4,1,0,60,0,0
137654,-100,4,1,0,50,0,0
139173,-100,4,1,0,40,0,0
140692,-100,4,1,0,30,0,0

[Colours]
Combo1 : 255,48,0
Combo2 : 64,255,0
Combo3 : 0,128,255
Combo4 : 255,182,0

[HitObjects]
414,91,946,6,0,P|455:228|316:260,1,320,4|0,0:2|0:0,0:0:0:0:
256,112,3224,1,2,0:2:0:0:
97,91,3983,6,0,P|56:228|196:260,1,320,4|0,0:2|0:0,0:0:0:0:
256,112,6262,1,2,0:2:0:0:
392,192,7021,6,0,B|372:236|328:228|328:228|284:220|256:252|256:252|228:220|184:228|184:228|140:236|120:192,2,320,4|2|4,0:2|0:2|0:2,0:0:0:0:
256,8,11578,5,4,0:2:0:0:
199,64,11958,1,4,0:2:0:0:
256,121,12338,1,4,0:2:0:0:
312,64,12718,1,4,0:2:0:0:
444,152,13477,5,2,0:3:0:0:
444,232,13857,1,2,0:2:0:0:
288,268,14616,2,0,B|268:228|288:192|288:192|308:156|288:112,1,160,2|2,0:2|0:2,0:0:0:0:
68,152,16515,5,2,0:3:0:0:
68,232,16895,1,2,0:2:0:0:
224,268,17654,2,0,B|244:228|224:192|224:192|204:156|224:112,1,160,2|2,0:2|0:2,0:0:0:0:
256,40,18794,1,2,0:3:0:0:
412,80,19553,5,2,0:3:0:0:
444,152,19933,1,2,0:2:0:0:
383,300,20692,2,0,P|308:312|255:255,1,160,2|2,0:2|0:2,0:0:0:0:
100,80,22591,5,2,0:3:0:0:
68,152,22971,1,2,0:2:0:0:
128,300,23730,2,0,P|203:312|256:255,1,160,2|2,0:2|0:2,0:0:0:0:
256,176,24870,1,2,0:3:0:0:
120,92,25629,5,2,0:3:0:0:
180,40,26009,2,0,B|256:16|256:16|332:40,1,160,2|2,0:2|0:2,0:0:0:0:
340,200,27528,1,2,0:2:0:0:
120,292,28667,5,2,0:3:0:0:
180,344,29047,2,0,B|256:368|256:368|332:344,1,160,2|2,0:2|0:2,0:0:0:0:
340,184,30566,1,2,0:2:0:0:
344,104,30946,1,2,0:3:0:0:
196,40,31705,5,2,0:3:0:0:
232,112,32085,2,0,B|196:132|156:112|156:112|116:92|79:112,1,160,2|2,0:2|0:2,0:0:0:0:
88,272,33604,1,2,0:2:0:0:
316,344,34743,5,2,0:3:0:0:
280,272,35123,2,0,B|316:252|356:272|356:272|396:292|432:271,1,160,2|2,0:2|0:2,0:0:0:0:
424,112,36642,1,4,0:3:0:0:
396,36,37021,1,4,0:3:0:0:
316,20,37401,6,0,P|200:52|212:152,1,240,4|0,0:0|0:0,0:0:0:0:
211,233,38920,2,0,P|207:343|316:364,1,240,4|0,0:0|0:0,0:0:0:0:
396,348,40439,1,4,0:0:0:0:
436,192,41199,5,2,0:2:0:0:
396,36,41958,1,0,0:0:0:0:
336,88,42338,1,2,0:2:0:0:
256,88,42718,1,2,0:2:0:0:
96,112,43477,6,0,B|56:112|56:112|20:96,2,80,4|2|2,0:2|0:2|0:2,0:0:0:0:
96,272,44996,2,0,B|56:272|56:272|20:288,2,80,2|2|2,0:2|0:2|0:2,0:0:0:0:
256,272,46515,6,0,P|322:309|389:272,1,160,4|4,0:2|0:2,0:0:0:0:
389,111,48034,1,4,0:0:0:0:
322,66,48414,1,4,0:0:0:0:
255,112,48794,1,4,0:0:0:0:
340,324,49553,5,4,0:0:0:0:
447,252,50123,2,0,P|392:90|256:192,1,396.000012084961,0|2,0:0|0:2,0:0:0:0:
172,324,52591,5,4,0:2:0:0:
65,252,53161,2,0,P|120:90|256:192,1,396.000012084961,0|2,0:0|0:2,0:0:0:0:
256,368,55629,5,4,0:2:0:0:
356,280,56199,2,0,P|256:142|156:280,1,396.000012084961,0|2,0:0|0:2,0:0:0:0:
108,352,58287,5,2,0:2:0:0:
68,276,58667,2,0,P|75:190|120:115,1,176.000005371094,4|0,0:2|0:0,0:0:0:0:
288,60,60186,1,4,0:2:0:0:
512,200,61325,5,0,0:0:0:0:
492,284,61705,1,4,0:2:0:0:
360,268,62275,2,0,B|280:196|180:268|180:268|80:340|0:268,1,396.000012084961,2|2,0:2|0:2,0:0:0:0:
20,100,64743,5,4,0:2:0:0:
152,116,65313,2,0,B|232:188|332:116|332:116|432:44|512:116,1,396.000012084961,2|2,0:2|0:2,0:0:0:0:
500,204,67401,5,2,0:3:0:0:
488,292,67781,2,0,L|312:296,1,176.000005371094,4|0,0:2|0:0,0:0:0:0:
48,312,69680,5,2,0:3:0:0:
8,232,70059,1,2,0:2:0:0:
48,156,70439,1,2,0:3:0:0:
8,80,70819,2,0,B|48:60|92:80|92:80|136:100|178:80,2,176.000005371094,4|2|0,0:2|0:2|0:0,0:0:0:0:
48,252,73097,1,4,0:2:0:0:
132,272,73477,1,4,0:2:0:0:
256,192,73857,12,0,76895,0:0:0:0:
408,272,79933,21,2,0:2:0:0:
448,116,80692,1,2,0:2:0:0:
292,76,81452,1,2,0:2:0:0:
256,232,82211,1,2,0:3:0:0:
180,252,82591,1,2,0:3:0:0:
104,272,82971,5,2,0:3:0:0:
64,116,83730,2,0,L|56:36,2,80,2|0|4,0:2|0:0|0:3,0:0:0:0:
256,259,85629,5,0,0:0:0:0:
322,302,86009,2,0,P|255:339|188:302,1,160,6|0,0:2|0:0,0:0:0:0:
120,156,87528,1,2,0:2:0:0:
256,68,88287,1,2,0:2:0:0:
392,156,89047,6,0,B|444:216|444:216|444:296,1,160,2|2,0:2|0:2,0:0:0:0:
308,380,90566,2,0,B|256:320|256:320|256:240,1,160,2|2,0:2|0:2,0:0:0:0:
256,80,92085,5,6,0:2:0:0:
176,68,92464,1,0,0:0:0:0:
116,120,92844,1,2,0:2:0:0:
116,264,93604,1,6,0:2:0:0:
176,316,93983,1,0,0:0:0:0:
256,304,94363,1,2,0:2:0:0:
408,255,95123,6,0,P|448:191|407:127,1,160,6|0,0:2|0:0,0:0:0:0:
248,152,96642,2,0,B|168:152|168:152|104:104|104:104|40:152|40:152|40:232|40:232|104:280|104:280|168:232|168:232|248:232,1,560,4|2,0:2|0:3,0:0:0:0:
320,192,99680,5,4,0:2:0:0:
372,132,100059,1,4,0:2:0:0:
340,60,100439,1,4,0:2:0:0:
172,60,101199,5,4,0:0:0:0:
65,132,101768,2,0,P|120:294|256:192,1,396.000012084961,0|2,0:0|0:2,0:0:0:0:
340,60,104237,5,4,0:0:0:0:
447,132,104806,2,0,P|392:294|256:192,1,396.000012084961,0|2,0:0|0:2,0:0:0:0:
256,16,107275,5,6,0:2:0:0:
156,104,107844,2,0,P|256:242|356:104,1,396.000012084961,0|2,0:0|0:2,0:0:0:0:
404,32,109933,5,0,0:0:0:0:
444,108,110313,2,0,P|437:194|392:269,1,176.000005371094,6|0,0:2|0:0,0:0:0:0:
224,324,111832,1,4,0:2:0:0:
0,184,112971,5,4,0:2:0:0:
20,100,113351,1,4,0:2:0:0:
152,116,113920,2,0,B|232:188|332:116|332:116|432:44|512:116,1,396.000012084961,2|2,0:2|0:3,0:0:0:0:
492,284,116389,5,4,0:2:0:0:
360,268,116958,2,0,B|280:196|180:268|180:268|80:340|0:268,1,396.000012084961,2|2,0:2|0:2,0:0:0:0:
12,180,119047,5,2,0:3:0:0:
24,92,119427,2,0,L|200:88,1,176.000005371094,4|0,0:2|0:0,0:0:0:0:
464,72,121325,5,2,0:3:0:0:
504,152,121705,1,2,0:2:0:0:
464,228,122085,1,2,0:3:0:0:
504,304,122464,2,0,B|464:324|420:304|420:304|376:284|333:304,2,176.000005371094,4|2|0,0:2|0:2|0:0,0:0:0:0:
464,132,124743,1,4,0:2:0:0:
380,112,125123,1,4,0:2:0:0:
256,192,125502,12,4,128540,0:2:0:0:
420,288,130059,5,2,0:2:0:0:
352,28,131578,1,4,0:2:0:0:
92,96,133097,1,2,0:2:0:0:
160,356,134616,1,4,0:2:0:0:
276,248,135376,6,0,B|298:192|298:192|276:136,1,120,4|4,0:2|0:2,0:0:0:0:
256,192,136135,12,0,140692,3:0:0:0:
