osu file format v9

[General]
AudioFilename: Remind_0.mp3
AudioLeadIn: 2000
PreviewTime: 229552
Countdown: 0
SampleSet: Soft
StackLeniency: 0.3
Mode: 0
LetterboxInBreaks: 0

[Editor]
DistanceSpacing: 1
BeatDivisor: 4
GridSize: 4

[Metadata]
Title:Remind
Artist:Chata
Creator:Patchouli
Version:Overdrive!!
Source:Touhou
Tags:Yuyuko Saigyouji Shinreibyou Ten Desires Night Sakura of Dead Spirits

[Difficulty]
HPDrainRate:6
CircleSize:4
OverallDifficulty:8
ApproachRate:9
SliderMultiplier:1.8
SliderTickRate:2

[Events]
//Background and Video events
0,0,"Yuyuko.jpg"
//Break Periods
2,158975,170619
//Storyboard Layer 0 (Background)
Sprite,Background,Centre,"SB\SB1.jpg",320,240 M,0,16552,,320,240 S,0,16552,,0.8 F,0,16552,44997,0.8
Sprite,Background,Centre,"SB\SB1.jpg",320,240 M,0,87664,,320,240 S,0,87664,,0.8 F,0,87664,101886,0.8
Sprite,Background,Centre,"SB\SB1.jpg",320,240 M,0,229886,,320,240 S,0,229886,,0.8 F,0,229886,258330,0.8
Sprite,Background,Centre,"SB\SB2.jpg",320,240 F,2,285886,290775,0,1 S,0,285886,290775,0.8 F,1,290775,291664,1,0 S,1,290775,291664,0.8,0.85
//Storyboard Layer 1 (Fail)
//Storyboard Layer 2 (Pass)
//Storyboard Layer 3 (Foreground)
Sprite,Foreground,Centre,"SB\SB1.jpg",320,240 L,73441,4 F,0,0,889,0,0.7 S,0,0,889,0.8 F,0,889,1778,0.7,0 S,1,889,1778,0.8,0.86 L,101886,16 F,0,0,889,0,0.7 S,0,0,889,0.8 F,0,889,1778,0.7,0 S,1,889,1778,0.8,0.86 L,158775,8 F,0,0,889,0,0.7 S,0,0,889,0.8 F,0,889,1778,0.7,0 S,1,889,1778,0.8,0.86 L,215664,4 F,0,0,889,0,0.7 S,0,0,889,0.8 F,0,889,1778,0.7,0 S,1,889,1778,0.8,0.86 L,258330,16 F,0,0,889,0,0.7 S,0,0,889,0.8 F,0,889,1778,0.7,0 S,1,889,1778,0.8,0.86 M,0,73441,,320,240 S,0,73441,,0.8
Sprite,Foreground,Centre,"SB\White.jpg",320,240 M,0,553,,320,240 S,0,553,,1.0896 F,0,553,1441,0.4272,0
Sprite,Foreground,Centre,"SB\White.jpg",320,240 S,0,2330,,1.1216 F,0,2330,2775,0.232,0
Sprite,Foreground,Centre,"SB\White Effect02.png",320,240 L,2330,80 F,0,0,444,0.7,0 F,0,444,889,0.7,0 L,80552,24 F,0,0,444,0.7,0 F,0,444,889,0.7,0 L,130330,32 F,0,0,444,0.7,0 F,0,444,889,0.7,0 L,172997,48 F,0,0,444,0.7,0 F,0,444,889,0.7,0 L,229886,32 F,0,0,444,0.7,0 F,0,444,889,0.7,0 L,290775,32 F,0,0,444,0.7,0 F,0,444,889,0.7,0 M,0,2330,,320,227 S,0,2330,,1.1408
Sprite,Foreground,Centre,"SB\White.jpg",320,240 L,16552,32 F,0,0,444,0.1,0 F,0,444,889,0.1,0 L,87664,16 F,0,0,444,0.1,0 F,0,444,889,0.1,0 L,229886,32 F,0,0,444,0.1,0 F,0,444,889,0.1,0 S,0,16552,,1.1408
Sprite,Foreground,Centre,"SB\White.jpg",320,240 S,0,44997,,1.1664 F,0,44997,45886,0.2512001,0
Sprite,Foreground,Centre,"SB\White.jpg",320,240 M,0,101886,,320,240 S,0,101886,,1.1728 F,0,101886,102775,0.3248001,0
Sprite,Foreground,Centre,"SB\White.jpg",320,240 S,0,258330,,1.16 F,0,258330,259219,0.3471999,0
Sprite,Foreground,Centre,"SB\White.jpg",320,240 M,0,290775,,320,240 S,0,290775,,1.2112 F,0,290775,291664,0.3328001,0
Sprite,Foreground,Centre,"SB\epilepsy.png",320,240 S,0,-2002,,0.6736 F,0,-2002,-1613,0,1 F,0,-1613,-558,1 F,0,-558,-2,1,0
//Storyboard Sound Samples
//Background Colour Transformations
3,100,163,162,255

[TimingPoints]
553,222.222222222222,4,2,1,80,1,0
13608,-100,4,2,2,80,0,0
13719,-100,4,2,1,80,0,0
16553,-100,4,2,1,80,0,1
20608,-100,4,1,2,80,0,1
20719,-100,4,2,1,80,0,1
38386,-100,4,1,2,80,0,1
38497,-100,4,2,1,80,0,1
44997,-100,4,2,1,80,0,0
49497,-100,4,1,2,80,0,0
49608,-100,4,2,1,80,0,0
59164,-100,4,2,0,80,0,0
59275,-100,4,2,1,80,0,0
73386,-200,4,2,0,80,0,0
73497,-200,4,2,1,80,0,0
79608,-100,4,2,1,80,0,0
83164,-100,4,1,2,80,0,0
83275,-100,4,2,1,80,0,0
87664,-100,4,2,1,80,0,1
88164,-100,4,1,2,80,0,1
88275,-100,4,2,1,80,0,1
101886,-200,4,2,0,80,0,0
101941,-200,4,2,1,80,0,0
130275,-100,4,2,1,80,0,0
144497,-100,4,2,0,80,0,0
144608,-100,4,2,1,80,0,0
187164,-100,4,2,0,80,0,0
187275,-100,4,2,1,80,0,0
201386,-100,4,2,0,80,0,0
201497,-100,4,2,1,80,0,0
215608,-200,4,2,0,80,0,0
215719,-200,4,2,1,80,0,0
222552,-100,4,2,1,80,0,0
227719,-100,4,1,2,80,0,0
227830,-100,4,2,1,80,0,0
228941,-100,4,1,2,80,0,0
229052,-100,4,2,1,80,0,0
229886,-100,4,2,1,80,0,1
258330,-200,4,2,0,80,0,0
258386,-200,4,2,1,80,0,0
289386,-200,4,2,1,5,0,0
290775,222.222222222222,4,2,1,80,1,0
315941,-100,4,2,1,60,0,0
316164,-100,4,2,1,70,0,0
316386,-100,4,2,1,80,0,0

[Colours]
Combo1 : 149,149,149
Combo2 : 254,182,243
Combo3 : 255,96,255
Combo4 : 221,0,221
Combo5 : 196,196,255
Combo6 : 157,157,255
Combo7 : 104,104,255
Combo8 : 210,210,210

[HitObjects]
72,224,553,54,0,B|72:120,1,90,4|0
128,64,775,1,8
216,88,886,1,8
256,168,997,2,0,B|256:272,2,90,4|0|8
440,224,1441,2,8,B|440:120,1,90,4|8
384,64,1663,1,8
296,88,1774,1,4
256,168,1886,1,8
360,304,2330,6,0,B|328:360|224:368|176:304,1,180,4|8
199,327,2664,1,0
248,256,2775,2,0,B|280:208|240:152,1,90,4|4
88,240,2997,2,0,B|56:288|96:344,1,90,8|0
168,248,3219,1,4
128,168,3330,2,0,B|80:144|80:88,1,90,0|8
168,96,3552,2,0,B|240:24|352:56,1,180,4|4
296,208,3886,2,0,B|248:232|192:200,1,90,8|0
254,136,4108,6,0,B|310:112|366:128|392:193|369:238,1,180,4|8
328,288,4441,1,0
360,368,4552,2,4,B|408:352|416:288,1,90
274,352,4775,2,0,B|312:384|360:368,1,90,8|0
328,288,4997,1,4
240,272,5108,1,0
184,336,5219,1,8
96,328,5330,2,4,B|24:264|48:144,1,180
104,24,5664,2,0,B|136:64|112:120,1,90,8|0
128,200,5886,86,0,B|176:224|176:224|226:164|304:216,1,180,4|8
378,219,6219,1,0
344,136,6330,2,4,B|296:104|240:112,1,90
184,56,6552,2,0,B|232:16|304:24,1,90,8|0
407,9,6775,2,4,B|476:77|457:175,1,180,4|8
308,275,7108,2,0,B|240:208|259:110,1,180,4|4
378,220,7441,2,0,B|410:268|394:324,1,90,8|0
318,348,7664,6,0,B|270:388,4,45,4|0|0|0|8
147,291,7997,2,0,B|83:299,4,45,4|0|0|0|0
72,128,8330,2,0,B|8:112,2,45,12|0|0
144,184,8552,2,0,B|192:208|248:184,1,90,4|0
456,72,8775,2,0,B|408:48|352:72,1,90,8|0
320,160,8997,2,0,B|256:64,2,90,4|12|8
400,200,9330,1,0
448,280,9441,102,0,B|376:344|272:304,1,180,4|8
279,306,9775,1,0
216,192,9886,2,0,B|160:160|104:200,1,90,4|4
32,336,10108,2,0,B|88:368|144:328,1,90,8|0
168,272,10330,1,4
88,232,10441,2,0,B|50:202|53:144,1,90,0|8
96,24,10664,2,4,B|112:96|179:124|246:108,1,180
400,72,10997,2,0,B|344:48|288:80,1,90,8|0
344,152,11219,6,0,B|344:248|248:304,1,180,4|8
255,299,11552,1,0
344,336,11664,2,4,B|432:336,1,90
256,184,11886,2,0,B|136:184,1,90,8|0
96,240,12108,1,4
67,325,12219,2,0,B|24:320|8:264,1,90,0|8
32,176,12441,2,4,B|72:88|192:88,1,180
184,224,12775,2,0,B|216:272|280:264,1,90,8|0
352,248,12997,6,0,B|360:304|312:336,1,90,4|0
352,248,13219,2,0,B|344:200|376:160,1,90,8|0
448,120,13441,1,4
488,200,13552,2,0,B|496:312|392:352,1,180,4|0
373,163,13886,2,0,B|285:123,2,90,4|0|8
272,272,14219,2,4,B|200:336|80:312,1,180
136,184,14552,85,8
225,162,14664,1,8
281,91,14775,2,0,B|228:58|228:58|177:87|177:87|117:86,2,180,4|8|8
344,152,15330,2,8,B|376:104|360:64,2,90
344,152,15775,2,8,B|320:208|344:248,1,90
472,232,15997,1,8
472,232,16108,2,0,B|448:280|392:280,1,90,8|0
408,192,16330,2,0,B|464:104,1,90,8|0
327,79,16552,70,0,B|239:31|143:71,2,180,4|8|4
264,144,17108,2,0,B|240:200|288:232,1,90,0|8
322,304,17330,1,0
232,304,17441,1,4
232,304,17552,2,0,B|192:336|136:320,1,90,0|8
104,240,17775,2,4,B|184:48,1,180
88,48,18108,2,0,B|48:144,1,90,8|0
224,184,18330,6,0,B|264:96|264:96|352:96,1,180,4|8
347,96,18664,1,0
408,160,18775,2,4,B|448:112|424:64,1,90
320,176,18997,2,0,B|328:224|376:248,1,90,8|0
352,336,19219,2,0,B|416:344|440:296,2,90,4|0|8
272,296,19552,2,4,B|176:272|96:344,1,180
104,337,19886,1,8
56,216,19997,1,0
104,88,20108,6,0,B|192:32|312:88,1,180,4|8
277,73,20441,1,0
440,152,20552,2,0,B|352:208|232:152,1,180,4|8
192,112,20886,1,0
133,43,20997,2,0,B|97:80|105:133,1,90,4|0
159,196,21219,1,8
150,285,21330,2,0,B|99:283|76:229,1,90,4|0
159,196,21552,1,4
243,267,21664,1,8
348,297,21775,1,0
456,288,21886,86,0,B|512:248|512:160|448:120,1,180,8|4
376,56,22219,2,0,B|320:96|320:184|384:224,1,180,8|4
312,352,22552,2,0,B|336:312|304:264,1,90,8|0
176,224,22775,1,4
104,272,22886,2,0,B|72:304|16:288,2,90,8|8|0
104,184,23219,2,0,B|136:136|184:144,1,90,8|0
258,184,23441,1,8
337,226,23552,1,8
256,264,23664,6,0,B|240:320|168:368|96:344,2,180,4|8|4
330,314,24219,2,0,B|380:328|420:296,1,90,4|8
464,224,24441,1,0
408,152,24552,2,0,B|384:104|416:48,1,90,4|0
288,120,24775,1,8
288,120,24886,2,4,B|336:168|328:248|264:288,1,180
208,160,25219,2,0,B|184:104|224:64,1,90,8|0
280,208,25441,5,4
248,296,25552,1,0
160,320,25664,2,0,B|104:336|64:296,1,90,8|0
112,224,25886,2,4,B|160:208|224:248,1,90
112,128,26108,2,0,B|72:152|24:144,1,90,8|0
112,128,26330,2,0,B|88:88|104:40,1,90,4|0
184,80,26552,2,0,B|272:32,1,90,8|0
288,200,26774,2,0,B|208:248,1,90,12|0
272,112,26997,1,8
360,144,27108,1,8
368,232,27219,86,0,B|344:288|376:344|440:344|480:320,1,180,4|8
456,232,27552,2,0,B|480:184|456:120,2,90,0|4|4
304,352,27886,2,8,B|216:312,1,90
131,350,28108,1,4
40,312,28219,2,0,B|93:302|112:240,2,90,8|8|4
80,184,28552,2,0,B|96:136|160:128,1,90,8|0
296,88,28775,2,0,B|280:136|216:144,1,90,12|0
59,81,28997,5,4
256,264,29219,1,8
453,81,29441,1,4
394,148,29552,2,0,B|359:178|311:172,1,90,8|8
129,176,29775,2,0,B|230:168|196:253|309:252,1,180,12|4
129,176,30108,2,0,B|213:109,1,90,12|8
253,47,30330,2,0,B|346:85,1,90,12|0
424,72,30552,1,8
472,152,30664,1,0
400,208,30775,6,0,B|376:272|424:336|488:344,2,180,4|8|4
360,128,31330,1,4
288,80,31441,2,0,B|240:56|168:80,1,90,8|0
40,144,31664,2,0,B|96:160|152:128,2,90,4|0|8
68,229,31997,2,4,B|115:279|115:279|168:267|168:267|224:302,1,180
288,352,32330,2,0,B|320:304|288:248,1,90,8|0
200,112,32552,86,0,B|256:192|376:176,1,180,4|8
358,177,32886,1,0
432,128,32997,2,4,B|400:80|336:88,1,90
432,224,33219,2,0,B|400:272|336:264,1,90,8|0
152,272,33441,2,0,B|197:252|249:289,1,90,4|0
184,352,33664,1,8
104,192,33775,1,4
288,208,33886,2,0,B|330:233|320:296,1,90,0|4
216,168,34108,2,0,B|168:136|184:80,1,90,8|0
272,96,34330,6,0,B|372:128|456:72,2,180,4|8|4
192,64,34886,1,4
104,80,34997,2,0,B|64:104|64:160,1,90,8|0
64,288,35219,2,0,B|112:256|168:272,1,90,4|0
448,293,35441,2,0,B|400:261|344:277,1,90,8|4
256,284,35664,1,0
256,284,35775,1,4
256,192,35886,1,8
256,192,35997,1,0
184,136,36108,6,0,B|288:112|328:8,1,180,8|4
340,157,36441,86,0,B|309:259|379:346,1,180,8|4
243,282,36775,6,0,B|170:204|60:221,1,180,8|4
96,128,37108,6,0,B|96:80|152:48,2,90,8|8|4
136,208,37441,2,0,B|160:272|120:336|56:344,1,180,8|8
58,343,37775,1,0
56,256,37886,86,0,B|240:344,1,180,4|8
256,256,38219,1,0
293,333,38330,2,0,B|456:256,1,180,4|8
392,192,38664,1,0
416,104,38775,2,0,B|472:88|488:32,1,90,4|0
482,47,38997,1,8
328,128,39108,2,0,B|296:168|312:224,1,90,4|0
309,212,39330,1,4
248,88,39441,2,0,B|208:56|160:64,1,90,8|0
16,160,39664,6,0,B|64:208|168:200|200:120,1,180,4|8
96,112,39997,2,0,B|64:72|80:16,2,90,0|4|4
96,264,40330,2,0,B|104:320|56:352,1,90,8|0
176,304,40552,2,0,B|216:272|264:296,1,90,4|4
464,216,40775,2,0,B|424:248|376:224,1,90,8|0
176,136,40997,2,8,B|240:64|344:104,1,180
340,102,41330,1,8
288,176,41441,6,0,B|328:232|328:232|328:280|328:280|360:336,2,180,4|8|4
232,104,41997,1,0
146,75,42108,2,0,B|140:145|140:145|97:174|97:174|90:242,1,180,8|4
80,320,42441,1,0
168,352,42552,2,0,B|224:352|256:304,1,90,8|4
145,248,42775,2,0,B|153:196|217:176,1,90,0|4
320,192,42997,2,0,B|368:176|384:120,1,90,8|0
296,104,43219,86,0,B|253:105|253:105|213:160|213:160|248:232,1,180,4|8
308,284,43552,1,8
392,248,43664,2,0,B|424:200|400:144,1,90,4|8
376,80,43886,2,0,B|432:64|464:96,1,90,4|0
460,93,44108,1,4
80,56,44664,1,8
80,56,44775,1,8
80,56,44886,1,8
80,56,44997,38,0,B|128:88|128:184|72:224,2,180,4|8|4
192,80,45552,2,0,B|240:104|296:64,1,90,0|8
440,152,45775,2,0,B|336:104|272:184,1,180,4|4
360,304,46108,2,0,B|360:208,1,90,8|0
232,256,46330,2,0,B|232:352,2,90,4|0|8
80,112,46775,6,0,B|144:128|160:216|96:264,1,180,4|8
105,256,47108,1,0
172,316,47219,2,0,B|212:352|268:336,1,90,4|0
296,200,47441,2,0,B|256:164|200:180,1,90,8|4
232,256,47664,2,0,B|322:286,1,90,0|4
386,341,47886,1,8
461,292,47997,1,0
435,205,48108,2,0,B|477:184|485:88|421:48,2,180,4|8|4
344,200,48664,5,0
296,120,48775,2,0,B|280:72|320:32,1,90,8|0
176,224,48997,2,0,B|192:272|152:312,1,90,4|0
40,104,49219,2,0,B|24:56|64:16,1,90,8|4
128,80,49441,2,0,B|144:128|144:128|88:192|88:192|88:248,1,180,0|8
88,236,49775,1,0
144,304,49886,2,0,B|208:320|240:280,1,90,4|0
272,216,50108,2,0,B|328:232|352:288,1,90,8|0
376,352,50330,86,0,B|432:312|432:312|432:256|432:256|480:216,1,180,4|8
392,176,50664,1,0
464,120,50775,2,0,B|488:80|464:16,2,90,4|0|8
328,112,51108,2,0,B|264:144|264:232|320:272,1,180,4|4
310,264,51441,1,8
104,344,51664,1,4
48,272,51775,1,0
104,200,51886,1,8
56,120,51997,1,8
112,48,52108,6,0,B|184:56|216:120|192:192,2,180,4|8|4
176,264,52664,2,0,B|200:312|256:312,1,90,0|8
464,328,52886,2,0,B|448:264|360:240|304:272,1,180,4|4
179,148,53219,2,0,B|258:206,1,90,8|0
346,48,53441,2,0,B|274:102,1,90
336,168,53664,1,8
408,114,53775,1,0
450,193,53886,6,0,B|401:236|401:236|401:299|401:299|347:339,2,180,4|8|4
288,272,54441,1,0
216,320,54552,2,0,B|112:320,1,90,8|4
72,248,54775,2,0,B|40:200|80:144,1,90,0|4
232,80,54997,2,0,B|264:128|224:184,1,90,8|0
152,208,55219,2,0,B|120:160|160:104,1,90,4|0
312,40,55441,2,0,B|344:88|304:144,1,90,8|0
312,216,55664,86,0,B|360:248|360:248|368:304|368:304|432:336,2,180,4|8|4
248,280,56219,2,0,B|144:280,1,90,0|8
256,128,56441,2,4,B|448:128,1,180
400,48,56775,1,8
400,48,56886,1,0
312,208,56997,2,0,B|264:232|224:216,1,90,4|0
168,96,57219,2,0,B|112:96|80:128,1,90,8|0
128,200,57441,6,0,B|128:288|128:288|32:352,1,180,4|8
40,248,57775,1,0
128,200,57886,2,0,B|216:240,1,90,4|0
328,296,58108,2,0,B|416:256,1,90,8|4
409,258,58441,1,4
456,184,58552,1,8
448,96,58664,1,0
368,48,58775,2,0,B|312:48|288:8,1,90,4|8
256,96,58997,2,0,B|208:96|176:136,1,90,4|8
240,200,59219,6,0,B|240:288|240:288|152:344,1,180,4|8
162,337,59552,1,0
160,248,59664,2,0,B|115:162,2,90,4|0|8
320,144,59997,2,4,B|320:232|320:232|416:296,1,180
480,248,60330,2,0,B|456:200|408:200,1,90,8|0
296,296,60552,2,0,B|248:320|200:296,1,90,4|0
52,281,60775,2,0,B|101:286|137:250,1,90,8|0
185,178,60997,85,4
163,90,61108,1,0
92,34,61219,2,0,B|59:74|82:135,1,90,8|0
253,73,61441,2,0,B|245:25|192:2,2,90,4|0|8
271,161,61775,2,4,B|340:86|450:128,1,180,4|4
408,208,62108,2,0,B|400:264|344:288,1,90,8|0
272,280,62330,1,4
184,280,62441,2,0,B|136:296|120:344,2,90,0|8|0
224,200,62775,6,0,B|152:176|152:80|224:56,1,180,4|8
212,60,63108,1,0
362,128,63219,2,0,B|272:128,1,90,4|0
48,200,63441,2,0,B|144:200,1,90,8|4
224,200,63664,1,0
288,264,63775,2,0,B|288:320|344:344,2,90,4|8|0
376,264,64108,2,0,B|208:352,1,180,4|8
160,280,64441,1,0
72,280,64552,6,0,B|32:312|32:368,1,90,4|0
160,280,64775,2,0,B|152:224|104:200,1,90,8|0
56,136,64997,1,4
99,57,65108,2,0,B|137:24|187:33,1,90,0|8
261,75,65330,2,4,B|351:119|442:58,1,180
485,137,65664,1,8
401,170,65775,1,0
311,172,65886,2,0,B|261:171|207:140,1,90,4|0
169,220,66108,2,0,B|154:276|198:306,1,90,8|8
255,240,66330,86,0,B|271:112|167:72,2,180,4|8|4
320,304,66886,1,0
408,304,66997,1,8
464,232,67108,2,4,B|472:128|384:64,1,180
396,73,67441,1,8
280,144,67552,1,0
328,224,67664,2,0,B|376:200|376:128,1,90,4|0
224,80,67886,2,0,B|174:71|136:104,1,90,8|0
192,176,68108,6,0,B|248:216|240:312|176:336,2,180,4|8|4
102,170,68664,2,0,B|99:221|139:246,1,90,0|8
304,320,68886,2,4,B|408:352|480:280,1,180
408,224,69219,2,0,B|296:224,1,90,8|0
272,144,69441,2,0,B|376:144,1,90,4|0
456,144,69664,1,8
456,144,69775,1,0
392,80,69886,6,0,B|352:48|288:64,1,90,4|0
216,80,70108,2,0,B|168:48|112:64,1,90,8|0
152,240,70330,2,0,B|200:264|248:248,1,90,4|0
184,160,70552,1,8
96,176,70664,2,4,B|48:216|64:304|136:320,1,180
152,240,70997,2,0,B|256:240,1,90,8|0
312,320,71219,2,0,B|216:320,1,90,4|0
376,264,71441,1,8
376,264,71552,1,8
456,312,71664,85,8
456,72,71886,1,8
256,192,72108,1,12
176,240,72219,2,0,B|128:248|88:208,1,90,8|4
152,152,72441,2,4,B|184:88|272:72|320:112,1,180,8|8
328,264,72775,2,8,B|288:296|232:288,1,90,8|0
360,176,72997,2,0,B|464:176,2,90,4|8|8
296,112,73330,1,8
224,56,73441,38,0,B|136:34,1,90,4|0
32,128,73886,2,0,B|136:152,1,90,2|0
168,224,74330,1,0
216,304,74552,2,0,B|312:360|392:288,1,180,2|2
476,328,75219,1,0
383,295,75441,1,2
352,208,75664,2,0,B|328:160|360:112,1,90,2|0
432,72,76108,1,2
354,121,76330,1,2
264,120,76552,1,0
176,88,76775,1,2
88,112,76997,6,0,B|88:200,1,90,2|0
176,176,77441,2,0,B|176:272,1,90,2|0
88,296,77886,1,0
160,344,78108,2,0,B|256:384|336:320,1,180,2|0
372,244,78775,2,2,B|454:239|494:321,2,135
281,241,79664,1,4
252,206,79775,1,4
245,161,79886,1,8
253,116,79997,1,4
278,79,80108,1,8
200,33,80330,1,4
72,88,80552,53,4
72,88,80664,1,8
120,160,80775,2,0,B|80:192|24:160,1,90,8|0
160,88,80997,1,4
160,88,81108,1,8
208,160,81219,2,0,B|200:216|160:232,1,90,8|0
40,288,81441,2,8,B|96:288|96:288|144:320|144:320|216:320,1,180,4|8
288,272,81775,2,0,B|376:328,2,90,4|8|4
296,184,82108,1,8
368,128,82219,1,4
328,48,82330,6,0,B|280:88|200:72|168:24,2,180,4|8|4
416,56,82886,1,4
456,136,82997,1,8
400,208,83108,2,0,B|400:296|400:296|472:352,1,180
336,344,83441,2,0,B|304:304|320:256,1,90,8|4
248,96,83664,2,0,B|288:136|264:192,1,90,8|4
176,336,83886,1,8
176,336,83997,1,0
152,160,84108,6,0,B|192:192|176:248,1,90,12|0
88,224,84330,2,0,B|40:242|0:200,1,90,8|0
64,144,84552,2,0,B|71:93|128:79,1,90,12|0
208,96,84775,2,0,B|255:136|271:206|255:268,2,180,8|4|8
376,40,85441,1,4
376,40,85664,1,8
320,112,85775,1,8
392,160,85886,86,0,B|432:192|424:240,1,90,12|0
336,232,86108,1,8
272,296,86219,1,0
208,232,86330,1,8
120,232,86441,1,8
95,145,86552,1,8
31,79,86664,2,0,B|83:38|163:54|183:129,1,180,8|8
120,232,86997,2,0,B|128:296|184:312,1,90,8|4
248,272,87219,1,8
312,336,87330,2,0,B|416:336,2,90,4|8|8
248,272,87664,70,0,B|192:232|192:128|272:88,1,180,4|8
239,112,87997,1,0
368,72,88108,2,0,B|424:112|424:216|344:256,1,180,4|8
376,231,88441,1,0
312,168,88552,1,4
239,112,88664,1,0
184,184,88775,1,8
96,152,88886,2,4,B|24:176|24:272|80:304,1,180
160,272,89219,1,8
160,272,89330,1,0
237,318,89441,6,0,B|291:317|324:268,1,90,4|0
474,239,89664,2,0,B|420:238|387:189,1,90,8|0
487,65,89886,2,4,B|501:111|470:150,1,90
395,200,90108,1,8
312,168,90219,1,0
232,200,90330,2,0,B|168:184|144:104|184:48,1,180,4|8
88,72,90664,2,0,B|80:128|32:152,1,90,4|0
104,208,90886,1,4
96,296,90997,2,0,B|144:264|216:296,1,90,8|0
432,320,91219,6,0,B|368:320|368:320|328:280|328:280|264:280,2,180,4|8|4
400,232,91775,1,4
448,152,91886,2,0,B|472:104|448:48,1,90,8|0
368,96,92108,2,0,B|280:96,1,90,4|0
104,136,92330,1,8
104,136,92441,2,4,B|192:136|192:136|224:192|288:192,1,180
144,224,92775,2,0,B|32:224,1,90,8|0
218,275,92997,86,0,B|321:247|405:320,1,180,8|4
346,183,93330,6,0,B|271:107|292:-1,1,180,8|4
202,118,93664,6,0,B|174:221|69:258,1,180,8|4
240,256,93997,86,0,B|272:312|320:312,1,90,8|8
392,288,94219,1,4
472,336,94330,1,8
472,336,94552,1,8
432,208,94664,1,8
392,80,94775,6,0,B|328:80|328:80|280:112|280:112|216:112,1,180,4|8
152,56,95108,1,0
72,96,95219,2,4,B|96:144|160:144,1,90
264,208,95441,2,0,B|208:200|168:232,1,90,8|0
88,208,95664,1,4
88,208,95775,1,0
120,296,95886,1,8
208,328,95997,2,4,B|264:304|264:304|320:328|320:328|376:304,1,180
456,264,96330,2,0,B|432:216|360:216,1,90,8|0
328,144,96552,5,4
328,144,96664,1,0
392,80,96775,2,0,B|480:80,1,90,8|0
304,56,96997,2,4,B|216:56,1,90,4|4
52,112,97219,2,0,B|172:112,1,90,8|0
232,144,97441,2,0,B|240:216|304:232|304:232|320:304,1,180,4|8
224,296,97775,1,4
144,248,97886,2,0,B|96:224|48:256,1,90,8|4
104,328,98108,1,8
224,296,98219,1,8
344,264,98330,86,0,B|368:328|440:352|504:328,2,180,4|8|4
392,184,98886,2,0,B|424:144|392:80,1,90,4|8
232,48,99108,2,4,B|176:88|176:176|240:208,1,180
280,128,99441,2,0,B|332:48,2,90,8|0|4
280,128,99886,1,8
280,216,99997,1,8
200,248,100108,6,0,B|200:158,1,90,4|0
24,94,100330,2,0,B|24:184,1,90,8|0
112,216,100552,2,8,B|112:104,2,90,12|12|8
128,312,100886,2,0,B|168:360|256:368|312:320,1,180,12|8
456,232,101219,2,0,B|400:208|344:248,2,90,12|0|12
416,152,101552,1,8
328,176,101664,1,12
240,152,101775,1,8
240,64,101886,70,0,B|150:37,2,90,4|0|0
328,49,102552,1,0
384,120,102775,2,0,B|408:168|376:208,1,90,8|0
288,224,103219,1,2
360,280,103441,1,0
272,296,103664,2,0,B|176:328|88:264,1,180,2|0
181,235,104330,2,0,B|224:206|229:147,1,90,2|8
208,48,104775,5,0
152,112,104997,1,0
72,144,105219,1,2
304,48,105664,101,0
360,112,105886,1,0
440,144,106108,1,2
352,280,106330,6,0,B|336:232|368:192,1,90,8|0
440,248,106775,1,8
416,336,106997,2,0,B|384:384|272:376|272:288,3,180,2|2|2|8
265,216,108552,1,8
48,152,108775,102,2,B|32:200|64:240,1,90
120,104,109219,2,0,B|136:56|104:16,2,90,0|0|0
184,168,109886,1,8
346,112,110108,1,2
346,112,110330,2,0,B|256:112,1,90,0|2
256,112,110997,5,0
288,192,111219,1,0
368,224,111441,1,0
368,312,111664,2,0,B|344:352|272:360,1,90,8|0
232,288,112108,1,2
146,102,112330,2,0,B|72:184|144:264,1,180,2|8
112,344,112997,102,0,B|64:320|56:272,1,90
192,200,113441,2,8,B|280:248|368:208,1,180
464,80,114108,2,0,B|376:32|288:72,2,180,2|2|2
400,144,115219,1,0
312,160,115441,1,8
312,160,115886,1,8
248,224,116108,6,0,B|288:256|352:240,1,90,2|0
333,243,116552,1,0
224,136,116775,1,0
272,312,116997,1,8
184,288,117219,2,0,B|144:256|160:192,2,90,2|0|2
272,312,117886,2,0,B|332:340|332:340|383:312|383:312|437:332,1,180
332,245,118552,2,0,B|376:218|429:236,1,90,2|8
424,144,118997,101,0
344,112,119219,1,0
304,32,119441,1,2
88,144,119886,5,0
168,112,120108,1,0
208,32,120330,1,2
256,104,120552,2,0,B|256:208,1,90,8|0
256,194,120997,1,8
176,240,121219,2,0,B|216:296|304:296|336:232,1,180,2|0
344,152,121886,1,0
168,152,122330,2,0,B|112:160|88:216,2,90,2|8|8
256,176,122997,1,0
192,240,123219,102,0,B|216:328,2,90,2|0|0
320,240,123886,2,0,B|296:328,2,90,2|8|0
384,176,124552,1,0
344,96,124775,1,2
254,96,124997,2,0,B|206:89|185:37,2,90,2|0|0
241,185,125664,2,0,B|144:192,1,90,2|8
151,191,126108,1,2
152,191,126552,5,2
195,113,126775,2,0,B|219:65|187:25,1,90,0|2
64,168,127219,2,0,B|49:242|104:288|171:278,1,180,2|8
248,240,127886,1,0
323,288,128108,2,0,B|427:288,1,90,8|0
256,192,128552,12,0,129441
256,192,129664,101,8
268,292,129886,1,8
220,288,129997,1,8
180,256,130108,1,8
168,212,130219,1,0
173,165,130330,70,0,B|196:100|283:86|323:141,2,180,4|8|4
256,192,130886,1,4
336,232,130997,2,0,B|360:280|328:328,1,90,8|0
440,232,131219,2,0,B|416:176|416:176|440:112|440:112|408:56,1,180,4|8
336,120,131552,2,4,B|280:104|280:104|248:56|248:56|184:40,1,180
136,120,131886,1,8
56,88,131997,1,0
64,176,132108,6,0,B|96:216|152:208,1,90,4|0
320,216,132330,2,0,B|272:184|216:208,1,90,8|0
184,280,132552,2,0,B|160:320|112:328,2,90,4|0|8
216,120,132886,2,0,B|256:88|256:88|344:88|344:88|392:120,1,180,4|4
424,192,133219,1,8
424,192,133330,1,0
392,272,133441,2,0,B|448:288|480:256,1,90,4|0
328,320,133664,2,8,B|280:312|240:344,1,90,8|0
184,280,133886,6,0,B|144:312|144:312|64:312|64:312|16:272,2,180,4|8|4
104,232,134441,1,0
104,144,134552,1,8
24,96,134664,2,0,B|64:64|64:64|144:64|144:64|192:104,1,180,4|4
264,240,134997,2,0,B|360:288,1,90,8|0
264,144,135219,2,0,B|360:96,1,90,4|0
456,192,135441,2,0,B|328:192,1,90,8|0
184,192,135664,86,0,B|160:240|192:304,1,90,4|0
184,192,135886,2,0,B|208:144|176:80,1,90,8|0
108,59,136108,1,4
24,96,136219,1,0
24,184,136330,1,8
96,240,136441,2,4,B|188:290|271:234,1,180
445,202,136775,2,0,B|402:176|344:201,1,90,8|0
193,125,136997,2,0,B|233:160|292:142,1,90,4|0
404,18,137219,2,0,B|363:47|357:121,1,90,8|0
304,304,137441,6,0,B|384:344|384:344|480:288,2,180,4|8|4
352,232,137997,1,0
352,232,138108,1,8
264,224,138219,2,4,B|192:224|152:144|192:80,1,180
264,136,138552,2,0,B|288:80|248:40,1,90,8|0
176,8,138775,1,4
96,48,138886,1,0
88,136,138997,2,0,B|32:128|16:72,1,90,8|0
168,104,139219,6,0,B|176:200|96:280,1,180,4|8
107,267,139552,1,0
232,224,139664,2,0,B|280:208|280:208|328:224,2,90,4|0|8
192,304,139997,2,4,B|288:360|384:280,1,180
448,288,140330,2,0,B|384:200,1,90,8|0
304,208,140552,2,0,B|368:120,1,90,4|0
448,136,140775,2,0,B|384:48,1,90,8|0
304,56,140997,86,0,B|272:104|168:104|136:40,2,180,4|8|4
352,136,141552,1,0
304,208,141664,1,8
224,160,141775,2,4,B|160:136|160:136|144:80|144:80|96:56,1,180
72,144,142108,2,0,B|56:184|56:184|0:208,1,90,8|0
136,216,142330,1,4
128,304,142441,1,0
200,352,142552,2,0,B|304:352,1,90,8|8
464,312,142775,6,0,B|368:312|368:312|352:264|288:256,2,180,4|8|4
416,240,143330,1,0
480,176,143441,1,8
424,104,143552,2,4,B|360:80|296:144|336:216,1,180
240,304,143886,2,0,B|272:256|240:208,1,90,8|0
168,256,144108,1,4
128,176,144219,1,8
80,256,144330,1,4
40,176,144441,1,8
88,96,144552,6,0,B|128:48|208:40|264:64,2,180,4|8|4
216,136,145108,2,0,B|256:176|240:224,1,90,0|8
240,304,145330,2,4,B|312:304|352:240|320:168,1,180
304,88,145664,1,8
304,88,145775,1,0
384,128,145886,2,0,B|368:80|416:40,1,90,4|0
448,184,146108,2,0,B|472:224|448:272,1,90,8|0
304,344,146330,85,4
304,344,146441,1,0
304,344,146552,2,0,B|416:344,1,90,8|0
352,264,146775,2,0,B|256:264,1,90,4|0
216,344,146997,1,8
168,264,147108,2,4,B|160:200|224:144|304:176,1,180
392,104,147441,2,0,B|424:72|424:72|424:24,1,90,8|0
392,104,147664,2,0,B|403:147|403:147|445:171,1,90,4|0
392,104,147886,2,0,B|348:92|348:92|306:116,1,90,8|0
360,192,148108,6,0,B|312:224|224:192|224:120,1,180,4|8
224,125,148441,1,0
256,40,148552,2,0,B|192:40|192:40|152:72|152:72|80:72,1,180,4|8
128,152,148886,2,4,B|184:216|184:216|240:216|240:216|296:272,1,180
200,296,149219,2,0,B|152:304|112:256,1,90,8|0
200,296,149441,2,0,B|272:328|272:328|328:296|328:296|392:296,1,180,4|8
424,224,149775,1,0
376,152,149886,6,0,B|424:120|480:160,1,90,4|0
336,232,150108,2,0,B|288:240|248:208,1,90,8|0
200,136,150330,1,4
240,56,150441,1,0
328,64,150552,1,8
280,144,150664,2,4,B|272:216|184:240|136:192,1,180
112,112,150997,2,0,B|112:24,1,90,8|0
32,128,151219,2,0,B|32:232,1,90,4|0
112,328,151441,2,0,B|112:208,1,90,8|0
200,224,151664,86,0,B|272:224|320:272|336:336,2,180,4|8|4
256,152,152219,2,0,B|288:120|280:64,1,90,0|8
360,40,152441,1,4
360,40,152664,1,4
440,80,152775,2,0,B|472:128|432:176,1,90,8|0
312,200,152997,2,0,B|280:152|320:104,1,90,4|0
392,240,153219,2,0,B|368:288|312:288,1,90,8|0
176,312,153441,6,0,B|240:312|240:312|272:360|272:360|352:360,2,180,4|8|4
96,344,153997,1,0
96,344,154108,1,8
40,272,154219,2,4,B|104:256|136:176|112:112,1,180
160,48,154552,1,8
248,48,154664,1,0
296,128,154775,2,0,B|288:184|216:200,1,90,4|0
376,168,154997,2,0,B|424:144|472:168,1,90,8|0
312,264,155219,6,0,B|248:296|248:296|192:280|192:280|136:304,2,180,4|8|4
400,272,155775,2,0,B|392:320|344:344,1,90,0|8
232,208,155997,2,0,B|144:152|40:216,1,180,4|4
208,104,156330,2,0,B|296:160|400:96,2,180,8|4|8
127,62,156886,1,8
48,105,156997,86,0,B|0:200|75:280,1,180,4|8
156,288,157330,1,0
218,352,157441,2,0,B|322:352,2,90,12|12|8
280,264,157775,2,0,B|336:264|336:264|376:304|376:304|448:304,1,180,12|12
416,216,158108,1,8
416,128,158219,2,0,B|464:104|464:48,1,90,0|12
376,48,158441,1,8
291,77,158552,1,12
205,46,158664,1,8
122,80,158775,37,2
256,192,171219,12,4,172997
256,72,173219,70,0,B|280:112|280:112|256:160,1,90,8|0
260,150,173441,2,0,B|216:232|216:232|272:336,1,180,4|8
336,192,173775,2,0,B|360:144|328:96,2,90,4|0|4
416,232,174108,2,0,B|464:192|448:136,1,90,8|0
344,280,174330,2,0,B|392:341|478:323|496:257,2,180,4|8|4
264,240,174886,5,0
208,312,174997,2,0,B|104:312,1,90,8|0
24,216,175219,2,0,B|144:216,2,90,4|0|8
112,112,175552,2,4,B|184:112|184:112|216:160|216:160|288:160,1,180
264,72,175886,1,8
264,72,175997,1,0
400,80,176108,2,0,B|432:128|392:184,1,90,4|0
336,224,176330,2,0,B|304:176|328:136,1,90,8|0
416,256,176552,6,0,B|384:320|304:328|256:264,1,180,4|8
266,275,176886,1,0
184,248,176997,2,0,B|208:192|256:192,2,90,4|0|8
104,200,177330,2,4,B|80:248|80:248|120:328|120:328|176:328,1,180
184,152,177664,2,0,B|152:112|152:112|96:112,1,90,8|0
32,80,177886,2,0,B|56:16|144:0|216:40,1,180,4|8
256,80,178219,1,8
331,140,178330,86,0,B|322:247|408:317,1,180,8|4
263,282,178663,6,0,B|175:221|71:261,1,180,8|4
174,151,178997,6,0,B|271:106|288:-3,1,180,8|4
368,56,179330,86,0,B|456:56,2,90,4|8|4
416,136,179664,1,8
456,216,179775,1,0
368,224,179886,1,8
416,304,179997,1,8
328,304,180108,6,0,B|304:352|304:352|280:304|280:304|200:304,2,180,4|8|4
280,232,180664,1,0
320,152,180775,1,8
280,72,180886,2,4,B|248:8|152:8|112:80,1,180
80,136,181219,2,0,B|128:160|168:136,1,90,8|0
280,232,181441,2,0,B|232:208|184:232,1,90,4|0
72,320,181664,2,0,B|120:344|160:320,1,90,8|0
256,328,181886,6,0,B|360:352,2,90,8|0|8
56,192,182330,1,8
256,56,182552,1,8
456,192,182775,2,0,B|456:248|416:272,1,90,4|0
368,192,182997,2,0,B|392:128|392:128|448:112|448:112|480:48,2,180,8|4|8
304,256,183552,1,8
328,344,183664,86,0,B|376:328|392:272,1,90,4|0
280,168,183886,2,0,B|184:176|136:264,1,180,8|4
224,296,184219,1,0
224,296,184330,2,0,B|184:360|88:352|48:328,1,180,8|4
32,248,184664,2,0,B|55:204|28:156,2,90,0|8|4
120,144,184997,2,0,B|160:184|248:184|272:104,1,180,0|12
336,56,185330,1,0
384,128,185441,5,12
448,184,185552,2,0,B|480:144|456:96,2,90,8|0|8
360,216,185886,1,4
328,296,185997,2,0,B|376:312|424:272,2,90,8|0|8
264,232,186330,2,0,B|216:208|176:232,1,90,4|8
40,336,186552,2,8,B|96:336|120:288,1,90
96,208,186775,1,12
112,120,186886,1,0
184,64,186997,1,8
272,56,187108,1,0
357,82,187219,6,0,B|437:129|451:240,2,180,4|8|4
376,240,187775,2,0,B|328:328,1,90,0|8
240,328,187997,2,4,B|328:168,1,180
240,168,188330,2,0,B|192:256,1,90,8|0
120,296,188552,2,0,B|56:304|16:248,1,90,4|0
120,64,188775,2,0,B|184:56|224:112,1,90,8|0
136,152,188997,86,0,B|40:152|40:152|112:232,2,180,4|8|4
184,232,189552,1,0
272,240,189664,1,8
457,294,189775,2,4,B|472:240|416:176|344:192,1,180
280,328,190108,2,0,B|336:320|360:248,1,90,8|0
336,104,190330,2,0,B|280:112|264:168,1,90,4|0
72,264,190552,2,0,B|120:256|136:208,1,90,8|0
96,128,190775,5,4
96,128,190997,2,0,B|152:48|280:72,1,180,8|4
272,160,191330,2,0,B|312:208|384:176,1,90,0|8
416,128,191552,1,4
416,128,191775,2,0,B|432:80|384:32,2,90,4|8|0
448,216,192108,1,4
448,216,192219,1,0
408,296,192330,1,8
408,296,192441,1,0
320,320,192552,6,0,B|264:328|240:288,1,90,4|0
72,240,192775,2,0,B|48:288|80:336,1,90,8|0
152,280,192997,1,4
208,208,193108,2,0,B|256:192|312:232,1,90,0|8
208,208,193330,2,4,B|136:216|80:144|104:88,1,180
266,48,193664,2,0,B|176:48,1,90,8|0
382,136,193886,2,0,B|472:136,1,90,4|0
345,61,194108,2,0,B|296:136,1,90,8|0
344,208,194330,86,0,B|360:264|360:264|416:288|416:288|440:360,2,180,4|8|4
432,208,194886,1,0
352,344,194997,1,8
272,312,195108,2,4,B|208:312|208:312|168:344|168:344|96:344,1,180
32,288,195441,2,0,B|56:248|128:256,1,90,8|0
256,152,195664,2,0,B|232:192|160:184,1,90,4|0
110,254,195886,1,8
177,185,195997,1,0
104,128,196108,6,0,B|56:144|-8:104|8:32|40:0,2,180,4|8|4
200,48,196664,2,0,B|72:48,1,90,0|8
224,128,196886,2,4,B|264:120|280:80|280:80|384:80,1,180
432,160,197219,1,8
376,232,197330,1,0
416,312,197441,2,0,B|464:288|464:224,2,90,4|0|8
328,304,197775,1,0
288,224,197886,6,0,B|296:176|352:152,1,90,4|0
256,168,198108,2,0,B|256:112|304:80,1,90,8|0
208,120,198330,2,0,B|192:64|240:24,2,90,4|0|8
200,208,198664,2,4,B|224:272|176:336|96:336,1,180
40,280,198997,1,8
40,280,199219,1,4
40,280,199441,1,8
120,168,199552,1,8
56,48,199664,86,0,B|80:104|80:104|24:144|56:216,2,180,4|8|4
144,96,200219,2,0,B|200:112|200:176,1,90,4|8
112,248,200441,2,4,B|155:250|181:221|181:221|280:248,1,180
264,160,200775,2,0,B|376:136,1,90,8|0
480,160,200997,1,4
360,216,201108,1,8
496,232,201219,1,0
376,288,201330,1,8
304,344,201441,6,0,B|248:336|232:296|232:296|216:336|160:352,2,180,4|8|4
296,256,201997,2,0,B|272:200|184:216,1,90,0|8
24,280,202219,2,4,B|104:288|144:240|144:240|144:176,1,180
184,64,202552,2,0,B|104:56|64:104|64:104|64:168,2,180,8|4|8
240,136,203108,1,0
328,136,203219,6,0,B|384:136|416:96,1,90,4|0
328,248,203441,2,0,B|384:248|416:288,1,90,8|0
472,192,203664,1,4
472,192,203775,2,0,B|360:192,1,90,0|8
272,192,203997,2,4,B|216:192|216:192|176:240|176:240|104:240,1,180
40,192,204330,2,0,B|64:152|120:152,1,90,8|0
116,327,204552,2,0,B|64:328|40:288,1,90,4|0
115,240,204775,2,0,B|224:240,1,90,8|0
304,264,204997,85,4
224,104,205219,1,8
400,120,205441,1,4
352,192,205552,1,0
304,264,205664,1,8
256,336,205775,2,4,B|304:368|384:344|392:256,1,180
264,184,206108,2,0,B|216:216|216:264,1,90,8|0
312,112,206330,2,0,B|320:16,2,90,4|0|8
304,264,206775,6,0,B|360:296|440:256|432:184,2,180,4|8|4
264,184,207330,2,0,B|224:152|160:168,1,90,4|8
32,208,207552,2,0,B|72:240|136:224,2,90,4|0|4
96,144,207886,1,8
112,56,207997,1,0
184,112,208108,2,0,B|256:56|376:104,1,180,4|8
408,168,208441,1,0
352,240,208552,6,0,B|264:280|160:232,1,180,4|8
104,296,208886,1,0
192,320,208997,2,0,B|240:336|296:328,1,90,4|0
449,284,209219,1,8
449,284,209330,2,4,B|416:312|360:320|360:320|352:264|288:248,1,180
240,160,209664,2,0,B|216:200|232:248,1,90,8|0
320,168,209886,2,0,B|344:112|320:72,1,90,4|0
176,24,210108,2,0,B|152:64|176:120,1,90,8|0
392,216,210330,86,0,B|448:184|464:96|416:40,2,180,4|8|4
320,168,210886,1,0
232,160,210997,1,8
152,200,211108,2,0,B|112:216|40:200|16:128|56:64,1,180,4|4
128,112,211441,2,0,B|168:72|232:80,1,90,8|0
224,248,211664,2,0,B|200:288|128:288,1,90,4|0
232,160,211886,2,0,B|288:160|328:192,1,90,8|0
320,272,212108,6,0,B|368:272|400:224|400:224|456:240|480:296,2,180,4|8|4
392,328,212664,1,0
456,160,212775,1,8
384,112,212886,2,4,B|312:56|200:64,1,180
40,104,213219,2,0,B|112:160|224:152,1,180,8|4
209,152,213664,5,8
264,320,213775,1,8
384,192,213886,2,0,B|296:192|296:192|272:240|216:240,2,180,4|8|8
336,272,214441,1,8
264,320,214552,1,8
176,320,214664,2,0,B|80:312|24:232,1,180,4|8
136,112,214997,2,0,B|136:168|96:200,1,90,12|8
48,128,215219,1,12
144,32,215330,1,8
248,120,215441,1,12
368,56,215552,1,12
432,176,215664,6,0,B|448:224|440:272,2,90,4|0|2
352,136,216330,1,0
288,200,216552,1,10
200,224,216775,2,0,B|112:248|24:208,2,180,2|8|0
272,280,217886,1,0
352,320,218108,1,0
424,272,218330,2,0,B|416:224|376:200,1,90,10|0
200,184,218775,2,0,B|248:208|304:176,1,90,2|8
448,128,219219,6,0,B|368:72|256:96,1,180,2|2
184,104,219886,1,2
104,152,220108,2,0,B|56:128|48:72,1,90,8|0
184,192,220552,2,0,B|160:240|104:240,1,90,2|8
160,320,220997,2,4,B|112:344|112:344|72:320|72:320|24:328,2,135
236,272,221886,1,8
277,289,221997,1,8
308,321,222108,2,0,B|344:370,2,45,4|8|4
432,81,222775,53,4
348,114,222886,2,0,B|365:160|418:170,2,90,8|8|0
276,58,223219,1,4
187,43,223330,2,0,B|137:40|107:91,1,90,8|8
111,173,223552,1,0
193,211,223664,2,0,B|211:163|181:118,2,90,4|0|8
29,135,223997,2,0,B|9:200|45:263|123:262,1,180,4|4
171,332,224330,2,0,B|195:287|260:286,1,90,8|0
421,323,224552,6,0,B|356:296|356:296|345:242|345:242|290:216,2,180,4|8|4
474,249,225108,1,4
452,161,225219,2,0,B|409:139|363:155,1,90,8|0
289,105,225441,1,4
126,128,225552,2,0,B|214:150,1,90,0|8
239,237,225775,2,0,B|185:43,1,180,4|4
75,201,226108,2,0,B|102:300,1,90,8|0
172,340,226330,6,0,B|226:347|263:304,1,90,12|0
425,253,226552,2,0,B|371:260|334:217,1,90,8|0
172,166,226775,2,0,B|224:174|256:144,1,90,12|4
425,79,226997,2,0,B|351:17|251:50,2,180,8|12|8
87,305,227664,2,0,B|161:367|261:334,1,180,12|8
313,266,227997,1,8
254,197,228108,86,0,B|197:104,1,90,12|0
159,43,228330,2,0,B|106:138,1,90,8|0
162,198,228552,2,0,B|73:201,2,90,12|8|0
271,117,228886,2,0,B|357:71|451:122,1,180,8|8
400,197,229219,2,0,B|355:217|311:191,1,90,8|12
201,267,229441,2,0,B|252:262|282:304,1,90,8|12
210,355,229664,1,8
120,359,229775,1,8
56,296,229886,70,0,B|32:208|32:208|128:232,2,180,4|8|4
144,312,230441,1,4
208,248,230552,2,0,B|216:200|176:160,1,90,8|0
104,112,230775,2,0,B|184:48|288:80,1,180,4|8
408,272,231108,2,4,B|328:336|224:304,1,180
280,232,231441,1,8
312,152,231552,1,0
224,160,231664,6,0,B|192:192|144:204|91:193|55:149,2,180,4|8|4
264,80,232219,1,4
349,52,232330,2,0,B|399:50|435:92,1,90,8|0
402,171,232552,2,0,B|397:280|481:326,1,180,4|8
336,272,232886,2,4,B|264:344|144:304,1,180
92,263,233219,1,8
63,177,233330,1,0
87,90,233441,6,0,B|98:39|143:10,2,90,4|0|8
134,175,233775,1,0
192,240,233886,2,4,B|168:288|112:288,1,90
224,160,234108,2,0,B|256:120|304:120,1,90,8|0
384,144,234330,1,4
448,208,234441,1,0
456,296,234552,1,8
376,336,234664,2,4,B|328:336|296:296|296:296|216:328,1,180
128,304,234997,1,8
128,304,235108,1,0
72,233,235219,86,0,B|193:183|193:183|216:119,1,180,8|4
312,12,235552,6,0,B|295:141|295:141|339:193,1,180,8|4
383,330,235886,6,0,B|279:251|279:251|212:263,1,180,8|4
178,186,236219,86,8,B|146:147|89:152,2,90
231,112,236552,2,0,B|288:112|288:112|320:152|320:152|392:152,1,180,8|4
476,192,236886,1,4
392,232,236997,6,0,B|320:232|320:232|288:272|288:272|216:272,2,180,4|8|4
360,312,237552,1,4
360,312,237664,2,0,B|464:312,1,90,8|0
216,192,237886,2,0,B|112:192|64:280,1,180,4|8
160,288,238219,2,4,B|144:184|64:136,1,180
128,72,238552,1,8
128,72,238664,1,0
216,104,238775,6,0,B|280:112|328:184|272:256,2,180,4|8|4
216,192,239330,2,0,B|104:192,1,90,4|8
56,248,239552,1,12
56,248,239775,1,8
120,304,239886,1,12
208,304,239997,1,4
280,256,240108,2,0,B|376:224|448:304,1,180,8|8
443,299,240441,1,8
480,216,240552,86,0,B|416:152|416:152|416:48,2,180,4|8|4
328,144,241108,2,0,B|280:144|232:184,1,90,4|8
56,184,241330,2,4,B|120:256|232:256,1,180
160,148,241664,2,0,B|134:104|160:36,2,90,8|0|4
344,232,242108,1,8
296,312,242219,1,8
208,344,242330,6,0,B|112:368|32:296,2,180,4|8|4
296,312,242886,1,4
344,232,242997,1,8
344,144,243108,2,0,B|344:96|320:64|320:64|264:96|200:88,1,180,4|8
72,96,243441,2,0,B|104:48|176:48,1,90,12|0
160,144,243664,1,12
32,176,243775,1,0
160,216,243886,1,8
32,248,243997,1,8
160,288,244108,6,0,B|232:312|232:312|288:288|288:288|352:304,2,180,4|8|4
232,232,244664,1,4
320,216,244775,2,0,B|432:256,1,90,8|0
288,136,244997,2,0,B|224:112|224:112|216:48|152:32,1,180,4|8
136,120,245330,2,4,B|80:128|48:200|96:264|136:256,1,180
184,192,245664,1,8
184,192,245775,1,0
208,280,245886,86,0,B|184:336|104:360|48:344,2,180,4|8|4
296,256,246441,1,4
384,280,246552,1,8
384,280,246775,2,0,B|384:192|384:192|440:168|432:104,1,180,4|8
352,32,247108,2,4,B|352:120|352:120|296:144|304:208,1,180
291,280,247441,1,8
216,330,247552,1,0
128,304,247664,6,0,B|64:288|32:216|72:144,1,180,4|8
64,160,247997,1,0
152,192,248108,2,4,B|256:224,1,90
384,112,248330,2,0,B|280:144,1,90,8|0
336,224,248552,1,4
336,224,248664,2,0,B|320:280|256:288,1,90,0|8
80,288,248886,2,4,B|192:288|192:288|200:336|248:352,1,180
320,352,249219,1,8
400,312,249330,1,0
422,224,249441,6,0,B|409:173|444:119,1,90,12|0
498,73,249664,1,4
422,224,249775,86,0,B|471:241|496:300,1,90,8|0
468,372,249998,1,4
422,224,250108,6,0,B|460:188|525:194,2,90,8|0|4
336,192,250441,101,8
304,112,250552,1,8
360,40,250664,1,4
304,112,250775,2,8,B|232:112|232:112|184:144|184:144|120:144,1,180
56,192,251108,1,8
133,240,251219,6,0,B|184:240|184:240|232:272|232:272|304:272,2,180,4|8|4
256,192,251775,1,4
256,192,251886,2,0,B|360:192,1,90,8|0
384,112,252108,1,4
424,192,252219,1,0
384,272,252330,1,8
344,192,252441,2,4,B|304:120|304:120|248:96|200:128,1,180
208,264,252775,2,0,B|256:288|312:264,1,90,8|0
256,192,252997,6,0,B|168:192|168:192|120:224|128:280,1,180,4|8
168,352,253330,1,0
256,336,253441,2,0,B|360:336,2,90,8|4|8
208,264,253775,2,4,B|176:232|176:192|176:192|72:192,1,180,8|8
304,120,254108,2,8,B|336:152|336:192|336:192|440:192,2,180,4|8|8
256,192,254664,1,8
216,112,254775,86,0,B|184:64|120:72,1,90,12|0
40,168,254997,2,0,B|88:184|128:152,1,90,8|0
40,256,255219,2,0,B|88:288|80:336,2,90,12|4|8
168,288,255552,1,8
168,288,255664,2,0,B|216:320|216:320|272:296|272:296|336:320,1,180,4|8
480,336,255997,2,0,B|424:312|424:312|400:256|400:256|320:224,1,180,4|8
256,208,256330,1,12
256,120,256441,1,8
332,76,256552,6,0,B|294:17|214:17|176:76,2,180,4|8|12
184,168,257108,2,8,B|88:216,1,90
328,168,257330,2,0,B|384:200|384:200|456:200|456:200|504:232,1,180,4|12
416,272,257664,5,8
326,261,257775,1,8
283,340,257886,1,12
219,275,257997,1,8
142,322,258108,1,12
128,233,258219,1,8
48,192,258330,54,0,B|5:156|18:98,2,90,4|0|6
103,120,258997,1,0
192,128,259219,1,8
152,208,259441,2,0,B|192:288,1,90,0|2
192,288,259886,1,0
236,209,260108,2,0,B|323:141|250:46,1,180,4|0
370,121,260775,2,0,B|409:151|459:137,1,90,2|8
336,296,261219,5,0
400,232,261441,1,0
424,320,261664,1,2
176,296,262108,101,0
112,232,262330,1,0
88,320,262553,1,2
176,296,262775,2,0,B|224:272|232:224,1,90,8|0
256,144,263219,1,8
208,64,263441,2,0,B|167:91|164:136|164:136|64:136,2,180,2|0|2
256,144,264552,1,2
304,64,264775,2,8,B|344:88|352:144,1,90
360,320,265219,1,0
384,232,265441,6,0,B|416:184|472:184,2,90
296,256,266108,1,2
208,232,266330,1,10
160,152,266552,2,0,B|160:96|112:56,2,90
104,328,267441,101,0
40,264,267664,1,2
72,176,267886,1,2
160,168,268108,1,8
216,240,268330,2,0,B|232:288|184:328,2,90,0|0|2
296,80,269219,5,8
272,80,269441,1,0
248,80,269664,1,2
224,80,269886,2,8,B|160:80|160:80|128:120|128:120|64:120,1,180
208,160,270552,2,0,B|304:160,1,90,2|0
144,232,270997,2,0,B|48:232,1,90,2|0
208,304,271441,1,0
208,304,271886,2,8,B|248:304|248:304|264:328|264:328|304:328|304:328|320:304|320:304|376:304,1,180
416,232,272552,102,0,B|464:264|456:328,1,90,0|2
336,184,272997,2,0,B|368:144|416:144,2,90,2|0|8
256,216,273664,1,0
176,176,273886,1,2
88,176,274108,1,2
48,96,274330,2,0,B|104:96|128:56|128:56|152:96|208:96,1,180,0|0
274,44,274997,2,0,B|325:35|366:71,1,90,2|8
440,144,275441,5,0
360,192,275664,1,0
440,240,275886,1,2
72,144,276330,101,0
152,192,276553,1,0
72,240,276775,1,2
72,240,276997,5,8
160,96,277219,1,0
232,240,277441,1,8
320,96,277664,2,0,B|272:168|272:168|312:192|320:264,1,180,2|2
272,320,278330,2,0,B|336:352|384:304|384:304|440:328,1,180,2|0
408,192,278997,1,8
440,64,279219,1,8
360,112,279441,1,0
272,104,279664,102,0,B|216:96|200:56,2,90,2|0|0
312,184,280330,1,0
272,264,280552,2,0,B|248:312|192:320,2,90,8|0|0
192,224,281219,1,0
160,144,281441,2,0,B|112:168|107:215|107:215|8:216,1,180,2|0
56,128,282108,2,0,B|75:85|132:65,1,90,2|8
56,128,282552,1,2
56,128,282997,6,0,B|88:224|200:256,1,180,2|0
332,249,283664,2,0,B|424:224|456:128,1,180,2|8
368,128,284330,1,0
256,80,284552,1,8
144,128,284775,1,0
256,192,285886,12,0,289441
152,80,290775,54,0,B|184:24|288:16|336:80,1,180,4|8
313,57,291109,1,0
264,128,291220,2,0,B|232:176|272:232,1,90,4|4
424,144,291442,2,0,B|456:96|416:40,1,90,8|0
344,136,291664,1,4
384,216,291775,2,0,B|432:240|432:296,1,90,0|8
344,288,291997,2,0,B|272:360|160:328,1,180,4|4
216,176,292331,2,0,B|264:152|320:184,1,90,8|0
256,248,292553,6,0,B|200:272|144:256|120:184|144:144,1,180,4|8
184,96,292886,1,0
152,16,292997,2,4,B|104:32|96:96,1,90
238,32,293220,2,0,B|200:0|152:16,1,90,8|0
184,96,293442,1,4
272,112,293553,1,0
328,48,293664,1,8
416,56,293775,2,4,B|488:120|464:240,1,180
408,360,294109,2,0,B|376:320|400:264,1,90,8|0
384,184,294331,6,0,B|336:160|336:160|288:224|208:168,1,180,4|8
136,168,294664,1,0
168,248,294775,2,4,B|216:280|272:272,1,90
328,328,294997,2,0,B|280:368|208:360,1,90,8|0
152,336,295219,1,4
80,280,295330,1,0
168,248,295441,2,0,B|216:224|216:176|216:176|336:184,2,180,8|4|8
136,168,295997,1,8
192,96,296108,86,0,B|256:56|320:96|320:96|320:160,1,180,8|4
368,216,296441,2,0,B|304:256|240:216|240:216|240:152,1,180,8|4
408,136,296775,2,0,B|456:168|456:224,1,90,8|0
416,288,296997,1,4
416,288,297108,2,0,B|464:312|504:288,2,90,8|8|8
336,328,297441,1,4
64,328,297664,1,8
240,328,297886,6,0,B|144:328|144:328|144:280|96:248,1,180,4|8
200,248,298219,1,0
144,184,298330,2,0,B|144:88,1,90,4|0
216,48,298552,1,8
288,96,298664,2,4,B|336:128|336:128|392:96|456:136,1,180
451,250,298997,2,0,B|392:288|336:256|336:256|288:288,2,180,8|4|8
384,192,299552,1,8
296,192,299664,6,0,B|192:192,1,90,4|0
96,112,299886,2,0,B|216:112,1,90,8|0
112,280,300108,2,0,B|24:280,2,90,4|0|8
200,264,300441,2,4,B|248:320|328:304|328:304|344:352,1,180
340,341,300775,1,8
464,216,300997,1,4
376,64,301219,1,8
312,128,301330,1,8
360,200,301441,86,0,B|376:256|376:256|432:296|432:296|448:352,2,180,4|8|4
264,200,301997,2,0,B|216:160|232:104,1,90,0|8
56,80,302219,2,4,B|112:16|240:40,1,180
128,136,302552,1,8
128,136,302664,2,0,B|32:176,2,90,0|12|0
136,224,302997,2,8,B|232:264,1,90
296,304,303219,6,0,B|260:364|192:344|192:344|120:312,2,180,4|8|8
272,216,303775,1,4
336,152,303886,2,8,B|376:192|352:256,1,90
248,136,304108,2,0,B|264:88|320:64,1,90,4|8
472,48,304330,2,0,B|440:88|376:88,1,90,8|0
442,162,304552,1,4
389,236,304664,1,8
387,325,304775,1,0
305,286,304886,1,8
216,304,304997,102,0,B|152:304|152:304|112:352|48:336,2,180,4|8|4
80,256,305552,2,0,B|56:208|104:160,1,90,0|8
168,224,305775,1,0
248,184,305886,2,0,B|296:136|288:56|216:32,1,180,4|8
376,136,306219,2,4,B|328:184|336:264|408:288,1,180
512,208,306552,2,0,B|416:208,1,90,8|0
256,336,306775,6,0,B|368:336,1,90,4|0
192,280,306997,2,0,B|88:280,1,90,8|0
256,216,307219,2,0,B|368:216,2,90,4|0|8
168,184,307552,2,4,B|192:136|248:128|248:128|248:40,1,180
160,72,307886,1,8
160,72,307997,1,0
96,136,308108,2,0,B|32:216,1,90,4|0
112,256,308330,2,0,B|88:368,1,90,8|0
208,272,308552,102,0,B|248:240|248:240|288:264|328:240|328:240|368:272,2,180,4|8|4
288,184,309108,2,0,B|288:96,1,90,4|8
288,94,309441,1,4
376,192,309552,1,0
464,296,309664,2,0,B|424:256|424:256|392:280|344:280|312:240,2,180,8|4|8
392,352,310219,1,8
304,328,310330,6,0,B|200:296|160:200,1,180,8|4
349,82,310664,6,0,B|374:188|310:271,1,180,8|4
114,165,310997,86,0,B|193:91|297:104,1,180,8|4
256,192,311330,6,8,B|248:304,2,90
176,232,311664,2,0,B|128:240|104:280|104:280|88:240|32:224,2,180,8|8|4
248,280,312219,5,0
328,240,312330,2,0,B|360:192|328:144,1,90,8|0
408,272,312552,2,0,B|376:320|392:368,1,90,4|0
464,200,312775,2,0,B|488:152|464:104,1,90,8|0
392,64,312997,2,0,B|200:64,1,180,4|8
56,152,313330,2,4,B|264:152,1,180
304,208,313664,1,8
248,280,313775,1,0
256,368,313886,85,8
464,200,314108,1,8
256,16,314330,1,8
192,80,314441,2,0,B|152:104|104:96,1,90,8|4
280,104,314664,2,0,B|384:120|400:224,1,180,8|4
280,312,314997,2,0,B|176:296|160:192,2,180,8|4|8
312,224,315552,2,0,B|360:248|368:296,1,90,8|4
432,232,315775,5,8
400,152,315886,1,8
424,64,315997,1,8
336,80,316108,1,8
336,80,316219,1,8
256,40,316330,1,8
256,40,316441,1,8
184,96,316552,2,0,B|120:96|120:96|80:56|80:56|16:56,2,180,4|8|4
184,96,317219,5,8
120,216,317330,1,8
56,336,317441,2,0,B|112:368|168:336,1,90,4|0
192,272,317664,2,0,B|248:256|288:288,1,90,8|0
352,328,317886,1,4
440,328,317997,1,8
352,328,318108,1,4
352,328,318330,2,0,B|368:256|432:248|432:248|440:176,1,180,8|4
408,104,318664,2,0,B|352:128|352:176,1,90,8|4
312,248,318886,37,8
200,248,318997,5,8
256,152,319108,5,8
