osu file format v9

[General]
AudioFilename: Chata- Precious Wing.mp3
AudioLeadIn: 1500
PreviewTime: 51850
Countdown: 0
SampleSet: Soft
StackLeniency: 0.7
Mode: 0
LetterboxInBreaks: 0

[Editor]
DistanceSpacing: 1
BeatDivisor: 2
GridSize: 4

[Metadata]
Title:Precious Wing (Short Ver.)
Artist:Chata
Creator:BeatofIke
Version:Normal
Source:Kono Oozora ni, Tsubasa wo Hirogete
Tags:opening eroge hentai sky game pulltop nich95

[Difficulty]
HPDrainRate:4
CircleSize:3
OverallDifficulty:4
ApproachRate:5
SliderMultiplier:1
SliderTickRate:1

[Events]
//Background and Video events
Video,-4935,"Chata- Precious Wing.avi"
0,0,"Background.png"
//Break Periods
2,13050,14650
//Storyboard Layer 0 (Background)
//Storyboard Layer 1 (Fail)
//Storyboard Layer 2 (Pass)
//Storyboard Layer 3 (Foreground)
//Storyboard Sound Samples
//Background Colour Transformations
3,100,163,162,255

[TimingPoints]
850,375,4,2,1,60,1,0
15850,-100,4,2,1,50,0,0
45850,-100,4,2,2,50,0,0
46412,-100,4,2,1,50,0,0
47350,-100,4,2,2,50,0,0
47912,-100,4,2,1,50,0,0
53350,-100,4,2,1,70,0,1
77350,-100,4,2,1,70,0,0
92162,-100,4,2,1,5,0,0

[Colours]
Combo1 : 128,255,255
Combo2 : 0,128,255
Combo3 : 128,255,128
Combo4 : 255,255,128

[HitObjects]
256,44,850,2,0,B|256:144,1,100,4|8
344,192,1600,2,0,B|368:240|344:288,1,100,0|8
256,344,2350,1,0
168,288,2725,2,0,B|144:240|168:192,2,100,8|0|8
256,240,3850,5,2
344,192,4225,2,0,B|392:216|440:192,1,100,8|0
440,92,4975,2,0,B|392:68|344:92,1,100,8|0
256,44,5725,1,8
168,92,6100,2,0,B|120:68|72:92,1,100,4|8
72,192,6850,6,0,B|120:216|168:192,1,100,6|8
256,240,7600,1,0
332,304,7975,1,8
256,368,8350,1,6
180,304,8725,1,8
256,240,9100,1,0
343,191,9475,1,8
256,192,9850,12,6,12850
184,120,15850,5,4
256,48,16225,1,2
328,120,16600,1,0
256,192,16975,1,2
184,264,17350,2,0,B|136:288|88:264,2,100,0|2|0
256,336,18475,1,2
328,264,18850,6,0,B|376:288|424:264,1,100,0|2
464,236,19412,1,0
464,136,19787,1,0
424,120,19975,2,0,B|376:96|328:120,1,100,2|0
256,48,20725,1,2
256,48,20912,1,0
184,120,21287,1,0
184,120,21475,2,0,B|136:96|88:120,1,100,2|0
16,192,22225,5,2
88,256,22600,2,0,B|136:280|184:256,1,100,0|2
256,324,23350,1,0
328,256,23725,2,0,B|352:208|328:160,1,100,2|0
256,88,24475,1,2
184,160,24850,6,0,B|160:208|184:256,1,100,0|2
256,324,25600,1,0
328,256,25975,2,0,B|376:280|424:256,1,100,2|0
496,192,26725,1,2
424,124,27100,1,0
324,124,27475,1,2
256,52,27850,5,0
188,124,28225,1,2
88,124,28600,1,0
16,192,28975,1,2
88,256,29350,2,0,B|136:280|184:256,1,100,0|2
232,256,29912,2,0,B|300:328,1,100
352,328,30475,1,2
452,308,30850,6,0,B|496:284|496:224,1,100,0|2
496,172,31412,2,0,B|496:112|452:88,1,100
452,88,31975,1,2
368,144,32350,2,0,B|344:188|284:188,1,100,0|2
232,188,32912,2,0,B|172:188|148:144,1,100
148,145,33475,1,2
208,68,33850,6,0,B|256:44|304:68,1,100,0|2
368,144,34600,2,0,B|392:192|368:240,1,100,0|2
304,316,35350,2,0,B|256:340|208:316,1,100,0|2
180,276,35912,2,0,B|132:252|84:276,1,100,0|0
36,288,36475,1,2
256,192,36662,12,2,39100
160,280,39850,5,4
256,304,40225,1,8
352,280,40600,1,0
400,192,40975,1,8
352,104,41350,5,2
256,80,41725,1,8
160,104,42100,1,0
112,192,42475,1,8
160,280,42850,5,2
256,252,43225,2,0,B|256:148,1,100,8|0
156,144,43975,1,8
204,56,44350,1,0
308,56,44725,1,8
356,144,45100,1,0
308,232,45475,1,8
204,232,45850,6,0,B|156:232|108:232|80:296,2,150,4|0|8
308,232,47350,2,0,B|356:232|404:232|432:296,2,150,2|0|8
256,148,48850,6,0,B|256:44,1,100,4|8
256,48,49412,1,4
256,192,49975,12,2,51850
104,96,53350,6,0,B|128:144|104:192,1,100,4|8
56,280,54100,1,0
136,344,54475,1,8
208,280,54850,2,0,B|256:256|304:280,1,100,0|8
376,344,55600,1,0
456,280,55975,1,8
408,192,56350,6,0,B|384:144|408:96,1,100,0|8
304,104,57100,2,0,B|256:128|208:104,1,100,0|8
104,96,57850,2,0,B|128:144|104:192,1,100,0|8
184,256,58600,1,0
256,328,58975,1,8
328,256,59350,6,0,B|352:208|328:160,1,100,4|8
304,64,60100,1,0
208,64,60475,1,8
184,160,60850,2,0,B|160:208|184:256,1,100,0|8
256,328,61600,1,0
328,256,61975,1,8
404,192,62350,6,0,B|396:136|340:124,1,100,4|8
292,124,62912,2,0,B|236:112|228:56,2,100,4|4|4
220,192,64037,1,0
168,192,64225,2,0,B|64:192,1,100,8|0
68,292,64975,1,8
160,328,65350,5,4
256,328,65725,1,8
352,328,66100,2,0,B|452:328,1,100,0|8
504,240,66850,2,0,B|404:240,1,100,0|8
304,240,67600,1,0
208,240,67975,1,8
112,240,68350,6,0,B|8:240,1,100,0|8
56,152,69100,2,0,B|160:152,1,100,0|8
256,152,69850,1,0
304,240,70225,1,8
208,240,70600,1,0
256,152,70975,1,8
356,152,71350,6,0,B|456:152,1,100,4|8
408,72,72100,2,0,B|304:72,1,100,0|8
208,72,72850,1,4
256,152,73225,1,8
304,240,73600,1,0
208,240,73975,1,8
256,192,74350,12,0,76600
256,288,77350,5,4
336,232,77725,1,8
304,136,78100,1,0
208,136,78475,1,8
176,232,78850,2,0,B|152:288|96:288,2,100,0|2|0
256,288,79975,1,2
336,232,80350,6,0,B|360:288|416:288,2,100,4|8|0
256,176,81475,1,8
336,120,81850,6,0,B|360:64|416:64,2,100,2|8|0
256,176,82975,1,8
176,120,83350,6,0,B|152:64|96:64,2,100,2|8|0
256,176,84475,1,8
176,232,84850,6,0,B|152:288|96:288,2,100,0|8|4
256,176,85975,1,8
336,232,86350,5,6
256,288,86725,1,8
176,232,87100,1,0
96,176,87475,1,8
176,120,87850,5,6
256,64,88225,1,8
336,120,88600,1,0
416,176,88975,1,8
336,240,89350,6,8,B|336:288,1,50,4|4
256,352,89912,2,8,B|256:304,1,50,4|4
176,240,90475,2,8,B|176:290,1,50,4|4
256,232,91037,2,8,B|256:168,1,50,4|4
256,80,91600,5,4
256,80,91975,1,4
256,192,92162,12,0,96850
