osu file format v9

[General]
AudioFilename: Chata- Precious Wing.mp3
AudioLeadIn: 1500
PreviewTime: 51850
Countdown: 0
SampleSet: Soft
StackLeniency: 0.7
Mode: 0
LetterboxInBreaks: 0

[Editor]
DistanceSpacing: 0.8
BeatDivisor: 4
GridSize: 4

[Metadata]
Title:Precious Wing (Short Ver.)
Artist:Chata
Creator:BeatofIke
Version:Insane
Source:Kono Oozora ni, Tsubasa wo Hirogete
Tags:opening eroge hentai sky game pulltop nich95

[Difficulty]
HPDrainRate:7
CircleSize:4
OverallDifficulty:7
ApproachRate:8
SliderMultiplier:2
SliderTickRate:2

[Events]
//Background and Video events
Video,-4935,"Chata- Precious Wing.avi"
0,0,"Background.png"
//Break Periods
//Storyboard Layer 0 (Background)
//Storyboard Layer 1 (Fail)
//Storyboard Layer 2 (Pass)
//Storyboard Layer 3 (Foreground)
//Storyboard Sound Samples
//Background Colour Transformations
3,100,163,162,255

[TimingPoints]
850,375,4,2,1,60,1,0
15850,-100,4,2,1,50,0,0
36662,-100,4,2,1,60,0,0
52037,-100,4,2,1,45,0,0
53350,-100,4,2,1,70,0,1
77350,-125,4,2,1,70,0,0
77725,-100,4,2,1,70,0,0
87287,-100,4,2,2,70,0,0
87662,-100,4,2,1,70,0,0
92350,-100,4,2,1,5,0,0

[Colours]
Combo1 : 128,255,255
Combo2 : 0,128,255
Combo3 : 128,255,128
Combo4 : 255,255,128

[HitObjects]
256,192,475,2,0,B|256:256,4,50,0|0|0|0|4
320,144,1037,1,0
296,64,1225,1,8
216,64,1412,1,0
192,144,1600,2,0,B|120:216,1,100,0|0
320,144,1975,2,0,B|392:216,1,100,8|0
142,80,2350,6,0,B|96:80|64:136,1,100
168,277,2725,2,0,B|112:245|112:200,1,100,8|0
302,206,3100,2,0,B|256:176|208:208,1,100
400,200,3475,2,0,B|401:245|344:277,1,100,8|0
370,80,3850,6,0,B|416:80|448:136,1,100,2|0
336,304,4225,2,0,B|290:304|258:248,1,100,8|0
448,135,4600,2,0,B|480:167|463:229,1,100
258,249,4975,2,0,B|225:216|242:154,1,100,8|0
464,229,5350,6,0,B|463:275|408:307,1,100
242,155,5725,2,0,B|242:109|298:77,1,100,8|0
409,307,6100,1,4
313,334,6287,1,0
258,249,6475,1,8
199,334,6662,1,0
103,307,6850,6,0,B|48:304|24:272|24:240,1,100,6|0
104,192,7225,2,0,B|159:189|183:157|183:125,1,100,8|0
408,192,7600,2,0,B|353:189|329:157|329:125,1,100
256,72,7975,2,0,B|256:184,1,100,8|0
256,296,8350,5,6
328,264,8537,1,0
360,192,8725,1,8
328,120,8912,1,0
256,88,9100,1,0
184,120,9287,1,0
152,192,9475,1,8
184,264,9662,1,0
256,192,9850,12,0,12475
176,240,12850,5,6
216,312,13037,1,0
296,312,13225,1,2
336,240,13412,2,0,B|352:176|416:176,1,100
176,240,13787,2,0,B|160:176|96:176,1,100,0|2
256,112,14162,5,0
256,32,14350,1,0
328,152,14537,5,0
400,192,14725,1,2
184,152,14912,5,0
112,192,15100,1,0
256,272,15287,5,0
256,192,15475,1,2
208,336,15662,2,0,B|256:368|304:336,1,100,0|4
356,180,16037,6,0,B|387:226|355:274,1,100,0|2
158,274,16412,2,0,B|126:226|156:180,1,100
256,112,16787,1,0
256,112,16881,1,0
256,112,16975,1,2
256,248,17162,1,0
316,352,17350,5,0
196,352,17537,1,0
316,352,17725,1,2
404,268,17912,2,0,B|460:248|476:192|460:136|404:116,1,200
284,192,18475,2,0,B|384:192,1,100,2|0
256,76,18850,6,0,B|156:76,1,100
56,156,19225,2,0,B|156:156,2,100,2|0|0
256,156,19787,1,0
256,308,19975,6,0,B|156:308,1,100,2|0
56,228,20350,2,0,B|156:228,2,100,0|0|2
256,228,20912,1,0
356,228,21100,5,0
156,228,21287,1,0
312,144,21475,1,2
200,312,21662,1,0
356,228,21850,2,0,B|456:228,2,100,0|0|2
256,160,22412,5,0
156,228,22600,1,0
256,296,22787,1,0
356,228,22975,1,2
256,160,23162,1,0
144,140,23350,5,0
72,208,23537,1,0
140,280,23725,1,2
208,348,23912,2,0,B|256:380|304:348,1,100
372,280,24287,1,0
440,208,24475,1,2
368,140,24662,1,0
304,64,24850,6,0,B|256:88|208:64,1,100
304,64,25225,2,0,B|370:138,1,100,2|0
208,64,25600,2,0,B|136:144,1,100
256,256,25975,1,2
296,184,26162,5,0
256,168,26256,1,0
216,184,26350,2,0,B|164:224|180:272,2,100,0|0|2
296,184,26912,2,0,B|348:224|332:272,2,100,0|0|0
256,256,27475,2,0,B|256:356,2,100,2|0|0
340,204,28037,5,0
340,104,28225,1,2
256,160,28412,1,0
172,104,28600,1,0
172,204,28787,2,0,B|72:204,2,100,0|2|0
340,204,29350,6,0,B|440:204,1,100
428,284,29725,2,0,B|328:284,1,100,2|0
256,320,30100,1,0
192,272,30287,1,0
136,328,30475,2,0,B|80:352|32:320,1,100,2|0
91,159,30850,6,0,B|64:200|88:256,1,100
192,200,31225,2,0,B|216:144|188:103,2,100,2|0|0
256,56,31787,1,0
320,200,31975,2,0,B|296:144|323:103,1,100,2|0
424,256,32350,6,0,B|448:200|420:159,2,100,0|0|2
320,312,32912,1,0
256,264,33100,1,0
176,264,33287,1,0
112,216,33475,1,2
112,136,33662,1,0
176,88,33850,6,0,B|280:88,1,100
361,139,34225,2,0,B|276:88,1,100,2|0
390,235,34600,2,0,B|361:139,1,100
121,235,34975,2,0,B|150:139,2,100,2|0|0
128,312,35537,5,0
200,344,35725,1,2
256,288,35912,2,0,B|256:184,2,100
312,344,36475,1,2
384,312,36662,1,0
390,235,36850,6,0,B|361:139,1,100
276,88,37225,2,0,B|361:139,1,100,6|0
176,88,37600,2,0,B|276:88,1,100
336,296,37975,2,0,B|236:296,1,100,6|0
160,272,38350,5,0
132,196,38537,1,0
152,120,38725,1,2
216,72,38912,1,0
296,72,39100,1,0
360,120,39287,1,0
380,196,39475,1,2
352,272,39662,1,0
352,272,39756,1,0
352,272,39850,6,0,B|256:320|160:272,1,200,4|8
64,200,40412,2,0,B|160:152|256:200,1,200,0|0
352,272,40975,1,8
456,224,41162,1,0
368,152,41350,2,0,B|296:152|296:152|296:232|216:232,1,200,2|8
144,152,41912,2,0,B|216:152|216:152|216:72|296:72,1,200
48,64,42475,2,0,B|152:64,1,100,8|0
144,240,42850,6,0,B|40:240,2,100,2|0|8
176,328,43412,1,0
256,368,43600,1,0
336,328,43787,1,0
368,240,43975,1,8
376,208,44068,1,0
384,176,44162,1,0
376,144,44256,1,0
368,112,44350,5,0
256,64,44537,1,0
144,112,44725,1,8
256,160,44912,2,0,B|256:264,1,100
328,296,45287,1,0
256,352,45475,1,8
184,296,45662,1,0
104,264,45850,6,0,B|56:256|16:192|56:128|104:120,1,200,4|8
152,48,46412,2,0,B|200:56|240:120|200:184|152:192,1,200
208,264,46975,2,0,B|256:240|304:264,1,100,8|0
408,264,47350,2,0,B|456:256|496:192|456:128|408:120,1,200,2|8
360,48,47912,2,0,B|312:56|272:120|312:184|360:192,1,200
304,264,48475,2,0,B|256:240|208:264,1,100,8|0
256,336,48850,5,4
320,232,49037,1,0
256,336,49225,1,0
256,216,49412,1,4
256,336,49600,1,0
192,232,49787,1,0
176,120,49975,2,0,B|200:72|256:48|312:72|336:120,1,200,4|0
336,200,50537,5,0
392,256,50725,1,8
336,312,50912,1,0
256,336,51100,1,0
176,312,51287,1,0
120,256,51474,1,8
176,200,51662,1,0
256,176,51850,1,2
336,200,52037,5,2
368,176,52131,1,2
380,136,52225,1,2
380,96,52318,1,2
368,60,52412,1,2
336,36,52506,1,2
296,24,52600,1,2
256,20,52693,1,2
216,24,52787,1,2
176,36,52881,1,2
144,60,52975,1,2
132,96,53069,1,2
132,136,53162,1,2
144,176,53256,1,2
176,200,53350,6,0,B|232:208|256:256,1,100,4|0
176,344,53725,2,0,B|120:336|96:289,1,100,8|0
255,254,54100,2,0,B|288:299|271:350,1,100
97,290,54475,2,0,B|63:244|79:195,1,100,8|0
112,120,54850,5,0
176,72,55037,1,0
256,72,55225,1,8
296,144,55412,1,0
216,144,55600,1,0
256,72,55787,1,0
336,72,55975,1,8
400,120,56162,1,0
432,195,56350,6,0,B|448:244|415:290,1,100
239,348,56725,2,0,B|223:299|257:254,1,100,8|0
415,289,57100,2,0,B|392:336|336:344,1,100
256,254,57475,2,0,B|280:208|336:200,1,100,8|0
415,289,57850,5,0
336,343,58037,1,0
239,348,58225,2,0,B|183:340|159:294,1,100,8|0
128,216,58600,2,0,B|72:224|48:270,2,100,0|0|8
159,294,59162,1,0
74,136,59350,6,0,B|82:192|128:216|128:216|180:200|224:240,1,200,4|8
256,144,59912,1,0
438,136,60100,2,0,B|430:192|384:216|384:216|332:200|288:240,1,200,0|8
256,144,60662,1,0
352,294,60850,5,0
384,216,61037,2,0,B|440:224|464:270,2,100,0|8|0
384,136,61600,1,0
336,72,61787,1,0
256,44,61975,1,8
176,72,62162,1,0
128,136,62350,6,0,B|128:184|144:224|184:256|256:256,1,200,4|8
256,176,62912,2,0,B|328:176|368:208|384:248|384:296,2,200,4|4|4
256,256,63850,6,0,B|256:360,2,100,0|0|8
256,176,64412,1,0
296,104,64600,1,0
368,64,64787,1,0
440,104,64975,1,8
472,176,65162,1,0
424,240,65350,6,0,B|416:296|370:320,1,100,4|0
256,288,65725,2,0,B|308:292|343:247,1,100,8|0
255,127,66100,2,0,B|202:122|167:167,1,100
343,249,66475,2,0,B|383:214|376:158,1,100,8|0
169,167,66850,2,0,B|128:201|135:257,1,100
256,288,67225,1,8
256,176,67412,5,0
216,104,67600,1,0
144,64,67787,1,0
72,104,67975,1,8
40,176,68162,1,0
88,240,68350,6,0,B|96:296|142:320,1,100
256,288,68725,2,0,B|203:292|168:247,1,100,8|0
257,127,69100,2,0,B|309:122|344:167,1,100
169,249,69475,2,0,B|128:214|135:158,1,100,8|0
343,167,69850,2,0,B|383:201|376:257,1,100
256,288,70225,1,8
192,108,70600,5,0
256,60,70787,1,0
320,108,70975,1,8
256,192,71350,12,4,72850
256,112,73225,5,8
304,256,73412,1,0
176,168,73600,1,0
336,168,73787,1,0
208,256,73975,1,8
256,192,74350,12,0,75850
256,32,76225,5,8
256,112,76413,1,0
112,192,76600,5,0
184,152,76788,1,0
400,192,76975,5,8
328,152,77163,1,0
256,272,77350,6,0,B|256:192,2,80,4|0|8
184,296,77912,2,0,B|192:328|208:352|256:376|304:352|320:328|328:296,1,200,0|0
328,216,78475,1,8
328,136,78662,2,0,B|320:104|304:80|256:56|208:80|192:104|184:136,1,200,4|0
184,216,79225,1,4
136,64,79600,2,0,B|48:112,1,100
160,140,79975,2,0,B|248:92,1,100,2|0
368,72,80350,5,4
440,120,80537,1,0
440,208,80725,1,8
368,256,80912,2,0,B|304:280|300:324,1,100
144,256,81287,2,0,B|208:280|211:322,1,100,0|8
256,168,81662,1,0
144,72,81850,5,2
72,120,82037,1,0
72,208,82225,1,8
144,256,82412,2,0,B|208:280|212:324,1,100
368,256,82787,2,0,B|304:280|300:322,1,100,0|8
256,168,83162,1,0
368,52,83350,6,0,B|468:52,1,100,2|0
356,168,83725,2,0,B|252:168,1,100,8|0
168,192,84100,1,0
116,268,84287,1,0
168,340,84475,1,8
256,316,84662,1,0
344,340,84850,1,0
396,268,85038,1,0
344,192,85225,1,8
256,168,85412,6,0,B|156:168,1,100,0|4
44,52,85787,2,0,B|144:52,2,100,0|8|0
144,52,86350,5,4
210,116,86537,1,0
302,116,86725,1,8
368,180,86912,2,0,B|400:188|424:204|448:252|424:300|400:316|368:324,2,200
368,52,87850,5,4
302,116,88037,1,0
210,116,88225,1,8
144,180,88412,2,0,B|112:188|88:204|64:252|88:300|112:316|144:324,1,200
200,252,88975,1,8
256,324,89162,1,0
312,252,89350,5,4
368,180,89537,1,4
144,180,89912,5,4
88,108,90099,1,4
368,180,90475,5,4
424,108,90662,1,4
256,40,91037,5,4
256,132,91225,1,4
216,212,91412,5,0
256,232,91506,1,0
296,212,91600,1,2
340,292,91787,1,0
172,292,91975,1,2
256,320,92162,1,4
256,192,92350,12,0,96850
