osu file format v9

[General]
AudioFilename: Chata- Precious Wing.mp3
AudioLeadIn: 1500
PreviewTime: 51850
Countdown: 0
SampleSet: Soft
StackLeniency: 0.7
Mode: 0
LetterboxInBreaks: 0

[Editor]
DistanceSpacing: 1
BeatDivisor: 2
GridSize: 4

[Metadata]
Title:Precious Wing (Short Ver.)
Artist:Chata
Creator:BeatofIke
Version:Easy
Source:Kono Oozora ni, Tsubasa wo Hirogete
Tags:opening eroge hentai sky game pulltop nich95

[Difficulty]
HPDrainRate:2
CircleSize:3
OverallDifficulty:2
ApproachRate:3
SliderMultiplier:0.8
SliderTickRate:1

[Events]
//Background and Video events
Video,-4935,"Chata- Precious Wing.avi"
0,0,"Background.png"
//Break Periods
2,13050,14410
//Storyboard Layer 0 (Background)
//Storyboard Layer 1 (Fail)
//Storyboard Layer 2 (Pass)
//Storyboard Layer 3 (Foreground)
//Storyboard Sound Samples
//Background Colour Transformations
3,100,163,162,255

[TimingPoints]
850,375,4,2,1,60,1,0
850,-100,4,2,2,60,0,0
15850,-100,4,2,1,50,0,0
36662,-100,4,2,1,60,0,0
39850,-100,4,2,2,60,0,0
40412,-100,4,2,1,60,0,0
41350,-100,4,2,2,60,0,0
41912,-100,4,2,1,60,0,0
42850,-100,4,2,2,60,0,0
43412,-100,4,2,1,60,0,0
44350,-100,4,2,2,60,0,0
44912,-100,4,2,1,60,0,0
45850,-100,4,2,2,60,0,0
46412,-100,4,2,1,60,0,0
47350,-100,4,2,2,60,0,0
47912,-100,4,2,1,60,0,0
48850,-100,4,2,2,60,0,0
53350,-100,4,2,1,70,0,1
54100,-100,4,2,2,70,0,1
54662,-100,4,2,1,70,0,1
57100,-100,4,2,2,70,0,1
57662,-100,4,2,1,70,0,1
60100,-100,4,2,2,70,0,1
60662,-100,4,2,1,70,0,1
62350,-100,4,2,2,70,0,1
66100,-100,4,2,2,70,0,1
66662,-100,4,2,1,70,0,1
69100,-100,4,2,2,70,0,1
69662,-100,4,2,1,70,0,1
71350,-100,4,2,2,70,0,1
77350,-100,4,2,2,70,0,0
77350,-100,4,2,2,70,0,0
89350,-100,4,2,1,70,0,0
92162,-100,4,2,1,5,0,0

[Colours]
Combo1 : 128,255,255
Combo2 : 0,128,255
Combo3 : 128,255,128
Combo4 : 255,255,128

[HitObjects]
415,251,850,6,0,B|415:335|303:335,1,160,4|0
255,271,1975,1,8
208,336,2350,2,0,B|95:335|95:251,1,160,0|0
40,192,3475,1,8
96,132,3850,6,0,B|96:48|208:48,1,160,2|0
256,112,4975,1,8
303,47,5350,2,0,B|416:48|416:132,1,160,0|4
472,192,6475,1,8
420,252,6850,6,0,B|372:268|372:308|372:308|296:336,1,160,6|0
256,268,7975,1,8
216,336,8350,2,0,B|140:308|140:308|140:268|92:252,1,160,6|0
40,192,9475,1,8
256,192,9850,12,4,12850
92,120,15850,5,4
156,72,16225,1,0
212,128,16600,2,0,B|256:156|256:192,1,80,0|2
256,272,17350,1,0
320,320,17725,1,0
376,264,18101,2,0,B|420:236|420:200,1,80,0|2
424,120,18850,6,0,B|384:88|380:56|380:56|300:56,1,160
256,124,19975,1,2
212,56,20350,2,0,B|132:56|132:56|128:88|88:120,1,160
52,192,21475,1,2
88,264,21850,5,0
208,156,22600,1,0
256,220,22975,1,2
304,156,23350,2,0,B|360:156|360:156|412:156|444:208,1,160
508,260,24475,1,2
444,312,24850,6,0,B|411:364|359:364|359:364|303:364,1,160
256,296,25975,1,2
208,364,26350,2,0,B|152:364|152:364|100:364|68:312,2,160
256,208,28600,5,0
208,144,28975,1,2
128,144,29350,2,0,B|40:144,2,80,0|0|0
208,144,30475,1,2
256,80,30850,6,0,B|332:56|332:56|408:80,1,160
456,144,31975,1,2
408,208,32350,2,0,B|332:232|332:232|256:208,1,160
196,264,33475,1,2
256,320,33850,5,0
96,324,34600,2,0,B|48:328|24:284,2,80,0|2|0
96,244,35725,1,0
96,164,36100,2,0,B|144:160|168:204,1,80,0|2
256,192,36662,12,0,39100
216,188,39850,6,0,B|172:204|172:204|164:240|124:256,2,120,4|0|8
216,108,41350,2,0,B|172:92|172:92|164:56|124:40,2,120,2|0|8
296,108,42850,2,0,B|340:92|340:92|348:56|388:40,2,120,2|0|8
296,188,44350,2,0,B|340:204|340:204|348:240|388:256,2,120,0|0|8
216,188,45850,6,0,B|172:188|172:188|156:164|156:164|108:164,2,120,4|0|8
296,188,47350,2,0,B|340:188|340:188|356:164|356:164|404:164,2,120,2|0|8
256,256,48850,2,0,B|232:288|256:312|280:336|256:368,1,120,4|4
256,192,49975,12,2,51850
292,332,53350,6,0,B|256:352|216:332,1,80,4|8
200,252,54100,2,0,B|256:216|312:252,2,120,0|0|8
120,252,55600,1,0
68,192,55975,1,8
68,112,56350,6,0,B|104:92|144:112,1,80,0|8
200,56,57100,2,0,B|256:92|312:56,2,120,0|0|8
144,112,58600,1,0
200,172,58975,1,8
256,228,59350,6,0,B|340:228,1,80,4|8
368,300,60100,2,0,B|420:300|456:312|472:344,2,120,0|0|8
336,228,61600,1,0
360,152,61975,1,8
312,88,62350,6,0,B|256:52|200:88,1,120,4|4
144,144,63287,2,0,B|108:164|68:144,1,80,4|4
112,340,64600,1,0
180,296,64975,1,8
252,264,65350,6,0,B|336:264,1,80,4|8
336,344,66100,2,0,B|392:380|448:344,2,120,0|0|8
332,264,67600,1,0
332,184,67975,1,8
252,184,68350,6,0,B|168:184,1,80,0|8
92,184,69100,2,0,B|55:127|91:71,2,120,0|0|8
172,184,70600,1,0
136,256,70975,1,8
216,256,71350,6,0,B|288:292|288:292|360:256,1,160,4|0
412,196,72475,1,8
360,136,72850,2,0,B|288:100|288:100|216:136,1,160,4|0
164,196,73975,1,8
256,192,74350,12,0,76600
392,96,77350,6,0,B|344:140|368:208,1,120,4|0
380,284,78287,2,0,B|444:332,2,80,0|4|2
340,284,79225,1,4
296,352,79600,2,0,B|216:352,1,80,0|8
180,280,80350,6,0,B|112:280|68:236|68:188,1,160,4|0
64,108,81475,1,8
144,108,81850,2,0,B|212:108|256:152|256:200,1,160,2|0
256,280,82975,1,8
256,200,83350,6,0,B|256:152|300:108|368:108,1,160,2|0
448,108,84475,1,8
444,188,84850,2,0,B|444:236|400:280|332:280,1,160,0|4
256,252,85975,1,8
256,172,86350,6,0,B|256:84,2,80,4|8|0
256,252,87475,1,8
180,280,87850,2,0,B|112:280|68:236|68:188,1,160,2|0
64,108,88975,1,8
144,108,89350,6,0,B|224:108|224:108|260:180|260:180|340:180,2,240,4|4|4
256,192,92162,12,0,96850
