osu file format v14

[General]
AudioFilename: Chata- Precious Wing.mp3
AudioLeadIn: 0
PreviewTime: 56718
Countdown: 0
SampleSet: Soft
StackLeniency: 0.7
Mode: 0
LetterboxInBreaks: 0
WidescreenStoryboard: 0

[Editor]
Bookmarks: 17625,20625,41625,48842,53625,55125,56625,64981,80812,81187,94125,97031,101625
DistanceSpacing: 0.6
BeatDivisor: 4
GridSize: 4
TimelineZoom: 1

[Metadata]
Title:Precious Wing (Movie ver)
TitleUnicode:Precious Wing (Movie ver)
Artist:Chata
ArtistUnicode:茶太
Creator:Log Off Now
Version:Taking Flight
Source:この大空に、翼をひろげて
Tags:if my heart had wings Kono Oozora Ni Tsubasa Wo Hirogete moenovel pulltop eroge visual novel short version _meep_ hb24 momochikun
BeatmapID:1149503
BeatmapSetID:542186

[Difficulty]
HPDrainRate:7
CircleSize:4
OverallDifficulty:8
ApproachRate:8.8
SliderMultiplier:1.8
SliderTickRate:1

[Events]
//Background and Video events
0,0,"asa_yoru.jpg",0,0
Video,0,"preciouswingop.avi"
//Break Periods
//Storyboard Layer 0 (Background)
//Storyboard Layer 1 (Fail)
//Storyboard Layer 2 (Pass)
//Storyboard Layer 3 (Foreground)
//Storyboard Sound Samples

[TimingPoints]
2625,375,4,2,1,40,1,0
5625,-100,4,2,1,50,0,0
20625,-100,4,2,1,45,0,0
43500,-100,4,2,2,50,0,0
44625,-100,4,2,1,60,0,0
53625,-83.3333333333333,4,2,1,60,0,0
55125,-100,4,2,2,60,0,0
56812,-100,4,2,1,35,0,0
57000,-100,4,2,1,40,0,0
57375,-100,4,2,1,50,0,0
57750,-100,4,2,2,50,0,0
58125,-90.9090909090909,4,2,1,70,0,1
66187,-90.9090909090909,4,2,1,60,0,1
66375,-90.9090909090909,4,2,1,70,0,1
66562,-90.9090909090909,4,2,1,60,0,1
66750,-90.9090909090909,4,2,1,70,0,1
69750,-90.9090909090909,4,2,2,70,0,1
70125,-90.9090909090909,4,2,1,70,0,1
80812,-90.9090909090909,4,2,1,60,0,1
81000,-90.9090909090909,4,2,1,70,0,1
81187,-90.9090909090909,4,2,1,60,0,1
81375,-90.9090909090909,4,2,1,70,0,1
84750,-90.9090909090909,4,2,2,70,0,1
85125,-90.9090909090909,4,2,1,70,0,1
89812,-90.9090909090909,4,2,1,60,0,1
90000,-90.9090909090909,4,2,1,70,0,1
90187,-90.9090909090909,4,2,1,60,0,1
90375,-90.9090909090909,4,2,1,70,0,1
97031,-100,4,2,1,40,0,0
101625,-100,4,2,1,10,0,0

[Colours]
Combo1 : 119,119,255
Combo2 : 249,231,128
Combo3 : 1,254,153
Combo4 : 250,97,97

[HitObjects]
160,304,5250,6,0,L|152:240,1,45,2|0,0:0|0:0,0:0:0:0:
272,168,5437,2,0,L|280:232,1,45,2|0,0:0|0:0,0:0:0:0:
142,158,5625,6,0,L|125:33,1,90,6|0,0:0|0:0,0:0:0:0:
127,46,5906,1,0,0:0:0:0:
123,23,6000,1,8,0:0:0:0:
43,131,6187,1,0,0:0:0:0:
217,69,6375,2,0,P|264:60|333:80,1,90
389,176,6750,2,0,L|401:277,1,90,8|0,0:0|0:0,0:0:0:0:
378,96,7125,5,2,0:0:0:0:
320,248,7312,1,0,0:0:0:0:
320,248,7406,1,0,0:0:0:0:
320,248,7500,1,10,0:0:0:0:
473,198,7687,2,0,P|481:143|456:86,1,90,2|0,0:0|0:0,0:0:0:0:
370,21,8062,2,0,L|267:29,1,90,2|8,0:0|0:0,0:0:0:0:
143,39,8437,1,0,0:0:0:0:
152,178,8625,6,0,L|159:278,1,90,2|0,0:0|0:0,0:0:0:0:
161,290,8906,1,0,0:0:0:0:
162,312,9000,1,8,0:0:0:0:
62,203,9187,2,0,L|70:101,1,90,2|0,0:0|0:0,0:0:0:0:
230,178,9562,1,0,0:0:0:0:
62,203,9750,1,8,0:0:0:0:
141,88,9937,1,0,0:0:0:0:
172,268,10125,6,0,P|224:286|274:278,1,90,4|0,0:0|0:0,0:0:0:0:
280,279,10406,1,0,0:0:0:0:
301,272,10500,1,8,0:0:0:0:
422,236,10687,1,0,0:0:0:0:
320,368,10875,1,6,0:0:0:0:
340,184,11062,1,0,0:0:0:0:
495,288,11250,1,10,0:0:0:0:
301,272,11437,1,2,0:0:0:0:
449,155,11625,6,0,P|459:103|439:40,1,90,6|0,0:0|0:0,0:0:0:0:
444,45,11906,1,0,0:0:0:0:
432,25,12000,1,8,0:0:0:0:
315,90,12187,1,0,0:0:0:0:
181,41,12375,1,0,0:0:0:0:
320,8,12562,1,0,0:0:0:0:
256,150,12750,2,0,P|245:205|256:256,1,90,10|0,0:0|0:0,0:0:0:0:
402,99,13125,6,0,B|373:105|373:105|301:86,1,90,6|0,0:0|0:0,0:0:0:0:
181,41,13500,1,8,0:0:0:0:
256,150,13687,1,0,0:0:0:0:
164,21,13875,2,0,L|159:120,1,90,2|0,0:0|0:0,0:0:0:0:
159,133,14156,1,0,0:0:0:0:
157,155,14250,1,8,0:0:0:0:
255,47,14437,1,0,0:0:0:0:
77,111,14625,6,0,L|72:210,1,90,6|0,0:0|0:0,0:0:0:0:
260,239,15000,2,0,L|255:149,1,90,8|0,0:0|0:0,0:0:0:0:
180,274,15375,2,0,P|215:313|262:327,1,90
271,328,15656,1,0,0:0:0:0:
293,325,15750,1,8,0:0:0:0:
422,287,15937,1,0,0:0:0:0:
344,154,16125,6,0,L|254:149,1,90
180,274,16500,2,0,L|269:269,1,90,8|0,0:0|0:0,0:0:0:0:
413,200,16875,2,0,P|427:150|409:103,1,90
406,94,17156,1,0,0:0:0:0:
391,77,17250,2,0,L|301:72,1,90,8|0,0:0|0:0,0:0:0:0:
135,61,17625,5,2,0:0:0:0:
268,168,17812,1,2,0:0:0:0:
222,27,18000,1,2,0:0:0:0:
152,160,18187,2,0,B|127:223|127:223|140:295,1,135,2|0,0:0|0:0,0:0:0:0:
148,324,18562,2,0,B|199:315|199:315|245:327|245:327|293:319,1,135,2|0,0:0|0:0,0:0:0:0:
313,324,18937,2,0,P|364:302|304:258,1,135,2|0,0:0|0:0,0:0:0:0:
304,246,19312,1,2,0:0:0:0:
434,349,19500,6,0,P|449:298|440:244,1,90,10|0,0:0|0:0,0:0:0:0:
441,239,19781,1,0,0:0:0:0:
433,217,19875,1,0,0:0:0:0:
394,90,20062,1,0,0:0:0:0:
346,239,20250,1,8,0:0:0:0:
474,147,20437,1,0,0:0:0:0:
311,77,20625,6,0,L|203:83,2,90,4|0|0,0:0|0:0|0:0,0:0:0:0:
472,66,21187,1,0,0:0:0:0:
433,217,21375,1,0,0:0:0:0:
394,90,21562,1,0,0:0:0:0:
346,239,21750,1,0,0:0:0:0:
474,147,21937,1,0,0:0:0:0:
322,157,22125,6,0,L|213:166,1,90
82,178,22500,1,0,0:0:0:0:
171,316,22687,2,0,P|178:261|164:217,1,90
134,77,23062,1,0,0:0:0:0:
0,204,23250,1,8,0:0:0:0:
155,156,23437,1,0,0:0:0:0:
42,53,23625,6,0,L|51:165,1,90
64,288,24000,1,0,0:0:0:0:
227,257,24187,2,0,P|277:253|326:260,2,90
98,203,24750,1,0,0:0:0:0:
155,339,24937,1,0,0:0:0:0:
180,188,25125,6,0,P|188:135|176:79,1,90
67,32,25500,1,0,0:0:0:0:
243,17,25687,1,8,0:0:0:0:
98,117,25875,1,0,0:0:0:0:
269,143,26062,1,8,0:0:0:0:
166,22,26250,2,0,L|175:134,1,90
176,134,26531,1,0,0:0:0:0:
178,156,26625,5,0,0:0:0:0:
252,304,26812,2,0,L|263:201,1,90
276,71,27187,1,0,0:0:0:0:
348,214,27375,1,0,0:0:0:0:
195,173,27562,1,0,0:0:0:0:
364,135,27750,1,0,0:0:0:0:
344,288,27937,1,0,0:0:0:0:
439,169,28125,6,0,P|439:101|324:63,1,180
212,108,28687,2,0,P|154:114|99:97,1,90
1,30,29062,1,0,0:0:0:0:
141,18,29250,1,8,0:0:0:0:
30,119,29437,1,0,0:0:0:0:
86,245,29625,6,0,B|176:282|167:204|259:237,1,180
378,259,30187,1,0,0:0:0:0:
222,160,30375,2,0,P|174:228|246:325,1,180
378,259,30937,1,2,0:0:0:0:
384,228,31031,1,0,0:0:0:0:
389,196,31125,5,2,0:0:0:0:
455,315,31312,1,2,0:0:0:0:
293,260,31500,1,2,0:0:0:0:
478,192,31687,2,0,P|482:130|467:83,1,90,10|0,0:0|0:0,0:0:0:0:
319,14,32062,1,10,0:0:0:0:
388,169,32250,1,2,0:0:0:0:
438,17,32437,1,10,0:0:0:0:
289,161,32625,6,0,L|297:354,1,180,2|0,0:0|0:0,0:0:0:0:
378,259,33187,1,0,0:0:0:0:
214,317,33375,1,0,0:0:0:0:
374,357,33562,1,0,0:0:0:0:
457,255,33750,2,0,P|463:203|451:146,1,90
319,80,34125,6,0,P|313:124|319:168,1,90
377,306,34500,1,0,0:0:0:0:
256,246,34687,2,0,P|211:239|167:245,1,90
11,277,35062,1,0,0:0:0:0:
125,165,35250,1,8,0:0:0:0:
91,330,35437,1,0,0:0:0:0:
31,161,35625,6,0,P|28:104|37:48,1,90
155,20,36000,1,0,0:0:0:0:
240,148,36187,2,0,L|235:252,2,90
248,17,36750,1,0,0:0:0:0:
155,123,36937,1,0,0:0:0:0:
315,87,37125,6,0,L|433:64,1,90
248,17,37500,1,0,0:0:0:0:
324,166,37687,1,2,0:3:0:0:
408,56,37875,1,0,0:0:0:0:
244,102,38062,1,2,0:3:0:0:
428,147,38250,1,8,0:0:0:0:
251,194,38437,1,0,0:0:0:0:
251,194,38531,1,0,0:0:0:0:
251,194,38625,5,0,0:0:0:0:
128,144,38812,2,0,P|77:136|23:147,1,90
56,296,39187,1,0,0:0:0:0:
172,208,39375,1,0,0:0:0:0:
216,344,39562,1,0,0:0:0:0:
100,232,39750,1,0,0:0:0:0:
78,368,39937,1,0,0:0:0:0:
201,274,40125,6,0,B|250:266|250:266|304:276,1,90
391,329,40500,1,0,0:0:0:0:
376,184,40687,2,0,L|363:75,1,90
461,207,41062,1,0,0:0:0:0:
292,166,41250,1,8,0:0:0:0:
444,37,41437,1,0,0:0:0:0:
444,37,41531,1,0,0:0:0:0:
444,37,41625,6,0,L|455:135,1,90
476,313,42000,1,4,0:0:0:0:
476,313,42375,5,0,0:0:0:0:
271,252,42562,1,8,0:0:0:0:
371,381,42750,1,4,0:0:0:0:
343,181,42937,6,0,P|292:154|211:170,1,135,12|0,0:0|0:0,0:0:0:0:
189,188,43312,1,0,0:0:0:0:
339,80,43500,1,4,0:0:0:0:
159,37,43687,1,0,0:0:0:0:
283,155,43875,1,0,0:0:0:0:
260,9,44062,1,8,0:0:0:0:
260,9,44156,1,8,0:0:0:0:
260,9,44250,1,8,0:0:0:0:
189,188,44437,1,8,0:0:0:0:
178,221,44530,1,8,0:0:0:0:
164,254,44625,6,0,P|102:281|60:268,1,90,4|0,0:0|0:0,0:0:0:0:
60,271,44906,1,0,0:0:0:0:
41,257,45000,1,8,0:0:0:0:
33,121,45187,2,0,L|26:22,1,90
195,98,45562,2,0,L|188:197,1,90,0|8,0:0|0:0,0:0:0:0:
180,324,45937,1,0,0:0:0:0:
298,253,46125,6,0,P|346:245|409:265,1,90
406,263,46406,1,0,0:0:0:0:
421,278,46500,1,8,0:0:0:0:
388,122,46687,2,0,L|384:20,1,90
313,168,47062,1,0,0:0:0:0:
468,120,47250,1,8,0:0:0:0:
356,20,47437,1,0,0:0:0:0:
224,191,47625,6,0,B|207:237|223:273|223:273|211:314|211:314|226:365,1,180,0|8,0:0|0:0,0:0:0:0:
318,234,48187,2,0,P|326:177|305:129,1,90
138,105,48562,1,0,0:0:0:0:
263,78,48750,1,8,0:0:0:0:
149,216,48937,1,2,0:0:0:0:
127,244,49031,1,0,0:0:0:0:
107,274,49125,5,2,0:0:0:0:
224,191,49312,1,2,0:0:0:0:
64,161,49500,1,10,0:0:0:0:
190,280,49687,2,0,L|339:272,1,135,2|0,0:0|0:0,0:0:0:0:
351,271,50062,1,2,0:0:0:0:
169,282,50250,1,10,0:0:0:0:
258,367,50437,1,2,0:0:0:0:
224,191,50625,6,0,L|209:88,1,90,4|0,0:0|0:0,0:0:0:0:
114,176,51000,1,8,0:0:0:0:
190,280,51187,2,0,P|242:284|289:262,1,90
395,199,51562,2,0,P|437:184|481:189,1,90,0|8,0:0|0:0,0:0:0:0:
452,321,51937,1,0,0:0:0:0:
319,207,52125,6,0,L|309:113,1,90
292,0,52500,1,8,0:0:0:0:
240,173,52687,2,0,L|230:262,1,90
171,129,53062,1,0,0:0:0:0:
319,207,53250,2,0,P|371:219|395:143,1,135,8|0,0:0|0:0,0:0:0:0:
400,129,53625,6,0,L|411:304,1,161.999995056153,4|0,0:0|0:0,0:0:0:0:
413,322,54000,1,8,0:0:0:0:
269,272,54187,2,0,P|208:251|103:279,1,161.999995056153,4|0,0:0|0:0,0:0:0:0:
90,292,54562,1,8,0:0:0:0:
79,59,54750,2,0,L|86:199,1,107.999996704102,4|0,0:0|0:0,0:0:0:0:
94,317,55125,5,0,0:0:0:0:
11,204,55312,1,0,0:0:0:0:
158,140,55500,2,0,P|206:130|254:144,1,90,8|0,0:0|0:0,0:0:0:0:
323,210,55875,2,0,P|366:219|410:209,1,90
500,126,56250,2,0,L|495:17,1,90,8|0,0:0|0:0,0:0:0:0:
503,228,56625,5,0,0:0:0:0:
493,305,56812,5,0,0:0:0:0:
491,313,56906,1,0,0:0:0:0:
490,322,56999,1,2,0:0:0:0:
488,331,57093,1,0,0:0:0:0:
487,340,57187,1,0,0:0:0:0:
486,349,57280,1,0,0:0:0:0:
484,357,57375,5,2,0:0:0:0:
447,371,57468,1,0,0:0:0:0:
407,378,57562,1,0,0:0:0:0:
367,374,57656,1,0,0:0:0:0:
330,358,57750,5,6,0:0:0:0:
293,342,57843,1,0,0:0:0:0:
253,333,57937,1,0,0:0:0:0:
213,335,58031,1,0,0:0:0:0:
180,346,58125,6,0,P|121:360|65:343,1,99.0000030212403,6|0,0:0|0:0,0:0:0:0:
28,208,58500,1,8,0:0:0:0:
0,360,58687,1,0,0:0:0:0:
111,203,58875,2,0,L|117:91,1,99.0000030212403,2|0,0:0|0:0,0:0:0:0:
191,193,59250,1,8,0:0:0:0:
36,109,59437,1,2,0:0:0:0:
223,43,59625,6,0,L|335:49,2,99.0000030212403,0|0|8,0:0|0:0|0:0,0:0:0:0:
34,29,60187,1,2,0:0:0:0:
208,121,60375,1,2,0:0:0:0:
25,117,60562,1,2,0:0:0:0:
223,43,60750,1,10,0:0:0:0:
119,194,60937,1,2,0:0:0:0:
136,18,61125,6,0,L|128:118,1,99.0000030212403,2|0,0:0|0:0,0:0:0:0:
111,316,61500,1,8,0:0:0:0:
217,204,61687,1,0,0:0:0:0:
49,145,61875,2,0,P|35:203|58:256,1,99.0000030212403,2|0,0:0|0:0,0:0:0:0:
202,329,62250,1,8,0:0:0:0:
37,357,62437,1,2,0:0:0:0:
217,204,62625,6,0,L|333:214,2,99.0000030212403,0|0|8,0:0|0:0|0:0,0:0:0:0:
36,192,63187,1,2,0:0:0:0:
204,111,63375,1,2,0:0:0:0:
236,296,63562,1,2,0:0:0:0:
384,128,63750,1,10,0:0:0:0:
217,204,63937,1,2,0:0:0:0:
340,320,64125,6,0,B|384:328|384:328|448:320,1,99.0000030212403,6|0,0:0|0:0,0:0:0:0:
315,212,64500,1,8,0:0:0:0:
202,302,64687,1,0,0:0:0:0:
204,111,64875,2,0,L|210:-2,1,99.0000030212403,2|0,0:0|0:0,0:0:0:0:
131,149,65250,1,8,0:0:0:0:
291,114,65437,1,2,0:0:0:0:
133,57,65625,6,0,P|79:49|26:57,1,99.0000030212403
87,228,66000,2,0,P|141:236|194:228,1,99.0000030212403,8|8,0:0|0:3,0:0:0:0:
306,151,66375,2,0,L|298:29,1,99.0000030212403,2|4,0:0|0:3,0:0:0:0:
210,153,66750,1,10,0:0:0:0:
390,191,66937,1,2,0:0:0:0:
224,71,67125,6,0,P|147:100|147:207,1,198.000006042481,4|8,0:0|0:0,0:0:0:0:
283,362,67687,5,4,0:0:0:0:
378,101,68062,1,4,0:0:0:0:
108,165,68437,5,4,0:0:0:0:
297,213,68625,1,0,0:0:0:0:
108,273,68812,1,0,0:0:0:0:
257,119,69000,1,8,0:0:0:0:
64,161,69187,1,2,0:0:0:0:
326,213,69375,1,2,0:0:0:0:
137,281,69562,1,2,0:0:0:0:
172,77,69750,1,6,0:0:0:0:
133,308,69937,1,2,0:0:0:0:
257,119,70125,6,0,P|313:99|376:114,1,99.0000030212403,6|0,0:0|0:0,0:0:0:0:
489,223,70500,1,8,0:0:0:0:
450,64,70687,1,0,0:0:0:0:
402,240,70875,2,0,L|407:355,1,99.0000030212403,2|0,0:0|0:0,0:0:0:0:
320,181,71250,1,8,0:0:0:0:
489,223,71437,1,2,0:0:0:0:
373,95,71625,6,0,P|370:41|376:-7,2,99.0000030212403,0|0|8,0:0|0:0|0:0,0:0:0:0:
433,320,72187,1,2,0:0:0:0:
218,249,72375,1,2,0:0:0:0:
396,200,72562,1,2,0:0:0:0:
252,343,72750,1,10,0:0:0:0:
454,319,72937,1,2,0:0:0:0:
193,241,73125,6,0,L|89:250,1,99.0000030212403,2|0,0:0|0:0,0:0:0:0:
233,345,73500,1,8,0:0:0:0:
252,168,73687,1,0,0:0:0:0:
95,250,73875,2,0,L|104:354,1,99.0000030212403,2|0,0:0|0:0,0:0:0:0:
8,240,74250,1,8,0:0:0:0:
180,272,74437,1,2,0:0:0:0:
80,172,74625,6,0,P|72:104|84:60,1,99.0000030212403
244,124,75000,2,0,P|252:192|240:236,1,99.0000030212403,8|0,0:0|0:0,0:0:0:0:
120,348,75375,1,2,0:0:0:0:
272,296,75562,2,0,B|361:265|361:354|474:306,1,198.000006042481,2|0,0:0|0:0,0:0:0:0:
399,43,76125,6,0,L|411:235,1,148.50000453186,6|0,0:0|0:0,0:0:0:0:
411,231,76500,1,8,0:0:0:0:
484,86,76687,1,0,0:0:0:0:
318,143,76875,1,0,0:0:0:0:
502,172,77062,1,0,0:0:0:0:
331,54,77250,1,8,0:0:0:0:
487,71,77437,1,0,0:0:0:0:
305,151,77625,6,0,P|239:160|196:152,1,99.0000030212403,4|0,0:0|0:0,0:0:0:0:
183,150,77906,1,0,0:0:0:0:
159,143,78000,1,8,0:0:0:0:
19,49,78187,1,0,0:0:0:0:
200,28,78375,1,2,0:0:0:0:
66,154,78562,2,0,P|21:245|70:340,1,198.000006042481,2|0,0:0|0:0,0:0:0:0:
300,231,79125,6,0,L|140:241,1,148.50000453186,6|0,0:0|0:0,0:0:0:0:
112,243,79500,1,8,0:0:0:0:
262,320,79687,1,0,0:0:0:0:
149,154,79875,1,0,0:0:0:0:
56,328,80062,1,0,0:0:0:0:
213,237,80250,1,8,0:0:0:0:
112,243,80437,1,0,0:0:0:0:
161,326,80625,5,0,0:0:0:0:
221,148,80812,2,0,B|232:99|232:99|221:43,1,99.0000030212403,8|8,0:3|0:0,0:0:0:0:
78,149,81187,2,0,B|67:198|67:198|78:254,1,99.0000030212403,4|0,0:3|0:0,0:0:0:0:
177,379,81562,1,2,0:0:0:0:
213,237,81750,1,10,0:0:0:0:
51,334,81937,1,2,0:0:0:0:
233,230,82125,6,0,P|286:223|338:232,1,99.0000030212403,2|0,0:0|0:0,0:0:0:0:
446,332,82500,1,8,0:0:0:0:
418,165,82687,2,0,L|404:60,1,99.0000030212403,2|0,0:0|0:0,0:0:0:0:
334,218,83062,1,0,0:0:0:0:
502,128,83250,1,8,0:0:0:0:
300,41,83437,6,0,L|144:48,1,148.50000453186,2|0,0:0|0:0,0:0:0:0:
111,48,83812,1,2,0:0:0:0:
376,37,84000,1,6,0:0:0:0:
376,37,84375,5,2,0:0:0:0:
451,219,84562,1,2,0:0:0:0:
490,43,84750,1,6,0:0:0:0:
301,145,84937,1,2,0:0:0:0:
474,129,85125,6,0,L|363:138,1,99.0000030212403,6|0,0:0|0:0,0:0:0:0:
185,152,85500,1,8,0:0:0:0:
341,306,85687,2,0,L|336:189,1,99.0000030212403,2|0,0:0|0:0,0:0:0:0:
268,46,86062,2,0,L|263:163,1,99.0000030212403,2|8,0:0|0:0,0:0:0:0:
254,299,86437,1,0,0:0:0:0:
419,240,86625,6,0,P|422:180|411:122,1,99.0000030212403,2|0,0:0|0:0,0:0:0:0:
268,46,87000,1,8,0:0:0:0:
163,166,87187,2,0,L|168:283,1,99.0000030212403,2|0,0:0|0:0,0:0:0:0:
332,192,87562,2,0,L|337:75,1,99.0000030212403,2|8,0:0|0:0,0:0:0:0:
185,10,87937,1,0,0:0:0:0:
74,129,88125,6,0,P|116:156|176:166,1,99.0000030212403,2|0,0:0|0:0,0:0:0:0:
332,192,88500,1,8,0:0:0:0:
241,26,88687,2,0,L|246:143,1,99.0000030212403,2|0,0:0|0:0,0:0:0:0:
327,291,89062,2,0,L|333:176,1,99.0000030212403,2|8,0:0|0:0,0:0:0:0:
342,25,89437,1,2,0:0:0:0:
419,184,89625,5,2,0:0:0:0:
248,209,89812,1,8,0:3:0:0:
379,109,90000,1,8,0:0:0:0:
470,290,90187,1,4,0:3:0:0:
505,135,90375,1,4,0:0:0:0:
335,227,90562,1,2,0:0:0:0:
508,213,90750,1,10,0:0:0:0:
313,151,90937,1,2,0:0:0:0:
416,26,91125,6,0,L|408:152,1,99.0000030212403,6|0,0:0|0:0,0:0:0:0:
399,300,91500,1,8,0:0:0:0:
313,151,91687,2,0,L|305:277,1,99.0000030212403,2|0,0:0|0:0,0:0:0:0:
409,124,92062,1,2,0:0:0:0:
225,174,92250,1,8,0:0:0:0:
399,213,92437,1,0,0:0:0:0:
274,86,92625,6,0,P|218:73|169:89,1,99.0000030212403,2|0,0:0|0:0,0:0:0:0:
29,178,93000,1,8,0:0:0:0:
118,300,93187,2,0,L|272:288,1,148.50000453186,2|0,0:0|0:0,0:0:0:0:
305,285,93562,1,2,0:0:0:0:
167,213,93750,1,10,0:0:0:0:
260,371,93937,1,2,0:0:0:0:
286,182,94125,5,4,0:0:0:0:
73,241,94312,1,4,0:0:0:0:
334,91,94687,5,4,0:0:0:0:
225,283,94874,1,4,0:0:0:0:
276,4,95250,5,4,0:0:0:0:
334,216,95437,1,4,0:0:0:0:
228,70,95812,5,4,0:0:0:0:
418,178,95999,1,4,0:0:0:0:
340,52,96187,1,2,0:0:0:0:
334,91,96281,1,2,0:0:0:0:
328,130,96375,1,6,0:0:0:0:
299,313,96562,1,0,0:0:0:0:
418,178,96750,1,2,0:0:0:0:
196,225,96937,5,4,0:0:0:0:
256,192,97031,12,0,101625,0:0:0:0:
