osu file format v14

[General]
AudioFilename: Chata- Precious Wing.mp3
AudioLeadIn: 0
PreviewTime: 56718
Countdown: 0
SampleSet: Soft
StackLeniency: 0.7
Mode: 0
LetterboxInBreaks: 0
WidescreenStoryboard: 0

[Editor]
Bookmarks: 5625,56625,58125,97031,101625
DistanceSpacing: 1.3
BeatDivisor: 1
GridSize: 16
TimelineZoom: 0.9

[Metadata]
Title:Precious Wing (Movie ver)
TitleUnicode:Precious Wing (Movie ver)
Artist:Chata
ArtistUnicode:茶太
Creator:Log Off Now
Version:Meep's Hard
Source:この大空に、翼をひろげて
Tags:if my heart had wings Kono Oozora Ni Tsubasa Wo Hirogete moenovel pulltop eroge visual novel short version _meep_ hb24 momochikun
BeatmapID:1149996
BeatmapSetID:542186

[Difficulty]
HPDrainRate:6
CircleSize:3.8
OverallDifficulty:6
ApproachRate:8
SliderMultiplier:1.6
SliderTickRate:1

[Events]
//Background and Video events
0,0,"ageha.jpg",0,0
Video,0,"preciouswingop.avi"
//Break Periods
//Storyboard Layer 0 (Background)
//Storyboard Layer 1 (Fail)
//Storyboard Layer 2 (Pass)
//Storyboard Layer 3 (Foreground)
//Storyboard Sound Samples

[TimingPoints]
2625,375,4,2,1,40,1,0
5625,-100,4,2,1,50,0,0
20625,-100,4,2,1,40,0,0
43500,-100,4,2,2,50,0,0
44625,-100,4,2,1,60,0,0
56812,-90.9090909090909,4,2,1,35,0,0
57000,-90.9090909090909,4,2,1,40,0,0
57375,-90.9090909090909,4,2,1,50,0,0
57750,-90.9090909090909,4,2,2,50,0,0
58125,-90.9090909090909,4,2,1,70,0,1
64606,-90.9090909090909,4,2,1,70,0,1
66375,-90.9090909090909,4,2,1,70,0,1
69750,-90.9090909090909,4,2,2,70,0,1
70125,-90.9090909090909,4,2,1,70,0,1
81187,-90.9090909090909,4,2,1,60,0,1
81375,-90.9090909090909,4,2,1,70,0,1
84750,-100,4,2,2,70,0,1
85125,-100,4,2,1,70,0,1
89812,-100,4,2,1,60,0,1
90000,-100,4,2,1,70,0,1
90187,-100,4,2,1,60,0,1
90375,-100,4,2,1,70,0,1
97031,-100,4,2,1,40,0,0
101625,-100,4,2,1,10,0,0

[Colours]
Combo1 : 255,74,74
Combo2 : 249,231,128
Combo3 : 128,128,255
Combo4 : 39,243,177

[HitObjects]
66,230,5250,6,0,L|128:225,3,40,2|0|2|0,0:0|0:0|0:0|0:0,0:0:0:0:
126,199,5625,2,0,L|119:301,1,80,6|0,0:0|0:0,0:0:0:0:
204,344,6000,1,8,0:0:0:0:
218,239,6187,1,0,0:0:0:0:
307,298,6375,2,0,L|394:301,1,80,0|0,0:0|0:0,0:0:0:0:
489,274,6750,1,8,0:0:0:0:
411,203,6937,1,0,0:0:0:0:
308,216,7125,6,0,P|259:225|181:147,1,160,2|10,0:0|0:0,0:0:0:0:
270,135,7687,2,0,L|198:283,2,160,2|2|0,0:0|0:0|0:0,0:0:0:0:
347,51,8625,6,0,B|386:34|425:75|458:42|458:42|432:5|406:20,1,160,2|8,0:0|0:0,0:0:0:0:
276,13,9187,2,0,P|268:67|356:132,1,160,2|0,0:0|0:0,0:0:0:0:
430,143,9750,2,0,P|451:186|446:229,1,80,8|0,0:0|0:0,0:0:0:0:
415,301,10125,2,0,L|318:307,2,80,4|0|8,0:0|0:0|0:0,0:0:0:0:
505,353,10687,1,0,0:0:0:0:
506,248,10875,6,0,B|500:188|500:188|512:138|512:138|509:86,1,160,6|10,0:0|0:0,0:0:0:0:
413,165,11437,1,2,0:0:0:0:
427,62,11625,6,0,P|368:18|276:58,1,160,6|8,0:0|0:0,0:0:0:0:
233,118,12187,1,0,0:0:0:0:
143,154,12375,2,0,P|104:157|66:146,1,80,0|0,0:0|0:0,0:0:0:0:
221,212,12750,2,0,P|275:213|315:194,1,80,10|0,0:0|0:0,0:0:0:0:
400,156,13125,6,0,B|445:155|475:184|475:184|481:143|521:104,1,160,6|8,0:0|0:0,0:0:0:0:
425,54,13687,1,0,0:0:0:0:
400,156,13875,2,0,P|408:194|402:233,1,80,2|0,0:0|0:0,0:0:0:0:
304,196,14250,2,0,P|295:157|302:118,1,80,8|0,0:0|0:0,0:0:0:0:
347,23,14625,6,0,L|175:29,1,160,6|8,0:0|0:0,0:0:0:0:
81,58,15187,1,0,0:0:0:0:
29,156,15375,2,0,P|26:206|52:254,1,80,0|0,0:0|0:0,0:0:0:0:
126,307,15750,2,0,P|172:313|216:297,1,80,8|0,0:0|0:0,0:0:0:0:
319,276,16125,6,0,L|322:380,2,80,0|0|8,0:0|0:0|0:0,0:0:0:0:
317,173,16687,1,0,0:0:0:0:
391,123,16875,2,0,P|405:164|399:205,1,80,0|0,0:0|0:0,0:0:0:0:
235,207,17250,2,0,P|228:164|241:124,1,80,8|0,0:0|0:0,0:0:0:0:
312,59,17625,6,0,L|316:156,2,80,2|2|2,0:0|0:0|0:0,0:0:0:0:
234,4,18187,2,0,L|154:7,1,80,2|0,0:0|0:0,0:0:0:0:
83,72,18562,2,0,L|86:151,1,80,2|0,0:0|0:0,0:0:0:0:
154,220,18937,6,0,P|190:188|299:198,1,160,2|2,0:0|0:0,0:0:0:0:
352,273,19500,2,0,P|382:240|388:178,1,80,10|0,0:0|0:0,0:0:0:0:
464,269,19875,1,0,0:0:0:0:
464,269,20062,1,0,0:0:0:0:
429,367,20250,1,8,0:0:0:0:
429,367,20437,1,0,0:0:0:0:
309,364,20625,5,4,0:0:0:0:
242,221,21000,1,0,0:0:0:0:
242,221,21188,2,0,P|276:202|316:200,2,80,0|0|0,0:0|0:0|0:0,0:0:0:0:
201,312,21750,2,8,P|218:346|249:371,1,80,0|0,0:0|0:0,0:0:0:0:
350,370,22125,2,8,P|396:346|395:237,1,160,0|0,0:0|0:0,0:0:0:0:
316,200,22687,2,0,B|269:195|249:160|249:160|229:195|177:204,1,160,0|0,0:0|0:0,0:0:0:0:
82,225,23250,2,0,P|52:189|47:135,1,80,8|0,0:0|0:0,0:0:0:0:
70,55,23625,6,0,L|165:44,1,80,0|0,0:0|0:0,0:0:0:0:
254,45,24000,1,0,0:0:0:0:
228,146,24187,2,0,P|216:200|228:249,2,80,0|0|0,0:0|0:0|0:0,0:0:0:0:
320,196,24750,2,0,P|332:250|320:299,1,80,0|0,0:0|0:0,0:0:0:0:
253,346,25125,2,0,L|166:342,2,80,0|0|0,0:0|0:0|0:0,0:0:0:0:
328,273,25687,2,0,P|331:234|320:196,1,80,8|0,0:0|0:0,0:0:0:0:
274,101,26062,1,8,0:0:0:0:
274,101,26250,1,0,0:0:0:0:
172,282,26625,5,0,0:0:0:0:
80,95,27000,1,0,0:0:0:0:
80,95,27187,2,0,P|85:55|79:16,2,80,0|0|0,0:0|0:0|0:0,0:0:0:0:
33,179,27750,2,0,P|27:222|31:281,1,80,0|0,0:0|0:0,0:0:0:0:
83,337,28125,2,0,B|124:315|164:330|164:330|206:344|253:324,1,160,0|0,0:0|0:0,0:0:0:0:
328,309,28687,2,0,P|339:258|321:197,1,80,0|0,0:0|0:0,0:0:0:0:
281,134,29062,1,0,0:0:0:0:
345,51,29250,1,8,0:0:0:0:
394,141,29437,1,0,0:0:0:0:
335,230,29625,6,0,P|276:263|184:258,2,160,0|0|0,0:0|0:0|0:0,0:0:0:0:
394,141,30562,1,0,0:0:0:0:
345,51,30750,1,0,0:0:0:0:
281,134,30937,1,2,0:0:0:0:
272,138,31031,1,0,0:0:0:0:
263,142,31125,2,0,P|217:154|177:160,2,80,2|2|2,0:0|0:0|0:0,0:0:0:0:
405,90,31687,2,0,P|410:168|405:253,1,160,10|10,0:0|0:0,0:0:0:0:
318,335,32250,2,0,P|282:329|210:333,1,80,2|10,0:0|0:0,0:0:0:0:
139,356,32625,5,2,0:0:0:0:
184,176,33000,1,0,0:0:0:0:
184,176,33187,2,0,L|104:172,2,80,0|0|0,0:0|0:0|0:0,0:0:0:0:
241,272,33750,2,0,P|281:248|363:269,1,120,0|0,0:0|0:0,0:0:0:0:
351,259,34125,2,0,L|372:168,1,80,0|0,0:0|0:0,0:0:0:0:
395,72,34500,1,0,0:0:0:0:
301,10,34687,2,0,P|230:3|172:87,1,160,0|0,0:0|0:0,0:0:0:0:
151,174,35250,1,8,0:0:0:0:
253,155,35437,1,0,0:0:0:0:
219,255,35625,6,0,P|203:287|174:324,2,80,0|0|0,0:0|0:0|0:0,0:0:0:0:
320,229,36187,2,0,P|336:261|365:298,1,80,0|0,0:0|0:0,0:0:0:0:
444,362,36562,1,0,0:0:0:0:
500,274,36750,2,0,P|504:205|493:164,1,80,0|0,0:0|0:0,0:0:0:0:
484,84,37125,2,0,L|377:90,1,80,0|0,0:0|0:0,0:0:0:0:
320,143,37500,1,0,0:0:0:0:
244,78,37687,1,2,0:3:0:0:
182,156,37875,2,0,P|167:192|164:232,1,80,0|2,0:0|0:3,0:0:0:0:
255,292,38250,2,0,P|270:256|271:212,1,80,8|0,0:0|0:0,0:0:0:0:
159,340,38625,5,0,0:0:0:0:
439,251,39000,1,0,0:0:0:0:
439,251,39187,2,0,P|444:307|432:341,2,80,0|0|0,0:0|0:0|0:0,0:0:0:0:
398,170,39750,2,0,L|320:150,1,80,0|0,0:0|0:0,0:0:0:0:
233,127,40125,2,0,P|233:172|319:242,2,160,0|0|0,0:0|0:0|0:0,0:0:0:0:
324,103,41062,1,0,0:0:0:0:
412,61,41250,1,8,0:0:0:0:
485,127,41437,6,0,L|483:300,1,160,0|0,0:0|0:0,0:0:0:0:
383,338,42000,2,0,L|384:230,1,80,4|0,0:0|0:0,0:0:0:0:
277,292,42375,1,0,0:0:0:0:
299,193,42562,1,8,0:0:0:0:
276,93,42750,1,4,0:0:0:0:
180,60,42937,2,0,P|133:63|71:170,1,160,12|0,0:0|0:0,0:0:0:0:
72,242,43500,2,0,P|124:265|161:258,1,80,4|0,0:0|0:0,0:0:0:0:
215,327,43875,2,0,P|238:275|231:238,1,80,0|8,0:0|0:0,0:0:0:0:
297,182,44250,2,0,P|245:159|208:166,1,80,8|8,0:0|0:0,0:0:0:0:
203,167,44531,1,8,0:0:0:0:
186,176,44625,6,0,L|198:15,1,160,4|8,0:0|0:0,0:0:0:0:
279,62,45187,2,0,P|322:72|364:65,1,80,0|0,0:0|0:0,0:0:0:0:
431,22,45562,2,0,P|474:12|516:19,1,80,0|8,0:0|0:0,0:0:0:0:
476,102,45937,2,0,B|483:167|483:167|452:286,1,160,0|0,0:0|0:0,0:0:0:0:
392,337,46500,1,8,0:0:0:0:
299,292,46687,2,0,P|241:278|131:320,1,160,0|0,0:0|0:0,0:0:0:0:
60,354,47250,2,0,P|58:301|63:258,1,80,8|0,0:0|0:0,0:0:0:0:
85,175,47625,6,0,L|276:170,1,160,0|8,0:0|0:0,0:0:0:0:
330,213,48187,2,0,P|358:184|470:205,1,160
507,297,48750,1,8,0:0:0:0:
409,256,48937,1,2,0:0:0:0:
409,256,49031,1,0,0:0:0:0:
409,256,49125,2,0,L|400:152,1,80,2|2,0:0|0:0,0:0:0:0:
390,75,49500,1,10,0:0:0:0:
289,50,49687,2,0,P|255:102|280:199,1,160,2|2,0:0|0:0,0:0:0:0:
327,283,50250,1,10,0:0:0:0:
223,284,50437,1,2,0:0:0:0:
223,284,50531,1,0,0:0:0:0:
223,284,50625,6,0,B|166:281|166:281|113:260|113:260|50:258,1,160,4|8,0:0|0:0,0:0:0:0:
140,158,51187,2,0,B|170:130|209:132|209:132|250:164|314:152,1,160,0|0,0:0|0:0,0:0:0:0:
391,99,51750,1,8,0:0:0:0:
274,70,51937,1,0,0:0:0:0:
274,70,52031,1,0,0:0:0:0:
274,70,52125,6,0,L|228:242,1,160,0|8,0:0|0:0,0:0:0:0:
202,345,52687,2,0,P|231:318|347:334,1,160,0|0,0:0|0:0,0:0:0:0:
453,303,53250,2,0,P|474:266|463:184,1,120,8|0,0:0|0:0,0:0:0:0:
467,191,53625,6,0,L|353:190,1,80,4|0,0:0|0:0,0:0:0:0:
274,191,54000,1,8,0:0:0:0:
464,108,54187,2,0,L|355:108,1,80,4|0,0:0|0:0,0:0:0:0:
271,104,54562,1,8,0:0:0:0:
380,6,54750,6,0,B|338:102|373:177|373:177|419:266|373:349,1,320,4|8,0:0|0:0,0:0:0:0:
280,366,55687,1,0,0:0:0:0:
311,283,55875,2,0,P|311:243|294:208,1,80,0|0,0:0|0:0,0:0:0:0:
146,270,56250,2,0,L|245:264,1,80,8|0,0:0|0:0,0:0:0:0:
396,251,56625,5,0,0:0:0:0:
256,192,56718,12,6,57750,0:0:0:0:
196,195,58125,6,0,B|253:186|253:186|314:196|314:196|378:185,1,176.000005371094,6|8,0:0|0:0,0:0:0:0:
465,123,58687,1,0,0:0:0:0:
506,230,58875,2,0,P|513:292|498:321,1,88.000002685547,2|0,0:0|0:0,0:0:0:0:
393,352,59250,1,8,0:0:0:0:
314,267,59437,2,0,P|297:221|182:226,1,176.000005371094,2|0,0:0|0:0,0:0:0:0:
114,300,60000,1,8,0:0:0:0:
59,208,60187,2,0,L|10:126,2,88.000002685547,2|2|2,0:0|0:0|0:0,0:0:0:0:
128,115,60750,2,0,P|190:128|248:77,1,132.00000402832,10|0,0:0|0:0,0:0:0:0:
242,90,61125,6,0,L|232:196,1,88.000002685547,2|0,0:0|0:0,0:0:0:0:
224,292,61500,1,8,0:0:0:0:
137,217,61687,1,0,0:0:0:0:
60,303,61875,2,0,P|103:298|145:311,1,88.000002685547,2|0,0:0|0:0,0:0:0:0:
251,367,62250,1,8,0:0:0:0:
351,303,62437,2,0,P|367:221|372:128,1,176.000005371094,2|0,0:0|0:0,0:0:0:0:
272,48,63000,1,8,0:0:0:0:
166,104,63187,2,0,P|124:118|68:119,2,88.000002685547,2|2|2,0:0|0:0|0:0,0:0:0:0:
237,194,63750,2,0,P|278:207|322:209,1,88.000002685547,10|2,0:0|0:0,0:0:0:0:
435,218,64125,6,0,B|440:169|402:132|402:132|434:94|423:31,1,176.000005371094,6|8,0:0|0:0,0:0:0:0:
320,62,64687,1,0,0:0:0:0:
221,35,64875,2,0,B|181:12|135:39|135:39|89:65|28:35,1,176.000005371094,2|8,0:0|0:0,0:0:0:0:
4,135,65437,2,0,P|-13:229|24:319,1,176.000005371094,2|0,0:0|0:0,0:0:0:0:
88,355,66000,2,0,P|134:370|192:363,1,88.000002685547,8|8,0:0|0:3,0:0:0:0:
274,362,66375,2,0,B|322:352|367:347|367:347|399:258,1,176.000005371094,2|10,0:0|0:0,0:0:0:0:
441,165,66937,1,2,0:0:0:0:
441,165,67125,6,0,L|491:265,2,88.000002685547,4|0|8,0:0|0:0|0:0,0:0:0:0:
374,82,67687,2,0,P|327:103|304:166,1,88.000002685547,4|0,0:0|0:0,0:0:0:0:
209,179,68062,2,0,P|256:200|279:263,1,88.000002685547,4|0,0:0|0:0,0:0:0:0:
379,246,68437,2,0,P|310:250|249:353,1,176.000005371094,4|0,0:0|0:0,0:0:0:0:
350,344,69000,1,8,0:0:0:0:
460,368,69187,2,8,P|488:334|496:291,1,88.000002685547,2|2,0:0|0:0,0:0:0:0:
487,186,69562,1,2,0:0:0:0:
402,122,69750,1,6,0:0:0:0:
300,153,69937,1,2,0:0:0:0:
300,153,70031,1,0,0:0:0:0:
300,153,70125,6,0,P|229:160|189:58,1,176.000005371094,6|8,0:0|0:0,0:0:0:0:
287,30,70687,1,0,0:0:0:0:
376,127,70875,2,0,P|376:185|344:222,1,88.000002685547,2|0,0:0|0:0,0:0:0:0:
254,242,71250,1,8,0:0:0:0:
147,206,71437,2,0,B|98:189|98:189|26:231|45:302,1,176.000005371094,2|0,0:0|0:0,0:0:0:0:
128,373,72000,1,8,0:0:0:0:
233,329,72187,2,0,L|349:351,2,88.000002685547,2|2|2,0:0|0:0|0:0,0:0:0:0:
252,224,72750,2,0,P|274:179|315:152,1,88.000002685547,10|2,0:0|0:0,0:0:0:0:
433,129,73125,6,0,P|497:114|457:23,1,176.000005371094,2|8,0:0|0:0,0:0:0:0:
354,1,73687,1,0,0:0:0:0:
247,67,73875,2,0,P|193:74|139:54,1,88.000002685547,2|0,0:0|0:0,0:0:0:0:
53,18,74250,1,8,0:0:0:0:
12,127,74437,2,0,L|27:315,1,176.000005371094,2|0,0:0|0:0,0:0:0:0:
138,329,75000,2,0,P|181:308|234:310,1,88.000002685547,8|0,0:0|0:0,0:0:0:0:
323,358,75375,1,2,0:0:0:0:
436,344,75562,2,0,P|421:293|435:160,1,176.000005371094,2|0,0:0|0:0,0:0:0:0:
496,75,76125,6,0,B|436:29|357:76|357:76|308:39|308:39|244:89|171:70,1,352.000010742188,6|0,0:0|0:0,0:0:0:0:
65,36,77062,1,0,0:0:0:0:
96,146,77250,2,0,P|102:203|92:242,1,88.000002685547,8|0,0:0|0:0,0:0:0:0:
46,336,77625,2,0,L|141:329,2,88.000002685547,4|0|8,0:0|0:0|0:0,0:0:0:0:
95,232,78187,1,0,0:0:0:0:
203,268,78375,5,2,0:0:0:0:
305,217,78562,2,0,P|326:163|276:50,1,176.000005371094,2|0,0:0|0:0,0:0:0:0:
213,146,79125,2,0,B|259:161|306:146|306:146|361:129|431:152|431:152|412:112|429:76|429:76|440:41|430:15,1,352.000010742188,6|0,0:0|0:0,0:0:0:0:
508,111,80062,1,0,0:0:0:0:
483,223,80250,2,0,P|477:280|487:319,1,88.000002685547,8|0,0:0|0:0,0:0:0:0:
386,370,80625,6,0,L|271:363,1,88.000002685547,0|8,0:0|0:3,0:0:0:0:
186,340,81000,1,8,0:0:0:0:
73,357,81187,1,4,0:3:0:0:
136,261,81375,2,0,P|144:206|125:166,1,88.000002685547,0|2,0:0|0:0,0:0:0:0:
31,230,81750,1,10,0:0:0:0:
41,116,81937,1,2,0:0:0:0:
132,176,82125,6,0,P|176:173|218:159,2,88.000002685547,2|0|8,0:0|0:0|0:0,0:0:0:0:
41,116,82687,2,0,P|41:75|29:29,1,88.000002685547,2|0,0:0|0:0,0:0:0:0:
149,90,83062,2,0,P|135:132|132:176,1,88.000002685547,0|8,0:0|0:0,0:0:0:0:
178,280,83437,6,0,B|242:339|242:339|344:313,1,176.000005371094,2|2,0:0|0:0,0:0:0:0:
496,263,84000,1,6,0:0:0:0:
496,263,84375,2,0,P|474:214|481:163,1,88.000002685547,2|2,0:0|0:0,0:0:0:0:
495,22,84750,1,6,0:0:0:0:
361,234,85125,6,0,L|202:227,1,160,6|8,0:0|0:0,0:0:0:0:
139,295,85687,2,0,P|113:253|162:145,2,160,2|2|0,0:0|0:0|0:0,0:0:0:0:
238,334,86625,6,0,P|289:332|322:317,1,80,2|0,0:0|0:0,0:0:0:0:
378,244,87000,1,8,0:0:0:0:
337,153,87187,2,0,P|321:79|377:9,2,160,2|2|0,0:0|0:0|0:0,0:0:0:0:
394,210,88125,6,0,P|344:234|257:156,1,160,2|8,0:0|0:0,0:0:0:0:
337,153,88687,2,0,B|321:199|321:199|333:257|333:257|303:333,2,160,2|2|2,0:0|0:0|0:0,0:0:0:0:
276,78,89625,6,0,P|233:70|186:93,1,80,2|8,0:0|0:3,0:0:0:0:
164,176,90000,2,0,P|205:182|251:163,1,80,8|4,0:0|0:3,0:0:0:0:
337,153,90375,1,4,0:0:0:0:
295,239,90562,1,2,0:0:0:0:
350,320,90750,2,0,L|449:321,1,80,10|2,0:0|0:0,0:0:0:0:
426,219,91125,6,0,L|505:229,2,80,6|0|8,0:0|0:0|0:0,0:0:0:0:
422,120,91687,2,0,P|438:82|361:-5,2,160,2|2|0,0:0|0:0|0:0,0:0:0:0:
319,143,92625,5,2,0:0:0:0:
390,221,92812,1,0,0:0:0:0:
316,298,93000,1,8,0:0:0:0:
316,298,93187,2,0,B|232:289|232:289|149:326,1,160,2|2,0:0|0:0,0:0:0:0:
60,307,93750,1,10,0:0:0:0:
124,226,93937,1,2,0:0:0:0:
124,226,94031,1,0,0:0:0:0:
124,226,94125,6,8,L|199:199,1,80,4|4,0:0|0:0,0:0:0:0:
282,271,94687,6,8,L|309:196,1,80,4|4,0:0|0:0,0:0:0:0:
419,179,95250,6,8,L|379:109,1,80,4|4,0:0|0:0,0:0:0:0:
436,17,95812,6,8,L|357:2,1,80,4|4,0:0|0:0,0:0:0:0:
265,81,96188,1,2,0:0:0:0:
265,81,96281,1,2,0:0:0:0:
265,81,96375,6,8,P|260:125|282:180,1,80,6|0,0:0|0:0,0:0:0:0:
381,113,96750,1,2,0:0:0:0:
363,247,96937,1,4,0:0:0:0:
256,192,97031,12,0,101625,0:0:0:0:
