osu file format v14

[General]
AudioFilename: Precious Wing.mp3
AudioLeadIn: 0
PreviewTime: 56625
Countdown: 0
SampleSet: Soft
StackLeniency: 0.7
Mode: 0
LetterboxInBreaks: 0
WidescreenStoryboard: 0

[Editor]
DistanceSpacing: 1
BeatDivisor: 4
GridSize: 8
TimelineZoom: 1

[Metadata]
Title:Precious Wing (Movie ver)
TitleUnicode:Precious Wing (Movie ver)
Artist:Chata
ArtistUnicode:茶太
Creator:Dragontail
Version:Flying Shoe
Source:この大空に、翼をひろげて
Tags:if my heart had wings Kono Oozora Ni Tsubasa Wo Hirogete moenovel pulltop eroge visual novel short version
BeatmapID:1351226
BeatmapSetID:636912

[Difficulty]
HPDrainRate:6
CircleSize:4
OverallDifficulty:8
ApproachRate:8.8
SliderMultiplier:1.8
SliderTickRate:1

[Events]
//Background and Video events
0,0,"dh.png",0,0
Video,0,"Chata- Precious Wing.avi"
//Break Periods
2,56450,57496
//Storyboard Layer 0 (Background)
//Storyboard Layer 1 (Fail)
//Storyboard Layer 2 (Pass)
//Storyboard Layer 3 (Foreground)
//Storyboard Sound Samples

[TimingPoints]
2625,375,4,2,1,40,1,0
5625,-100,4,2,1,50,0,0
20625,-100,4,2,1,45,0,0
43500,-100,4,2,2,50,0,0
44625,-100,4,2,1,60,0,0
53625,-83.3333333333333,4,2,1,60,0,0
55125,-100,4,2,2,60,0,0
56812,-100,4,2,1,35,0,0
57000,-100,4,2,1,40,0,0
57375,-100,4,2,1,50,0,0
57750,-100,4,2,2,50,0,0
58125,-90.9090909090909,4,2,1,70,0,1
66187,-90.9090909090909,4,2,1,60,0,1
66375,-90.9090909090909,4,2,1,70,0,1
66562,-90.9090909090909,4,2,1,60,0,1
66750,-90.9090909090909,4,2,1,70,0,1
69750,-90.9090909090909,4,2,2,70,0,1
70125,-90.9090909090909,4,2,1,70,0,1
80812,-90.9090909090909,4,2,1,60,0,1
81000,-90.9090909090909,4,2,1,70,0,1
81187,-90.9090909090909,4,2,1,60,0,1
81375,-90.9090909090909,4,2,1,70,0,1
84750,-90.9090909090909,4,2,2,70,0,1
85125,-90.9090909090909,4,2,1,70,0,1
89812,-90.9090909090909,4,2,1,60,0,1
90000,-90.9090909090909,4,2,1,70,0,1
90187,-90.9090909090909,4,2,1,60,0,1
90375,-90.9090909090909,4,2,1,70,0,1
97031,-100,4,2,1,40,0,0
101625,-100,4,2,1,10,0,0

[HitObjects]
48,64,5250,5,0,0:0:0:0:
72,64,5343,1,0,0:0:0:0:
96,64,5437,1,0,0:0:0:0:
120,64,5531,1,0,0:0:0:0:
144,64,5625,6,0,L|248:64,1,90
349,24,6000,2,0,P|357:72|349:120,1,90
298,209,6375,2,0,P|366:215|412:203,1,90
470,170,6750,2,0,P|486:234|462:266,1,90
505,342,7125,6,0,P|453:356|409:318,1,90
355,243,7500,1,0,0:0:0:0:
288,328,7687,2,0,L|176:328,1,90
91,355,8062,2,0,P|83:299|115:267,1,90
67,196,8437,1,0,0:0:0:0:
67,196,8625,6,0,L|67:92,1,90
160,40,9000,1,0,0:0:0:0:
160,40,9187,2,0,P|216:32|352:48,1,180
448,19,9750,2,0,P|456:75|448:107,1,90
468,190,10125,5,0,0:0:0:0:
468,190,10312,1,0,0:0:0:0:
486,279,10500,1,0,0:0:0:0:
486,279,10687,1,0,0:0:0:0:
444,350,10875,2,0,L|348:350,1,90
241,353,11250,1,0,0:0:0:0:
130,294,11437,1,0,0:0:0:0:
216,208,11625,6,0,L|264:192|328:224,1,90
395,263,12000,2,0,L|411:215|379:151,1,90
360,88,12375,1,0,0:0:0:0:
360,88,12562,1,0,0:0:0:0:
260,124,12750,2,0,P|212:116|156:116,1,90
122,27,13125,5,0,0:0:0:0:
122,27,13312,1,0,0:0:0:0:
53,115,13500,1,0,0:0:0:0:
53,115,13687,1,0,0:0:0:0:
117,199,13875,2,0,B|93:279|93:279|157:351,1,180
232,256,14437,1,0,0:0:0:0:
336,192,14625,6,0,B|360:272|360:272|296:344,1,180
144,344,15375,2,0,L|64:256,1,90
152,191,15750,2,0,L|216:127,1,90
281,53,16125,5,0,0:0:0:0:
369,136,16312,1,0,0:0:0:0:
470,55,16500,2,0,P|479:138|465:168,1,90
435,227,16875,1,0,0:0:0:0:
435,227,17062,1,0,0:0:0:0:
354,279,17250,1,0,0:0:0:0:
354,279,17437,1,0,0:0:0:0:
248,272,17625,6,0,L|136:272,2,90
360,344,18187,2,0,P|384:280|336:176,1,180
192,40,18938,1,0,0:0:0:0:
88,208,19312,5,0,0:0:0:0:
160,312,19500,2,0,P|224:328|360:296,1,180
440,264,20250,2,0,P|464:328|448:344,1,90
336,352,20625,5,0,0:0:0:0:
336,352,20812,1,0,0:0:0:0:
216,344,21000,2,0,P|169:343|120:304,1,90
40,288,21375,2,0,P|88:235|112:232,1,90
184,184,21750,1,0,0:0:0:0:
280,144,21937,1,0,0:0:0:0:
280,144,22031,1,0,0:0:0:0:
280,144,22125,6,0,L|408:144,1,90
472,184,22500,1,0,0:0:0:0:
472,184,22687,2,0,P|472:112|456:64,1,90
360,32,23062,1,0,0:0:0:0:
264,80,23250,1,0,0:0:0:0:
168,40,23437,1,0,0:0:0:0:
168,40,23531,1,0,0:0:0:0:
168,40,23625,6,0,L|128:152,1,90
80,208,24000,2,0,P|150:228|184:207,1,90
240,176,24375,2,0,P|257:242|220:286,1,90
192,328,24750,1,0,0:0:0:0:
104,272,24937,1,0,0:0:0:0:
104,272,25031,1,0,0:0:0:0:
104,272,25125,6,0,L|104:168,1,90
176,112,25500,2,0,L|288:112,1,90
368,112,25875,1,0,0:0:0:0:
368,112,26062,1,0,0:0:0:0:
464,192,26250,1,0,0:0:0:0:
368,272,26437,1,0,0:0:0:0:
368,272,26531,1,0,0:0:0:0:
368,272,26625,6,0,P|320:296|264:304,1,90
184,344,27000,1,0,0:0:0:0:
72,304,27187,1,0,0:0:0:0:
72,304,27281,1,0,0:0:0:0:
72,304,27375,2,0,P|96:232|72:192,1,90
56,120,27750,1,0,0:0:0:0:
176,40,27937,1,0,0:0:0:0:
176,40,28031,1,0,0:0:0:0:
176,40,28125,6,0,L|304:40,1,90
384,40,28500,2,0,P|376:112|360:144,1,90
304,176,28875,2,0,P|352:208|391:200,1,90
480,272,29250,1,0,0:0:0:0:
384,368,29437,1,0,0:0:0:0:
272,280,29625,6,0,L|160:280,1,90
80,192,30000,1,0,0:0:0:0:
176,120,30187,1,0,0:0:0:0:
176,120,30375,2,0,L|272:120,1,90
376,96,30750,1,0,0:0:0:0:
384,264,30937,1,0,0:0:0:0:
384,264,31031,1,0,0:0:0:0:
384,264,31125,6,0,P|344:320|296:336,1,90
232,328,31500,1,0,0:0:0:0:
200,240,31687,2,0,P|224:189|274:178,1,90
352,144,32062,2,0,P|397:122|448:112,2,90
240,80,32625,6,0,L|136:80,1,90
72,152,33000,1,0,0:0:0:0:
144,232,33187,1,0,0:0:0:0:
144,232,33281,1,0,0:0:0:0:
144,232,33375,2,0,L|224:312,1,90
296,248,33750,1,0,0:0:0:0:
408,312,33937,1,0,0:0:0:0:
408,312,34125,6,0,P|432:248|424:200,1,90
464,144,34500,1,0,0:0:0:0:
464,144,34687,2,0,P|400:136|352:144,1,90
288,64,35062,1,0,0:0:0:0:
200,136,35250,1,0,0:0:0:0:
104,64,35437,1,0,0:0:0:0:
104,64,35531,1,0,0:0:0:0:
104,64,35625,6,0,P|80:120|80:176,1,90
32,224,36000,2,0,P|80:232|136:208,1,90
200,256,36375,1,0,0:0:0:0:
200,256,36562,1,0,0:0:0:0:
280,320,36750,1,0,0:0:0:0:
368,256,36937,1,0,0:0:0:0:
368,256,37125,6,0,P|424:208|440:168,1,90
496,120,37500,2,0,P|446:90|391:117,1,90
336,48,37875,2,0,P|320:120|336:168,1,90
416,200,38250,1,0,0:0:0:0:
328,256,38436,1,0,0:0:0:0:
328,256,38530,1,0,0:0:0:0:
328,256,38624,6,0,P|304:360|296:368,1,90
232,296,39000,1,0,0:0:0:0:
136,296,39187,2,0,L|32:296,2,90
216,224,39750,1,0,0:0:0:0:
136,144,39937,1,0,0:0:0:0:
136,144,40125,6,0,P|196:113|248:120,1,90
296,72,40500,1,0,0:0:0:0:
296,72,40687,2,0,P|312:128|296:160,1,90
344,232,41062,1,0,0:0:0:0:
416,304,41250,1,0,0:0:0:0:
336,352,41437,1,0,0:0:0:0:
336,352,41625,6,0,L|224:352,1,90
246,352,42000,1,0,0:0:0:0:
176,248,42187,1,0,0:0:0:0:
64,336,42375,2,0,L|64:224,1,90
160,144,42750,1,0,0:0:0:0:
288,240,42937,1,0,0:0:0:0:
288,240,43125,6,0,L|392:240,1,90
456,288,43500,2,0,L|456:176,1,90
416,112,43875,1,0,0:0:0:0:
416,112,44062,1,0,0:0:0:0:
320,48,44250,1,0,0:0:0:0:
320,48,44437,1,0,0:0:0:0:
208,19,44625,6,0,P|195:90|205:129,1,90
290,151,45000,1,0,0:0:0:0:
290,151,45187,2,0,P|325:196|283:226,2,90
368,75,45750,1,0,0:0:0:0:
286,26,45937,1,0,0:0:0:0:
258,27,46031,1,0,0:0:0:0:
229,29,46125,6,0,L|128:29,1,90
63,91,46500,1,0,0:0:0:0:
63,91,46687,1,0,0:0:0:0:
124,191,46875,1,0,0:0:0:0:
199,95,47062,1,0,0:0:0:0:
199,95,47250,1,0,0:0:0:0:
270,224,47437,1,0,0:0:0:0:
270,247,47531,1,0,0:0:0:0:
270,274,47625,6,0,P|317:288|374:271,1,90
448,346,48000,1,0,0:0:0:0:
448,346,48187,2,0,P|471:292|423:168,1,180
365,95,48750,1,0,0:0:0:0:
288,184,48937,1,0,0:0:0:0:
288,184,49031,1,0,0:0:0:0:
288,184,49125,6,0,L|194:186,1,90
93,231,49500,2,0,P|86:179|106:139,1,90
160,58,49875,1,0,0:0:0:0:
238,129,50062,1,0,0:0:0:0:
313,58,50250,1,0,0:0:0:0:
407,131,50437,1,0,0:0:0:0:
407,131,50531,1,0,0:0:0:0:
407,131,50625,6,0,L|412:235,1,90
458,291,51000,2,0,P|404:316|373:287,1,90
296,241,51375,1,0,0:0:0:0:
296,241,51562,1,0,0:0:0:0:
219,170,51750,1,0,0:0:0:0:
219,170,51937,1,0,0:0:0:0:
152,95,52125,6,0,L|97:18,2,90
163,208,52687,2,0,P|240:165|253:134,1,90,0|0,0:0|0:0,2:0:0:0:
292,89,53062,1,0,0:0:0:0:
371,171,53250,1,0,0:0:0:0:
375,344,53625,6,0,L|296:257,1,107.999996704102
236,200,54000,1,0,0:0:0:0:
75,327,54187,2,0,L|168:251,1,107.999996704102
236,200,54562,1,0,0:0:0:0:
256,192,54750,12,0,56250,0:0:0:0:
106,239,58125,6,0,P|148:257|205:233,1,99.0000030212403
298,300,58500,1,0,0:0:0:0:
298,300,58687,1,0,0:0:0:0:
400,225,58875,1,0,0:0:0:0:
400,225,59062,1,0,0:0:0:0:
309,143,59250,1,0,0:0:0:0:
406,78,59437,1,0,0:0:0:0:
406,78,59531,1,0,0:0:0:0:
406,78,59625,2,0,P|333:72|270:73,1,99.0000030212403
